CopyPastehas never been so tasty!

Mr. Brooks (2007)

by anonymous

  • 0
  • 0
303 views

Disc Title:     Mr. Brooks (2007)
Disc Size:      28 816 621 983 bytes
Protection:     AACS
BD-Java:        No
BDInfo:         0.5.6

Notes:         

BDINFO HOME:
  Cinema Squid
    http://www.cinemasquid.com/blu-ray/tools/bdinfo

INCLUDES FORUMS REPORT FOR:
  AVS Forum Blu-ray Audio and Video Specifications Thread
    http://www.avsforum.com/avs-vb/showthread.php?t=1155731


********************
PLAYLIST: 00001.MPLS
********************

<--- BEGIN FORUMS PASTE --->
[code]
                                                                                                                Total   Video                                            
Title                                                           Codec   Length  Movie Size      Disc Size       Bitrate Bitrate Main Audio Track                          Secondary Audio Track
-----                                                           ------  ------- --------------  --------------  ------- ------- ------------------                        ---------------------
00001.MPLS                                                      AVC     2:00:43 25 120 346 112  28 816 621 983  27,75   21,46   DTS-HD Master 5.1 2295Kbps (48kHz/24-bit)
[/code]

[code]

DISC INFO:

Disc Title:     Mr. Brooks (2007)
Disc Size:      28 816 621 983 bytes
Protection:     AACS
BD-Java:        No
BDInfo:         0.5.6

PLAYLIST REPORT:

Name:                   00001.MPLS
Length:                 2:00:43 (h:m:s)
Size:                   25 120 346 112 bytes
Total Bitrate:          27,75 Mbps

VIDEO:

Codec                   Bitrate             Description    
-----                   -------             -----------    
MPEG-4 AVC Video        21458 kbps          1080p / 23,976 fps / 16:9 / High Profile 4.1

AUDIO:

Codec                           Language        Bitrate         Description    
-----                           --------        -------         -----------    
DTS-HD Master Audio             English         2295 kbps       5.1 / 48 kHz / 2295 kbps / 24-bit (DTS Core: 5.1 / 48 kHz / 1509 kbps / 24-bit)
DTS-HD High-Res Audio           Russian         2046 kbps       5.1 / 48 kHz / 2046 kbps / 16-bit (DTS Core: 5.1 / 48 kHz / 1509 kbps / 16-bit)
Dolby Digital Audio             English         224 kbps        2.0 / 48 kHz / 224 kbps / DN -4dB

SUBTITLES:

Codec                           Language        Bitrate         Description    
-----                           --------        -------         -----------    
Presentation Graphics           English         40,151 kbps                    
Presentation Graphics           Russian         39,623 kbps                    
Presentation Graphics           Russian         5,432 kbps                     

FILES:

Name            Time In         Length          Size            Total Bitrate  
----            -------         ------          ----            -------------  
00003.M2TS      0:00:00.000     2:00:43.194     25 120 346 112  27 745         

CHAPTERS:

Number          Time In         Length          Avg Video Rate  Max 1-Sec Rate  Max 1-Sec Time  Max 5-Sec Rate  Max 5-Sec Time  Max 10Sec Rate  Max 10Sec Time  Avg Frame Size  Max Frame Size  Max Frame Time 
------          -------         ------          --------------  --------------  --------------  --------------  --------------  --------------  --------------  --------------  --------------  -------------- 
1               0:00:00.000     0:02:56.301     16 039 kbps     33 316 kbps     00:01:13.823    28 547 kbps     00:02:41.578    27 222 kbps     00:02:42.579    83 598 bytes    614 053 bytes   00:00:14.014   
2               0:02:56.301     0:02:08.795     19 789 kbps     29 509 kbps     00:03:01.097    24 950 kbps     00:03:32.420    22 985 kbps     00:03:32.003    103 168 bytes   371 782 bytes   00:02:57.302   
3               0:05:05.096     0:00:51.176     20 188 kbps     28 068 kbps     00:05:55.271    23 815 kbps     00:05:51.267    22 923 kbps     00:05:46.262    105 250 bytes   393 069 bytes   00:05:56.272   
4               0:05:56.272     0:01:27.879     24 915 kbps     32 975 kbps     00:06:41.859    28 057 kbps     00:07:16.102    26 882 kbps     00:06:41.484    129 895 bytes   441 314 bytes   00:06:54.247   
5               0:07:24.152     0:01:24.375     22 777 kbps     35 446 kbps     00:08:01.481    28 146 kbps     00:07:58.477    26 705 kbps     00:07:55.558    118 750 bytes   425 063 bytes   00:08:26.005   
6               0:08:48.528     0:03:20.116     18 845 kbps     36 368 kbps     00:10:43.059    27 939 kbps     00:10:42.433    27 667 kbps     00:10:36.260    98 250 bytes    529 825 bytes   00:10:57.698   
7               0:12:08.644     0:02:00.829     21 326 kbps     37 849 kbps     00:14:07.471    32 939 kbps     00:14:04.468    27 663 kbps     00:13:58.963    111 182 bytes   433 523 bytes   00:12:21.657   
8               0:14:09.473     0:02:32.318     26 409 kbps     40 289 kbps     00:16:27.569    32 314 kbps     00:16:12.262    30 528 kbps     00:14:41.255    137 685 bytes   426 516 bytes   00:16:11.303   
9               0:16:41.792     0:01:16.868     24 147 kbps     29 719 kbps     00:17:16.702    26 833 kbps     00:17:16.785    25 839 kbps     00:17:42.436    125 890 bytes   448 478 bytes   00:16:48.090   
10              0:17:58.660     0:05:21.988     24 191 kbps     43 066 kbps     00:20:36.693    32 486 kbps     00:18:20.724    31 379 kbps     00:18:15.469    126 122 bytes   415 632 bytes   00:18:28.023   
11              0:23:20.649     0:04:50.665     23 690 kbps     37 598 kbps     00:23:53.390    31 554 kbps     00:23:52.639    28 983 kbps     00:23:23.443    123 507 bytes   414 775 bytes   00:27:43.286   
12              0:28:11.314     0:03:40.094     26 636 kbps     40 269 kbps     00:31:20.712    33 207 kbps     00:30:12.352    30 607 kbps     00:30:07.472    138 869 bytes   418 691 bytes   00:29:43.907   
13              0:31:51.409     0:03:03.975     19 810 kbps     37 440 kbps     00:33:27.588    31 018 kbps     00:33:45.898    28 523 kbps     00:33:40.852    103 282 bytes   392 795 bytes   00:33:03.189   
14              0:34:55.384     0:02:59.929     26 998 kbps     34 552 kbps     00:34:56.469    30 585 kbps     00:36:18.259    29 233 kbps     00:36:10.918    140 754 bytes   456 381 bytes   00:35:02.391   
15              0:37:55.314     0:03:17.822     20 051 kbps     33 171 kbps     00:38:38.482    29 050 kbps     00:38:02.530    28 832 kbps     00:38:01.821    104 535 bytes   437 409 bytes   00:38:04.073   
16              0:41:13.137     0:08:57.453     20 305 kbps     41 879 kbps     00:42:11.487    32 777 kbps     00:41:55.888    28 788 kbps     00:48:16.101    105 862 bytes   442 143 bytes   00:45:19.883   
17              0:50:10.590     0:03:04.058     24 411 kbps     42 175 kbps     00:50:18.098    40 509 kbps     00:50:18.098    34 321 kbps     00:50:14.386    127 267 bytes   429 093 bytes   00:51:02.100   
18              0:53:14.649     0:03:04.934     27 847 kbps     43 466 kbps     00:54:48.159    35 802 kbps     00:54:44.281    34 877 kbps     00:54:43.822    145 183 bytes   439 446 bytes   00:53:16.651   
19              0:56:19.584     0:02:47.834     18 860 kbps     35 560 kbps     00:57:00.667    26 290 kbps     00:56:27.634    25 705 kbps     00:56:26.633    98 327 bytes    427 149 bytes   00:56:33.598   
20              0:59:07.418     0:04:18.257     21 127 kbps     38 039 kbps     01:00:02.640    31 940 kbps     01:00:26.247    30 285 kbps     01:00:21.242    110 148 bytes   505 816 bytes   00:59:10.421   
21              1:03:25.676     0:08:18.873     24 777 kbps     42 144 kbps     01:07:46.437    33 236 kbps     01:03:45.905    32 810 kbps     01:03:45.696    129 175 bytes   526 082 bytes   01:03:39.482   
22              1:11:44.550     0:03:36.674     24 068 kbps     44 914 kbps     01:15:00.996    34 420 kbps     01:15:00.412    33 149 kbps     01:14:54.865    125 479 bytes   399 309 bytes   01:14:31.717   
23              1:15:21.225     0:06:03.571     25 982 kbps     43 838 kbps     01:17:49.748    37 256 kbps     01:17:49.039    32 736 kbps     01:17:43.367    135 458 bytes   488 288 bytes   01:21:23.795   
24              1:21:24.796     0:05:14.689     21 176 kbps     39 406 kbps     01:22:01.833    31 300 kbps     01:22:01.499    28 650 kbps     01:22:28.610    110 402 bytes   445 454 bytes   01:23:22.122   
25              1:26:39.485     0:03:38.092     22 529 kbps     32 151 kbps     01:27:22.320    30 798 kbps     01:27:22.320    29 242 kbps     01:27:22.403    117 454 bytes   465 940 bytes   01:29:07.592   
26              1:30:17.578     0:05:19.861     22 245 kbps     42 444 kbps     01:33:24.557    37 894 kbps     01:33:23.347    32 020 kbps     01:33:22.179    115 974 bytes   437 173 bytes   01:30:20.581   
27              1:35:37.440     0:02:51.838     25 762 kbps     40 675 kbps     01:38:11.635    35 141 kbps     01:38:11.343    32 765 kbps     01:36:20.399    134 309 bytes   430 042 bytes   01:38:29.278   
28              1:38:29.278     0:03:06.019     18 290 kbps     30 607 kbps     01:39:03.062    23 584 kbps     01:40:30.774    21 458 kbps     01:40:25.644    95 354 bytes    417 747 bytes   01:40:34.778   
29              1:41:35.297     0:03:04.726     22 500 kbps     42 117 kbps     01:43:05.095    34 290 kbps     01:43:04.636    32 840 kbps     01:42:59.214    117 304 bytes   407 102 bytes   01:42:48.579   
30              1:44:40.023     0:03:23.036     14 607 kbps     32 502 kbps     01:47:20.976    23 933 kbps     01:47:17.389    22 391 kbps     01:47:13.176    76 154 bytes    393 517 bytes   01:45:58.393   
31              1:48:03.059     0:06:22.215     21 947 kbps     40 737 kbps     01:50:43.511    31 732 kbps     01:49:28.395    30 227 kbps     01:49:22.264    114 422 bytes   424 574 bytes   01:48:10.817   
32              1:54:25.275     0:06:17.919     3 803 kbps      16 976 kbps     01:55:31.090    7 181 kbps      01:55:31.090    5 975 kbps      02:00:19.503    19 827 bytes    500 867 bytes   02:00:21.631   

STREAM DIAGNOSTICS:

File            PID             Type            Codec           Language                Seconds                 Bitrate                 Bytes           Packets        
----            ---             ----            -----           --------                --------------          --------------          -------------   -----          
00003.M2TS      4113 (0x1011)   0x1B            AVC                                     7243,027                21 458                  19 427 806 695  105 687 551    
00003.M2TS      4352 (0x1100)   0x86            DTS-HD MA       eng (English)           7243,027                2 295                   2 077 978 664   12 475 347     
00003.M2TS      4353 (0x1101)   0x81            AC3             eng (English)           7243,027                224                     202 809 600     1 131 750      
00003.M2TS      4354 (0x1102)   0x85            DTS-HD HR       rus (Russian)           7243,027                2 045                   1 851 924 624   10 861 728     
00003.M2TS      4608 (0x1200)   0x90            PGS             rus (Russian)           7243,027                40                      35 874 437      203 344        
00003.M2TS      4609 (0x1201)   0x90            PGS             eng (English)           7243,027                40                      36 352 284      205 194        
00003.M2TS      4610 (0x1202)   0x90            PGS             rus (Russian)           7243,027                5                       4 917 795       27 558         

[/code]
<---- END FORUMS PASTE ---->

QUICK SUMMARY:

Disc Title: Mr. Brooks (2007)
Disc Size: 28 816 621 983 bytes
Protection: AACS
BD-Java: No
Playlist: 00001.MPLS
Size: 25 120 346 112 bytes
Length: 2:00:43
Total Bitrate: 27,75 Mbps
Video: MPEG-4 AVC Video / 21458 kbps / 1080p / 23,976 fps / 16:9 / High Profile 4.1
Audio: English / DTS-HD Master Audio / 5.1 / 48 kHz / 2295 kbps / 24-bit (DTS Core: 5.1 / 48 kHz / 1509 kbps / 24-bit)
Audio: Russian / DTS-HD High-Res Audio / 5.1 / 48 kHz / 2046 kbps / 16-bit (DTS Core: 5.1 / 48 kHz / 1509 kbps / 16-bit)
Audio: English / Dolby Digital Audio / 2.0 / 48 kHz / 224 kbps / DN -4dB
Subtitle: English / 40,151 kbps
Subtitle: Russian / 39,623 kbps
Subtitle: Russian / 5,432 kbps


********************
PLAYLIST: 00006.MPLS
********************

<--- BEGIN FORUMS PASTE --->
[code]
                                                                                                                Total   Video                                            
Title                                                           Codec   Length  Movie Size      Disc Size       Bitrate Bitrate Main Audio Track                          Secondary Audio Track
-----                                                           ------  ------- --------------  --------------  ------- ------- ------------------                        ---------------------
00006.MPLS                                                      AVC     0:26:13 2 579 675 136   28 816 621 983  13,12   11,81   DD AC3 2.0 192Kbps                       
[/code]

[code]

DISC INFO:

Disc Title:     Mr. Brooks (2007)
Disc Size:      28 816 621 983 bytes
Protection:     AACS
BD-Java:        No
BDInfo:         0.5.6

PLAYLIST REPORT:

Name:                   00006.MPLS
Length:                 0:26:13 (h:m:s)
Size:                   2 579 675 136 bytes
Total Bitrate:          13,12 Mbps

VIDEO:

Codec                   Bitrate             Description    
-----                   -------             -----------    
MPEG-4 AVC Video        11805 kbps          480i / 29,970 fps / 4:3 / High Profile 3.2

AUDIO:

Codec                           Language        Bitrate         Description    
-----                           --------        -------         -----------    
Dolby Digital Audio             English         192 kbps        2.0 / 48 kHz / 192 kbps / DN -4dB
Dolby Digital Audio             English         192 kbps        2.0 / 48 kHz / 192 kbps / DN -4dB
Dolby Digital Audio             Russian         192 kbps        2.0 / 48 kHz / 192 kbps / DN -4dB

SUBTITLES:

Codec                           Language        Bitrate         Description    
-----                           --------        -------         -----------    
Presentation Graphics           English         0,010 kbps                     
Presentation Graphics           Russian         0,010 kbps                     
Presentation Graphics           Russian         0,010 kbps                     

FILES:

Name            Time In         Length          Size            Total Bitrate  
----            -------         ------          ----            -------------  
00008.M2TS      0:00:00.000     0:26:13.338     2 579 675 136   13 117         

CHAPTERS:

Number          Time In         Length          Avg Video Rate  Max 1-Sec Rate  Max 1-Sec Time  Max 5-Sec Rate  Max 5-Sec Time  Max 10Sec Rate  Max 10Sec Time  Avg Frame Size  Max Frame Size  Max Frame Time 
------          -------         ------          --------------  --------------  --------------  --------------  --------------  --------------  --------------  --------------  --------------  -------------- 
1               0:00:00.000     0:26:13.338     11 805 kbps     16 069 kbps     00:25:15.814    13 809 kbps     00:18:43.322    13 670 kbps     00:18:40.919    49 238 bytes    208 683 bytes   00:09:06.679   

STREAM DIAGNOSTICS:

File            PID             Type            Codec           Language                Seconds                 Bitrate                 Bytes           Packets        
----            ---             ----            -----           --------                --------------          --------------          -------------   -----          
00008.M2TS      4113 (0x1011)   0x1B            AVC                                     1573,272                11 806                  2 321 712 695   12 645 518     
00008.M2TS      4352 (0x1100)   0x81            AC3             eng (English)           1573,272                192                     37 760 256      245 835        
00008.M2TS      4353 (0x1101)   0x81            AC3             eng (English)           1573,272                192                     37 760 256      245 835        
00008.M2TS      4354 (0x1102)   0x81            AC3             rus (Russian)           1573,272                192                     37 760 256      245 835        
00008.M2TS      4608 (0x1200)   0x90            PGS             rus (Russian)           1573,272                0                       1 936           18             
00008.M2TS      4609 (0x1201)   0x90            PGS             eng (English)           1573,272                0                       1 936           18             
00008.M2TS      4610 (0x1202)   0x90            PGS             rus (Russian)           1573,272                0                       1 936           18             

[/code]
<---- END FORUMS PASTE ---->

QUICK SUMMARY:

Disc Title: Mr. Brooks (2007)
Disc Size: 28 816 621 983 bytes
Protection: AACS
BD-Java: No
Playlist: 00006.MPLS
Size: 2 579 675 136 bytes
Length: 0:26:13
Total Bitrate: 13,12 Mbps
Video: MPEG-4 AVC Video / 11805 kbps / 480i / 29,970 fps / 4:3 / High Profile 3.2
Audio: English / Dolby Digital Audio / 2.0 / 48 kHz / 192 kbps / DN -4dB
Audio: English / Dolby Digital Audio / 2.0 / 48 kHz / 192 kbps / DN -4dB
Audio: Russian / Dolby Digital Audio / 2.0 / 48 kHz / 192 kbps / DN -4dB
Subtitle: English / 0,010 kbps
Subtitle: Russian / 0,010 kbps
Subtitle: Russian / 0,010 kbps


********************
PLAYLIST: 00007.MPLS
********************

<--- BEGIN FORUMS PASTE --->
[code]
                                                                                                                Total   Video                                            
Title                                                           Codec   Length  Movie Size      Disc Size       Bitrate Bitrate Main Audio Track                          Secondary Audio Track
-----                                                           ------  ------- --------------  --------------  ------- ------- ------------------                        ---------------------
00007.MPLS                                                      AVC     0:03:42 454 391 808     28 816 621 983  16,35   15,18   DD AC3 2.0 384Kbps                       
[/code]

[code]

DISC INFO:

Disc Title:     Mr. Brooks (2007)
Disc Size:      28 816 621 983 bytes
Protection:     AACS
BD-Java:        No
BDInfo:         0.5.6

PLAYLIST REPORT:

Name:                   00007.MPLS
Length:                 0:03:42 (h:m:s)
Size:                   454 391 808 bytes
Total Bitrate:          16,35 Mbps

VIDEO:

Codec                   Bitrate             Description    
-----                   -------             -----------    
MPEG-4 AVC Video        15182 kbps          1080i / 29,970 fps / 16:9 / High Profile 4.1

AUDIO:

Codec                           Language        Bitrate         Description    
-----                           --------        -------         -----------    
Dolby Digital Audio             English         384 kbps        2.0 / 48 kHz / 384 kbps / DN -4dB

FILES:

Name            Time In         Length          Size            Total Bitrate  
----            -------         ------          ----            -------------  
00005.M2TS      0:00:00.000     0:02:45.231     317 343 744     15 365         
00006.M2TS      0:02:45.231     0:00:57.057     137 048 064     19 216         

CHAPTERS:

Number          Time In         Length          Avg Video Rate  Max 1-Sec Rate  Max 1-Sec Time  Max 5-Sec Rate  Max 5-Sec Time  Max 10Sec Rate  Max 10Sec Time  Avg Frame Size  Max Frame Size  Max Frame Time 
------          -------         ------          --------------  --------------  --------------  --------------  --------------  --------------  --------------  --------------  --------------  -------------- 
1               0:00:00.000     0:02:45.231     14 235 kbps     31 671 kbps     00:00:58.758    26 189 kbps     00:00:45.311    22 398 kbps     00:00:43.076    59 358 bytes    422 962 bytes   00:02:02.021   
2               0:02:45.231     0:00:57.057     17 925 kbps     34 983 kbps     00:03:08.755    29 944 kbps     00:03:00.246    27 916 kbps     00:03:00.246    74 807 bytes    432 445 bytes   00:03:39.319   

STREAM DIAGNOSTICS:

File            PID             Type            Codec           Language                Seconds                 Bitrate                 Bytes           Packets        
----            ---             ----            -----           --------                --------------          --------------          -------------   -----          
00005.M2TS      4113 (0x1011)   0x1B            AVC                                     165,132                 14 243                  293 998 036     1 600 781      
00005.M2TS      4352 (0x1100)   0x81            AC3             eng (English)           165,132                 384                     7 931 904       46 476         
00006.M2TS      4113 (0x1011)   0x1B            AVC                                     56,990                  17 947                  127 848 448     695 837        
00006.M2TS      4352 (0x1100)   0x81            AC3             eng (English)           56,990                  384                     2 738 688       16 047         

[/code]
<---- END FORUMS PASTE ---->

QUICK SUMMARY:

Disc Title: Mr. Brooks (2007)
Disc Size: 28 816 621 983 bytes
Protection: AACS
BD-Java: No
Playlist: 00007.MPLS
Size: 454 391 808 bytes
Length: 0:03:42
Total Bitrate: 16,35 Mbps
Video: MPEG-4 AVC Video / 15182 kbps / 1080i / 29,970 fps / 16:9 / High Profile 4.1
Audio: English / Dolby Digital Audio / 2.0 / 48 kHz / 384 kbps / DN -4dB


********************
PLAYLIST: 00003.MPLS
********************

<--- BEGIN FORUMS PASTE --->
[code]
                                                                                                                Total   Video                                            
Title                                                           Codec   Length  Movie Size      Disc Size       Bitrate Bitrate Main Audio Track                          Secondary Audio Track
-----                                                           ------  ------- --------------  --------------  ------- ------- ------------------                        ---------------------
00003.MPLS                                                      AVC     0:02:45 317 343 744     28 816 621 983  15,36   14,23   DD AC3 2.0 384Kbps                       
[/code]

[code]

DISC INFO:

Disc Title:     Mr. Brooks (2007)
Disc Size:      28 816 621 983 bytes
Protection:     AACS
BD-Java:        No
BDInfo:         0.5.6

PLAYLIST REPORT:

Name:                   00003.MPLS
Length:                 0:02:45 (h:m:s)
Size:                   317 343 744 bytes
Total Bitrate:          15,36 Mbps

VIDEO:

Codec                   Bitrate             Description    
-----                   -------             -----------    
MPEG-4 AVC Video        14234 kbps          1080i / 29,970 fps / 16:9 / High Profile 4.1

AUDIO:

Codec                           Language        Bitrate         Description    
-----                           --------        -------         -----------    
Dolby Digital Audio             English         384 kbps        2.0 / 48 kHz / 384 kbps / DN -4dB

FILES:

Name            Time In         Length          Size            Total Bitrate  
----            -------         ------          ----            -------------  
00005.M2TS      0:00:00.000     0:02:45.231     317 343 744     15 365         

CHAPTERS:

Number          Time In         Length          Avg Video Rate  Max 1-Sec Rate  Max 1-Sec Time  Max 5-Sec Rate  Max 5-Sec Time  Max 10Sec Rate  Max 10Sec Time  Avg Frame Size  Max Frame Size  Max Frame Time 
------          -------         ------          --------------  --------------  --------------  --------------  --------------  --------------  --------------  --------------  --------------  -------------- 
1               0:00:00.000     0:02:44.230     14 321 kbps     31 671 kbps     00:00:58.758    26 189 kbps     00:00:45.311    22 398 kbps     00:00:43.076    59 717 bytes    422 962 bytes   00:02:02.021   
2               0:02:44.230     0:00:01.000     104 kbps        0 kbps          00:00:00.000    0 kbps          00:00:00.000    0 kbps          00:00:00.000    447 bytes       490 bytes       00:02:45.198   

STREAM DIAGNOSTICS:

File            PID             Type            Codec           Language                Seconds                 Bitrate                 Bytes           Packets        
----            ---             ----            -----           --------                --------------          --------------          -------------   -----          
00005.M2TS      4113 (0x1011)   0x1B            AVC                                     165,132                 14 243                  293 998 036     1 600 781      
00005.M2TS      4352 (0x1100)   0x81            AC3             eng (English)           165,132                 384                     7 931 904       46 476         

[/code]
<---- END FORUMS PASTE ---->

QUICK SUMMARY:

Disc Title: Mr. Brooks (2007)
Disc Size: 28 816 621 983 bytes
Protection: AACS
BD-Java: No
Playlist: 00003.MPLS
Size: 317 343 744 bytes
Length: 0:02:45
Total Bitrate: 15,36 Mbps
Video: MPEG-4 AVC Video / 14234 kbps / 1080i / 29,970 fps / 16:9 / High Profile 4.1
Audio: English / Dolby Digital Audio / 2.0 / 48 kHz / 384 kbps / DN -4dB


********************
PLAYLIST: 00004.MPLS
********************

<--- BEGIN FORUMS PASTE --->
[code]
                                                                                                                Total   Video                                            
Title                                                           Codec   Length  Movie Size      Disc Size       Bitrate Bitrate Main Audio Track                          Secondary Audio Track
-----                                                           ------  ------- --------------  --------------  ------- ------- ------------------                        ---------------------
00004.MPLS                                                      AVC     0:00:57 137 048 064     28 816 621 983  19,22   17,93   DD AC3 2.0 384Kbps                       
[/code]

[code]

DISC INFO:

Disc Title:     Mr. Brooks (2007)
Disc Size:      28 816 621 983 bytes
Protection:     AACS
BD-Java:        No
BDInfo:         0.5.6

PLAYLIST REPORT:

Name:                   00004.MPLS
Length:                 0:00:57 (h:m:s)
Size:                   137 048 064 bytes
Total Bitrate:          19,22 Mbps

VIDEO:

Codec                   Bitrate             Description    
-----                   -------             -----------    
MPEG-4 AVC Video        17926 kbps          1080i / 29,970 fps / 16:9 / High Profile 4.1

AUDIO:

Codec                           Language        Bitrate         Description    
-----                           --------        -------         -----------    
Dolby Digital Audio             English         384 kbps        2.0 / 48 kHz / 384 kbps / DN -4dB

FILES:

Name            Time In         Length          Size            Total Bitrate  
----            -------         ------          ----            -------------  
00006.M2TS      0:00:00.000     0:00:57.057     137 048 064     19 216         

CHAPTERS:

Number          Time In         Length          Avg Video Rate  Max 1-Sec Rate  Max 1-Sec Time  Max 5-Sec Rate  Max 5-Sec Time  Max 10Sec Rate  Max 10Sec Time  Avg Frame Size  Max Frame Size  Max Frame Time 
------          -------         ------          --------------  --------------  --------------  --------------  --------------  --------------  --------------  --------------  --------------  -------------- 
1               0:00:00.000     0:00:57.057     17 926 kbps     34 983 kbps     00:00:23.523    29 944 kbps     00:00:15.014    27 916 kbps     00:00:15.015    74 765 bytes    432 445 bytes   00:00:54.087   

STREAM DIAGNOSTICS:

File            PID             Type            Codec           Language                Seconds                 Bitrate                 Bytes           Packets        
----            ---             ----            -----           --------                --------------          --------------          -------------   -----          
00006.M2TS      4113 (0x1011)   0x1B            AVC                                     56,990                  17 947                  127 848 448     695 837        
00006.M2TS      4352 (0x1100)   0x81            AC3             eng (English)           56,990                  384                     2 738 688       16 047         

[/code]
<---- END FORUMS PASTE ---->

QUICK SUMMARY:

Disc Title: Mr. Brooks (2007)
Disc Size: 28 816 621 983 bytes
Protection: AACS
BD-Java: No
Playlist: 00004.MPLS
Size: 137 048 064 bytes
Length: 0:00:57
Total Bitrate: 19,22 Mbps
Video: MPEG-4 AVC Video / 17926 kbps / 1080i / 29,970 fps / 16:9 / High Profile 4.1
Audio: English / Dolby Digital Audio / 2.0 / 48 kHz / 384 kbps / DN -4dB


********************
PLAYLIST: 00002.MPLS
********************

<--- BEGIN FORUMS PASTE --->
[code]
                                                                                                                Total   Video                                            
Title                                                           Codec   Length  Movie Size      Disc Size       Bitrate Bitrate Main Audio Track                          Secondary Audio Track
-----                                                           ------  ------- --------------  --------------  ------- ------- ------------------                        ---------------------
00002.MPLS                                                      AVC     0:02:28 445 599 744     28 816 621 983  24,06   22,53   DD AC3 5.1 448Kbps                       
[/code]

[code]

DISC INFO:

Disc Title:     Mr. Brooks (2007)
Disc Size:      28 816 621 983 bytes
Protection:     AACS
BD-Java:        No
BDInfo:         0.5.6

PLAYLIST REPORT:

Name:                   00002.MPLS
Length:                 0:02:28 (h:m:s)
Size:                   445 599 744 bytes
Total Bitrate:          24,06 Mbps

VIDEO:

Codec                   Bitrate             Description    
-----                   -------             -----------    
MPEG-4 AVC Video        22530 kbps          1080p / 23,976 fps / 16:9 / High Profile 4.1

AUDIO:

Codec                           Language        Bitrate         Description    
-----                           --------        -------         -----------    
Dolby Digital Audio             English         448 kbps        5.1 / 48 kHz / 448 kbps / DN -4dB

FILES:

Name            Time In         Length          Size            Total Bitrate  
----            -------         ------          ----            -------------  
00004.M2TS      0:00:00.000     0:02:28.148     445 599 744     24 062         

CHAPTERS:

Number          Time In         Length          Avg Video Rate  Max 1-Sec Rate  Max 1-Sec Time  Max 5-Sec Rate  Max 5-Sec Time  Max 10Sec Rate  Max 10Sec Time  Avg Frame Size  Max Frame Size  Max Frame Time 
------          -------         ------          --------------  --------------  --------------  --------------  --------------  --------------  --------------  --------------  --------------  -------------- 
1               0:00:00.000     0:02:28.148     22 530 kbps     47 863 kbps     00:01:16.576    34 293 kbps     00:01:04.606    31 186 kbps     00:01:36.679    117 492 bytes   771 851 bytes   00:01:45.396   

STREAM DIAGNOSTICS:

File            PID             Type            Codec           Language                Seconds                 Bitrate                 Bytes           Packets        
----            ---             ----            -----           --------                --------------          --------------          -------------   -----          
00004.M2TS      4113 (0x1011)   0x1B            AVC                                     148,065                 22 542                  417 215 355     2 269 519      
00004.M2TS      4352 (0x1100)   0x81            AC3             eng (English)           148,065                 448                     8 296 960       46 300         

[/code]
<---- END FORUMS PASTE ---->

QUICK SUMMARY:

Disc Title: Mr. Brooks (2007)
Disc Size: 28 816 621 983 bytes
Protection: AACS
BD-Java: No
Playlist: 00002.MPLS
Size: 445 599 744 bytes
Length: 0:02:28
Total Bitrate: 24,06 Mbps
Video: MPEG-4 AVC Video / 22530 kbps / 1080p / 23,976 fps / 16:9 / High Profile 4.1
Audio: English / Dolby Digital Audio / 5.1 / 48 kHz / 448 kbps / DN -4dB


********************
PLAYLIST: 00005.MPLS
********************

<--- BEGIN FORUMS PASTE --->
[code]
                                                                                                                Total   Video                                            
Title                                                           Codec   Length  Movie Size      Disc Size       Bitrate Bitrate Main Audio Track                          Secondary Audio Track
-----                                                           ------  ------- --------------  --------------  ------- ------- ------------------                        ---------------------
00005.MPLS                                                      AVC     0:00:22 3 674 112       28 816 621 983  1,32    0,98    DTS-HD Master 5.1 72Kbps (48kHz/16-bit)   DD AC3 5.1 640Kbps
[/code]

[code]

DISC INFO:

Disc Title:     Mr. Brooks (2007)
Disc Size:      28 816 621 983 bytes
Protection:     AACS
BD-Java:        No
BDInfo:         0.5.6

PLAYLIST REPORT:

Name:                   00005.MPLS
Length:                 0:00:22 (h:m:s)
Size:                   3 674 112 bytes
Total Bitrate:          1,32 Mbps

VIDEO:

Codec                   Bitrate             Description    
-----                   -------             -----------    
MPEG-4 AVC Video        976 kbps            1080p / 23,976 fps / 16:9 / High Profile 4.1

AUDIO:

Codec                           Language        Bitrate         Description    
-----                           --------        -------         -----------    
DTS-HD Master Audio             English         72 kbps         5.1 / 48 kHz / 72 kbps / 16-bit (DTS Core: 5.1 / 48 kHz / 1509 kbps / 16-bit)
DTS-HD High-Res Audio           Russian         2046 kbps       5.1 / 48 kHz / 2046 kbps / 16-bit (DTS Core: 5.1 / 48 kHz / 1509 kbps / 16-bit)
Dolby Digital Audio             English         640 kbps        5.1 / 48 kHz / 640 kbps

FILES:

Name            Time In         Length          Size            Total Bitrate  
----            -------         ------          ----            -------------  
00007.M2TS      0:00:00.000     0:00:22.272     3 674 112       1 320          

CHAPTERS:

Number          Time In         Length          Avg Video Rate  Max 1-Sec Rate  Max 1-Sec Time  Max 5-Sec Rate  Max 5-Sec Time  Max 10Sec Rate  Max 10Sec Time  Avg Frame Size  Max Frame Size  Max Frame Time 
------          -------         ------          --------------  --------------  --------------  --------------  --------------  --------------  --------------  --------------  --------------  -------------- 
1               0:00:00.000     0:00:22.272     976 kbps        4 717 kbps      00:00:10.969    1 430 kbps      00:00:06.965    1 388 kbps      00:00:01.960    5 088 bytes     78 424 bytes    00:00:09.009   

STREAM DIAGNOSTICS:

File            PID             Type            Codec           Language                Seconds                 Bitrate                 Bytes           Packets        
----            ---             ----            -----           --------                --------------          --------------          -------------   -----          
00007.M2TS      4113 (0x1011)   0x1B            AVC                                     22,147                  981                     2 717 113       15 100         
00007.M2TS      4352 (0x1100)   0x86            DTS-HD MA       eng (English)           22,147                  72                      199 680         1 248          
00007.M2TS      4353 (0x1101)   0x81            AC3             eng (English)           22,147                  30                      81 920          480            
00007.M2TS      4354 (0x1102)   0x85            DTS-HD HR       rus (Russian)           22,147                  95                      261 888         1 536          

[/code]
<---- END FORUMS PASTE ---->

QUICK SUMMARY:

Disc Title: Mr. Brooks (2007)
Disc Size: 28 816 621 983 bytes
Protection: AACS
BD-Java: No
Playlist: 00005.MPLS
Size: 3 674 112 bytes
Length: 0:00:22
Total Bitrate: 1,32 Mbps
Video: MPEG-4 AVC Video / 976 kbps / 1080p / 23,976 fps / 16:9 / High Profile 4.1
Audio: English / DTS-HD Master Audio / 5.1 / 48 kHz / 72 kbps / 16-bit (DTS Core: 5.1 / 48 kHz / 1509 kbps / 16-bit)
Audio: Russian / DTS-HD High-Res Audio / 5.1 / 48 kHz / 2046 kbps / 16-bit (DTS Core: 5.1 / 48 kHz / 1509 kbps / 16-bit)
Audio: English / Dolby Digital Audio / 5.1 / 48 kHz / 640 kbps