CopyPastehas never been so tasty!

Some Like It Hot (1959)

by anonymous

  • 0
  • 0
334 views

Disc Title:     Some Like It Hot (1959)
Disc Size:      46 527 644 359 bytes
Protection:     AACS
BD-Java:        Yes
BDInfo:         0.5.6

Notes:         

BDINFO HOME:
  Cinema Squid
    http://www.cinemasquid.com/blu-ray/tools/bdinfo

INCLUDES FORUMS REPORT FOR:
  AVS Forum Blu-ray Audio and Video Specifications Thread
    http://www.avsforum.com/avs-vb/showthread.php?t=1155731


********************
PLAYLIST: 00000.MPLS
********************

<--- BEGIN FORUMS PASTE --->
[code]
                                                                                                                Total   Video                                            
Title                                                           Codec   Length  Movie Size      Disc Size       Bitrate Bitrate Main Audio Track                          Secondary Audio Track
-----                                                           ------  ------- --------------  --------------  ------- ------- ------------------                        ---------------------
00000.MPLS                                                      AVC     2:01:32 41 104 078 848  46 527 644 359  45,09   31,99   DTS-HD Master 5.1 4057Kbps (48kHz/24-bit)
[/code]

[code]

DISC INFO:

Disc Title:     Some Like It Hot (1959)
Disc Size:      46 527 644 359 bytes
Protection:     AACS
BD-Java:        Yes
BDInfo:         0.5.6

PLAYLIST REPORT:

Name:                   00000.MPLS
Length:                 2:01:32 (h:m:s)
Size:                   41 104 078 848 bytes
Total Bitrate:          45,09 Mbps

(*) Indicates included stream hidden by this playlist.

VIDEO:

Codec                   Bitrate             Description    
-----                   -------             -----------    
MPEG-4 AVC Video        31995 kbps          1080p / 23,976 fps / 16:9 / High Profile 4.1

AUDIO:

Codec                           Language        Bitrate         Description    
-----                           --------        -------         -----------    
DTS-HD Master Audio             English         4057 kbps       5.1 / 48 kHz / 4057 kbps / 24-bit (DTS Core: 5.1 / 48 kHz / 1509 kbps / 24-bit / DN -4dB)
DTS Audio                       French          768 kbps        5.1 / 48 kHz / 768 kbps / 24-bit / DN -4dB
DTS Audio                       German          768 kbps        5.1 / 48 kHz / 768 kbps / 24-bit / DN -4dB
DTS Audio                       Russian         768 kbps        5.1 / 48 kHz / 768 kbps / 24-bit / DN -4dB
Dolby Digital Audio             Russian         448 kbps        5.1 / 48 kHz / 448 kbps / DN -4dB
Dolby Digital Audio             Russian         384 kbps        5.1 / 48 kHz / 384 kbps
Dolby Digital Audio             English         256 kbps        2.0 / 48 kHz / 256 kbps / DN -4dB
* Dolby Digital Audio           Japanese        256 kbps        2.0 / 48 kHz / 256 kbps / DN -4dB
Dolby Digital Audio             Polish          256 kbps        2.0 / 48 kHz / 256 kbps / DN -4dB
Dolby Digital Audio             Russian         192 kbps        2.0 / 48 kHz / 192 kbps
Dolby Digital Audio             Russian         192 kbps        2.0 / 48 kHz / 192 kbps
Dolby Digital Audio             Russian         192 kbps        2.0 / 48 kHz / 192 kbps
Dolby Digital Audio             Russian         192 kbps        2.0 / 48 kHz / 192 kbps
Dolby Digital Audio             Russian         192 kbps        2.0 / 48 kHz / 192 kbps

SUBTITLES:

Codec                           Language        Bitrate         Description    
-----                           --------        -------         -----------    
Presentation Graphics           English         51,918 kbps                    
Presentation Graphics           English         72,631 kbps                    
Presentation Graphics           Chinese         41,164 kbps                    
Presentation Graphics           Chinese         44,624 kbps                    
Presentation Graphics           Czech           43,579 kbps                    
Presentation Graphics           Danish          43,120 kbps                    
Presentation Graphics           Dutch           40,258 kbps                    
Presentation Graphics           Finnish         45,927 kbps                    
Presentation Graphics           French          42,749 kbps                    
Presentation Graphics           French          56,158 kbps                    
Presentation Graphics           German          47,678 kbps                    
Presentation Graphics           German          68,436 kbps                    
Presentation Graphics           Greek           45,364 kbps                    
Presentation Graphics           Hebrew          29,737 kbps                    
Presentation Graphics           Hungarian       41,443 kbps                    
Presentation Graphics           Italian         42,270 kbps                    
Presentation Graphics           Italian         65,242 kbps                    
* Presentation Graphics         Japanese        21,432 kbps                    
* Presentation Graphics         Japanese        6,041 kbps                     
Presentation Graphics           Korean          30,196 kbps                    
Presentation Graphics           Norwegian       42,601 kbps                    
Presentation Graphics           Polish          40,977 kbps                    
Presentation Graphics           Portuguese      40,637 kbps                    
Presentation Graphics           Portuguese      41,046 kbps                    
Presentation Graphics           Romanian        38,611 kbps                    
Presentation Graphics           Russian         47,974 kbps                    
Presentation Graphics           Spanish         48,802 kbps                    
Presentation Graphics           Spanish         48,544 kbps                    
Presentation Graphics           Spanish         58,221 kbps                    
Presentation Graphics           Swedish         44,554 kbps                    
Presentation Graphics           Thai            53,823 kbps                    
Presentation Graphics           Turkish         43,732 kbps                    

FILES:

Name            Time In         Length          Size            Total Bitrate  
----            -------         ------          ----            -------------  
00000.M2TS      0:00:00.000     2:01:32.076     41 104 078 848  45 095         

CHAPTERS:

Number          Time In         Length          Avg Video Rate  Max 1-Sec Rate  Max 1-Sec Time  Max 5-Sec Rate  Max 5-Sec Time  Max 10Sec Rate  Max 10Sec Time  Avg Frame Size  Max Frame Size  Max Frame Time 
------          -------         ------          --------------  --------------  --------------  --------------  --------------  --------------  --------------  --------------  --------------  -------------- 
1               0:00:00.000     0:05:02.176     30 135 kbps     42 569 kbps     00:01:30.799    34 711 kbps     00:01:26.795    33 924 kbps     00:00:12.137    157 090 bytes   412 927 bytes   00:01:31.382   
2               0:05:02.176     0:06:53.996     31 348 kbps     35 009 kbps     00:07:28.281    34 026 kbps     00:08:52.657    33 862 kbps     00:08:52.657    163 436 bytes   312 996 bytes   00:05:17.191   
3               0:11:56.173     0:06:13.247     31 221 kbps     34 539 kbps     00:12:38.507    33 870 kbps     00:12:09.603    33 345 kbps     00:12:34.879    162 773 bytes   304 916 bytes   00:15:48.781   
4               0:18:09.421     0:05:50.475     28 875 kbps     34 785 kbps     00:18:26.271    34 002 kbps     00:18:22.392    33 894 kbps     00:18:17.262    150 539 bytes   287 458 bytes   00:18:13.425   
5               0:23:59.896     0:04:59.299     28 162 kbps     33 284 kbps     00:25:52.676    32 171 kbps     00:24:14.536    31 813 kbps     00:25:34.950    146 825 bytes   279 612 bytes   00:25:26.816   
6               0:28:59.195     0:05:50.600     30 397 kbps     34 965 kbps     00:31:42.108    34 038 kbps     00:31:38.104    33 865 kbps     00:31:33.099    158 478 bytes   297 501 bytes   00:31:29.262   
7               0:34:49.796     0:13:38.567     30 459 kbps     34 836 kbps     00:42:27.127    33 950 kbps     00:43:37.823    33 826 kbps     00:47:35.811    158 799 bytes   290 693 bytes   00:43:42.620   
8               0:48:28.363     0:08:49.278     33 442 kbps     35 658 kbps     00:51:53.652    34 086 kbps     00:51:49.564    33 931 kbps     00:56:27.884    174 350 bytes   329 302 bytes   00:51:58.156   
9               0:57:17.642     0:11:53.504     33 661 kbps     35 689 kbps     01:04:11.764    34 070 kbps     01:07:57.615    33 962 kbps     01:01:25.431    175 492 bytes   321 652 bytes   00:59:28.982   
10              1:09:11.147     0:08:14.202     33 662 kbps     35 562 kbps     01:15:23.852    34 135 kbps     01:15:31.944    33 969 kbps     01:14:04.022    175 497 bytes   319 964 bytes   01:09:12.148   
11              1:17:25.349     0:10:55.863     32 695 kbps     36 371 kbps     01:17:31.813    34 045 kbps     01:27:50.515    33 927 kbps     01:25:28.498    170 457 bytes   346 516 bytes   01:27:51.391   
12              1:28:21.212     0:06:02.904     33 240 kbps     36 220 kbps     01:28:27.427    34 195 kbps     01:28:23.423    33 915 kbps     01:33:25.141    173 296 bytes   325 750 bytes   01:28:28.219   
13              1:34:24.116     0:04:51.124     33 656 kbps     35 099 kbps     01:35:36.939    34 088 kbps     01:36:07.803    33 945 kbps     01:37:55.744    175 466 bytes   325 899 bytes   01:36:46.967   
14              1:39:15.240     0:09:37.868     33 555 kbps     35 417 kbps     01:43:11.476    34 147 kbps     01:40:30.232    33 972 kbps     01:40:25.352    174 942 bytes   322 294 bytes   01:42:29.101   
15              1:48:53.109     0:05:42.300     33 374 kbps     35 562 kbps     01:51:53.081    34 107 kbps     01:51:21.800    33 993 kbps     01:51:21.758    173 996 bytes   336 312 bytes   01:51:53.373   
16              1:54:35.410     0:06:55.665     31 172 kbps     36 629 kbps     02:00:51.911    34 353 kbps     02:00:47.990    34 131 kbps     02:00:42.902    162 518 bytes   327 511 bytes   01:58:58.339   
17              2:01:31.075     0:00:01.001     3 646 kbps      0 kbps          00:00:00.000    0 kbps          00:00:00.000    0 kbps          00:00:00.000    19 835 bytes    177 285 bytes   02:01:31.993   

STREAM DIAGNOSTICS:

File            PID             Type            Codec           Language                Seconds                 Bitrate                 Bytes           Packets        
----            ---             ----            -----           --------                --------------          --------------          -------------   -----          
00000.M2TS      4113 (0x1011)   0x1B            AVC                                     7291,910                31 996                  29 163 606 573  158 599 541    
00000.M2TS      4352 (0x1100)   0x86            DTS-HD MA       eng (English)           7291,910                4 057                   3 698 362 036   21 231 216     
00000.M2TS      4353 (0x1101)   0x81            AC3             rus (Russian)           7291,910                192                     174 816 000     1 138 125      
00000.M2TS      4354 (0x1102)   0x82            DTS             fra (French)            7291,910                768                     700 039 168     4 101 792      
00000.M2TS      4355 (0x1103)   0x81            AC3             rus (Russian)           7291,910                191                     174 321 408     1 134 905      
00000.M2TS      4356 (0x1104)   0x81            AC3             rus (Russian)           7291,910                448                     407 914 752     2 276 310      
00000.M2TS      4357 (0x1105)   0x82            DTS             deu (German)            7291,910                768                     700 039 168     4 101 792      
00000.M2TS      4358 (0x1106)   0x82            DTS             rus (Russian)           7291,910                768                     700 039 168     4 101 792      
00000.M2TS      4359 (0x1107)   0x81            AC3             rus (Russian)           7291,910                192                     174 816 000     1 138 125      
00000.M2TS      4360 (0x1108)   0x81            AC3             rus (Russian)           7291,910                191                     174 321 408     1 134 905      
00000.M2TS      4361 (0x1109)   0x81            AC3             rus (Russian)           7291,910                192                     174 816 000     1 138 125      
00000.M2TS      4362 (0x110A)   0x81            AC3             pol (Polish)            7291,910                256                     233 346 048     1 367 262      
00000.M2TS      4363 (0x110B)   0x81            AC3             rus (Russian)           7291,910                384                     349 632 000     2 048 625      
00000.M2TS      4364 (0x110C)   0x81            AC3             jpn (Japanese)          7291,910                256                     233 347 072     1 367 268      
00000.M2TS      4365 (0x110D)   0x81            AC3             eng (English)           7291,910                256                     233 346 048     1 367 262      
00000.M2TS      4608 (0x1200)   0x90            PGS             eng (English)           7291,910                52                      47 323 374      269 566        
00000.M2TS      4609 (0x1201)   0x90            PGS             spa (Spanish)           7291,910                49                      44 483 297      253 164        
00000.M2TS      4610 (0x1202)   0x90            PGS             fra (French)            7291,910                43                      38 966 390      222 770        
00000.M2TS      4611 (0x1203)   0x90            PGS             por (Portuguese)        7291,910                41                      37 040 800      212 193        
00000.M2TS      4612 (0x1204)   0x90            PGS             ita (Italian)           7291,910                42                      38 529 180      220 189        
00000.M2TS      4613 (0x1205)   0x90            PGS             deu (German)            7291,910                48                      43 458 793      247 123        
00000.M2TS      4614 (0x1206)   0x90            PGS             rus (Russian)           7291,910                48                      43 729 073      249 091        
00000.M2TS      4615 (0x1207)   0x90            PGS             spa (Spanish)           7291,910                49                      44 248 491      251 373        
00000.M2TS      4616 (0x1208)   0x90            PGS             zho (Chinese)           7291,910                41                      37 521 784      214 512        
00000.M2TS      4617 (0x1209)   0x90            PGS             zho (Chinese)           7291,910                45                      40 674 983      231 036        
00000.M2TS      4618 (0x120A)   0x90            PGS             ces (Czech)             7291,910                44                      39 722 468      226 760        
00000.M2TS      4619 (0x120B)   0x90            PGS             dan (Danish)            7291,910                43                      39 304 213      224 511        
00000.M2TS      4620 (0x120C)   0x90            PGS             nld (Dutch)             7291,910                40                      36 695 211      208 926        
00000.M2TS      4621 (0x120D)   0x90            PGS             fin (Finnish)           7291,910                46                      41 862 526      237 980        
00000.M2TS      4622 (0x120E)   0x90            PGS             ell (Greek)             7291,910                45                      41 349 531      235 288        
00000.M2TS      4623 (0x120F)   0x90            PGS             heb (Hebrew)            7291,910                30                      27 105 404      157 745        
00000.M2TS      4624 (0x1210)   0x90            PGS             hun (Hungarian)         7291,910                41                      37 775 456      216 170        
00000.M2TS      4625 (0x1211)   0x90            PGS             kor (Korean)            7291,910                30                      27 523 942      160 171        
00000.M2TS      4626 (0x1212)   0x90            PGS             nor (Norwegian)         7291,910                43                      38 831 071      221 408        
00000.M2TS      4627 (0x1213)   0x90            PGS             pol (Polish)            7291,910                41                      37 350 716      213 909        
00000.M2TS      4628 (0x1214)   0x90            PGS             por (Portuguese)        7291,910                41                      37 413 631      214 252        
00000.M2TS      4629 (0x1215)   0x90            PGS             ron (Romanian)          7291,910                39                      35 193 993      202 259        
00000.M2TS      4630 (0x1216)   0x90            PGS             swe (Swedish)           7291,910                45                      40 611 170      231 239        
00000.M2TS      4631 (0x1217)   0x90            PGS             tha (Thai)              7291,910                54                      49 060 078      276 961        
00000.M2TS      4632 (0x1218)   0x90            PGS             tur (Turkish)           7291,910                44                      39 861 818      227 005        
00000.M2TS      4633 (0x1219)   0x90            PGS             jpn (Japanese)          7291,910                21                      19 535 079      116 789        
00000.M2TS      4634 (0x121A)   0x90            PGS             jpn (Japanese)          7291,910                6                       5 506 510       32 748         
00000.M2TS      4635 (0x121B)   0x90            PGS             eng (English)           7291,910                73                      66 203 714      374 992        
00000.M2TS      4636 (0x121C)   0x90            PGS             fra (French)            7291,910                56                      51 188 512      292 446        
00000.M2TS      4637 (0x121D)   0x90            PGS             ita (Italian)           7291,910                65                      59 468 316      337 572        
00000.M2TS      4638 (0x121E)   0x90            PGS             deu (German)            7291,910                68                      62 380 471      354 217        
00000.M2TS      4639 (0x121F)   0x90            PGS             spa (Spanish)           7291,910                58                      53 069 140      302 813        

[/code]
<---- END FORUMS PASTE ---->

QUICK SUMMARY:

Disc Title: Some Like It Hot (1959)
Disc Size: 46 527 644 359 bytes
Protection: AACS
BD-Java: Yes
Playlist: 00000.MPLS
Size: 41 104 078 848 bytes
Length: 2:01:32
Total Bitrate: 45,09 Mbps
Video: MPEG-4 AVC Video / 31995 kbps / 1080p / 23,976 fps / 16:9 / High Profile 4.1
Audio: English / DTS-HD Master Audio / 5.1 / 48 kHz / 4057 kbps / 24-bit (DTS Core: 5.1 / 48 kHz / 1509 kbps / 24-bit / DN -4dB)
Audio: French / DTS Audio / 5.1 / 48 kHz / 768 kbps / 24-bit / DN -4dB
Audio: German / DTS Audio / 5.1 / 48 kHz / 768 kbps / 24-bit / DN -4dB
Audio: Russian / DTS Audio / 5.1 / 48 kHz / 768 kbps / 24-bit / DN -4dB
Audio: Russian / Dolby Digital Audio / 5.1 / 48 kHz / 448 kbps / DN -4dB
Audio: Russian / Dolby Digital Audio / 5.1 / 48 kHz / 384 kbps
Audio: English / Dolby Digital Audio / 2.0 / 48 kHz / 256 kbps / DN -4dB
* Audio: Japanese / Dolby Digital Audio / 2.0 / 48 kHz / 256 kbps / DN -4dB
Audio: Polish / Dolby Digital Audio / 2.0 / 48 kHz / 256 kbps / DN -4dB
Audio: Russian / Dolby Digital Audio / 2.0 / 48 kHz / 192 kbps
Audio: Russian / Dolby Digital Audio / 2.0 / 48 kHz / 192 kbps
Audio: Russian / Dolby Digital Audio / 2.0 / 48 kHz / 192 kbps
Audio: Russian / Dolby Digital Audio / 2.0 / 48 kHz / 192 kbps
Audio: Russian / Dolby Digital Audio / 2.0 / 48 kHz / 192 kbps
Subtitle: English / 51,918 kbps
Subtitle: English / 72,631 kbps
Subtitle: Chinese / 41,164 kbps
Subtitle: Chinese / 44,624 kbps
Subtitle: Czech / 43,579 kbps
Subtitle: Danish / 43,120 kbps
Subtitle: Dutch / 40,258 kbps
Subtitle: Finnish / 45,927 kbps
Subtitle: French / 42,749 kbps
Subtitle: French / 56,158 kbps
Subtitle: German / 47,678 kbps
Subtitle: German / 68,436 kbps
Subtitle: Greek / 45,364 kbps
Subtitle: Hebrew / 29,737 kbps
Subtitle: Hungarian / 41,443 kbps
Subtitle: Italian / 42,270 kbps
Subtitle: Italian / 65,242 kbps
* Subtitle: Japanese / 21,432 kbps
* Subtitle: Japanese / 6,041 kbps
Subtitle: Korean / 30,196 kbps
Subtitle: Norwegian / 42,601 kbps
Subtitle: Polish / 40,977 kbps
Subtitle: Portuguese / 40,637 kbps
Subtitle: Portuguese / 41,046 kbps
Subtitle: Romanian / 38,611 kbps
Subtitle: Russian / 47,974 kbps
Subtitle: Spanish / 48,802 kbps
Subtitle: Spanish / 48,544 kbps
Subtitle: Spanish / 58,221 kbps
Subtitle: Swedish / 44,554 kbps
Subtitle: Thai / 53,823 kbps
Subtitle: Turkish / 43,732 kbps


********************
PLAYLIST: 00001.MPLS
********************

<--- BEGIN FORUMS PASTE --->
[code]
                                                                                                                Total   Video                                            
Title                                                           Codec   Length  Movie Size      Disc Size       Bitrate Bitrate Main Audio Track                          Secondary Audio Track
-----                                                           ------  ------- --------------  --------------  ------- ------- ------------------                        ---------------------
00001.MPLS                                                      AVC     2:01:32 41 104 078 848  46 527 644 359  45,09   31,99   DTS-HD Master 5.1 4057Kbps (48kHz/24-bit)
[/code]

[code]

DISC INFO:

Disc Title:     Some Like It Hot (1959)
Disc Size:      46 527 644 359 bytes
Protection:     AACS
BD-Java:        Yes
BDInfo:         0.5.6

PLAYLIST REPORT:

Name:                   00001.MPLS
Length:                 2:01:32 (h:m:s)
Size:                   41 104 078 848 bytes
Total Bitrate:          45,09 Mbps

(*) Indicates included stream hidden by this playlist.

VIDEO:

Codec                   Bitrate             Description    
-----                   -------             -----------    
MPEG-4 AVC Video        31995 kbps          1080p / 23,976 fps / 16:9 / High Profile 4.1

AUDIO:

Codec                           Language        Bitrate         Description    
-----                           --------        -------         -----------    
DTS-HD Master Audio             English         4057 kbps       5.1 / 48 kHz / 4057 kbps / 24-bit (DTS Core: 5.1 / 48 kHz / 1509 kbps / 24-bit / DN -4dB)
* DTS Audio                     French          768 kbps        5.1 / 48 kHz / 768 kbps / 24-bit / DN -4dB
* DTS Audio                     German          768 kbps        5.1 / 48 kHz / 768 kbps / 24-bit / DN -4dB
* DTS Audio                     Russian         768 kbps        5.1 / 48 kHz / 768 kbps / 24-bit / DN -4dB
* Dolby Digital Audio           Russian         448 kbps        5.1 / 48 kHz / 448 kbps / DN -4dB
* Dolby Digital Audio           Russian         384 kbps        5.1 / 48 kHz / 384 kbps
Dolby Digital Audio             English         256 kbps        2.0 / 48 kHz / 256 kbps / DN -4dB
Dolby Digital Audio             Japanese        256 kbps        2.0 / 48 kHz / 256 kbps / DN -4dB
* Dolby Digital Audio           Polish          256 kbps        2.0 / 48 kHz / 256 kbps / DN -4dB
* Dolby Digital Audio           Russian         192 kbps        2.0 / 48 kHz / 192 kbps
* Dolby Digital Audio           Russian         192 kbps        2.0 / 48 kHz / 192 kbps
* Dolby Digital Audio           Russian         192 kbps        2.0 / 48 kHz / 192 kbps
* Dolby Digital Audio           Russian         192 kbps        2.0 / 48 kHz / 192 kbps
* Dolby Digital Audio           Russian         192 kbps        2.0 / 48 kHz / 192 kbps

SUBTITLES:

Codec                           Language        Bitrate         Description    
-----                           --------        -------         -----------    
Presentation Graphics           English         51,918 kbps                    
Presentation Graphics           English         72,631 kbps                    
* Presentation Graphics         Chinese         41,164 kbps                    
* Presentation Graphics         Chinese         44,624 kbps                    
* Presentation Graphics         Czech           43,579 kbps                    
* Presentation Graphics         Danish          43,120 kbps                    
* Presentation Graphics         Dutch           40,258 kbps                    
* Presentation Graphics         Finnish         45,927 kbps                    
* Presentation Graphics         French          42,749 kbps                    
* Presentation Graphics         French          56,158 kbps                    
* Presentation Graphics         German          47,678 kbps                    
* Presentation Graphics         German          68,436 kbps                    
* Presentation Graphics         Greek           45,364 kbps                    
* Presentation Graphics         Hebrew          29,737 kbps                    
* Presentation Graphics         Hungarian       41,443 kbps                    
* Presentation Graphics         Italian         42,270 kbps                    
* Presentation Graphics         Italian         65,242 kbps                    
Presentation Graphics           Japanese        21,432 kbps                    
Presentation Graphics           Japanese        6,041 kbps                     
* Presentation Graphics         Korean          30,196 kbps                    
* Presentation Graphics         Norwegian       42,601 kbps                    
* Presentation Graphics         Polish          40,977 kbps                    
* Presentation Graphics         Portuguese      40,637 kbps                    
* Presentation Graphics         Portuguese      41,046 kbps                    
* Presentation Graphics         Romanian        38,611 kbps                    
* Presentation Graphics         Russian         47,974 kbps                    
* Presentation Graphics         Spanish         48,802 kbps                    
* Presentation Graphics         Spanish         48,544 kbps                    
* Presentation Graphics         Spanish         58,221 kbps                    
* Presentation Graphics         Swedish         44,554 kbps                    
* Presentation Graphics         Thai            53,823 kbps                    
* Presentation Graphics         Turkish         43,732 kbps                    

FILES:

Name            Time In         Length          Size            Total Bitrate  
----            -------         ------          ----            -------------  
00000.M2TS      0:00:00.000     2:01:32.076     41 104 078 848  45 095         

CHAPTERS:

Number          Time In         Length          Avg Video Rate  Max 1-Sec Rate  Max 1-Sec Time  Max 5-Sec Rate  Max 5-Sec Time  Max 10Sec Rate  Max 10Sec Time  Avg Frame Size  Max Frame Size  Max Frame Time 
------          -------         ------          --------------  --------------  --------------  --------------  --------------  --------------  --------------  --------------  --------------  -------------- 
1               0:00:00.000     2:01:32.076     31 995 kbps     42 569 kbps     00:01:30.799    34 711 kbps     00:01:26.795    34 131 kbps     02:00:42.902    166 806 bytes   412 927 bytes   00:01:31.382   

STREAM DIAGNOSTICS:

File            PID             Type            Codec           Language                Seconds                 Bitrate                 Bytes           Packets        
----            ---             ----            -----           --------                --------------          --------------          -------------   -----          
00000.M2TS      4113 (0x1011)   0x1B            AVC                                     7291,910                31 996                  29 163 606 573  158 599 541    
00000.M2TS      4352 (0x1100)   0x86            DTS-HD MA       eng (English)           7291,910                4 057                   3 698 362 036   21 231 216     
00000.M2TS      4353 (0x1101)   0x81            AC3             rus (Russian)           7291,910                192                     174 816 000     1 138 125      
00000.M2TS      4354 (0x1102)   0x82            DTS             fra (French)            7291,910                768                     700 039 168     4 101 792      
00000.M2TS      4355 (0x1103)   0x81            AC3             rus (Russian)           7291,910                191                     174 321 408     1 134 905      
00000.M2TS      4356 (0x1104)   0x81            AC3             rus (Russian)           7291,910                448                     407 914 752     2 276 310      
00000.M2TS      4357 (0x1105)   0x82            DTS             deu (German)            7291,910                768                     700 039 168     4 101 792      
00000.M2TS      4358 (0x1106)   0x82            DTS             rus (Russian)           7291,910                768                     700 039 168     4 101 792      
00000.M2TS      4359 (0x1107)   0x81            AC3             rus (Russian)           7291,910                192                     174 816 000     1 138 125      
00000.M2TS      4360 (0x1108)   0x81            AC3             rus (Russian)           7291,910                191                     174 321 408     1 134 905      
00000.M2TS      4361 (0x1109)   0x81            AC3             rus (Russian)           7291,910                192                     174 816 000     1 138 125      
00000.M2TS      4362 (0x110A)   0x81            AC3             pol (Polish)            7291,910                256                     233 346 048     1 367 262      
00000.M2TS      4363 (0x110B)   0x81            AC3             rus (Russian)           7291,910                384                     349 632 000     2 048 625      
00000.M2TS      4364 (0x110C)   0x81            AC3             jpn (Japanese)          7291,910                256                     233 347 072     1 367 268      
00000.M2TS      4365 (0x110D)   0x81            AC3             eng (English)           7291,910                256                     233 346 048     1 367 262      
00000.M2TS      4608 (0x1200)   0x90            PGS             eng (English)           7291,910                52                      47 323 374      269 566        
00000.M2TS      4609 (0x1201)   0x90            PGS             spa (Spanish)           7291,910                49                      44 483 297      253 164        
00000.M2TS      4610 (0x1202)   0x90            PGS             fra (French)            7291,910                43                      38 966 390      222 770        
00000.M2TS      4611 (0x1203)   0x90            PGS             por (Portuguese)        7291,910                41                      37 040 800      212 193        
00000.M2TS      4612 (0x1204)   0x90            PGS             ita (Italian)           7291,910                42                      38 529 180      220 189        
00000.M2TS      4613 (0x1205)   0x90            PGS             deu (German)            7291,910                48                      43 458 793      247 123        
00000.M2TS      4614 (0x1206)   0x90            PGS             rus (Russian)           7291,910                48                      43 729 073      249 091        
00000.M2TS      4615 (0x1207)   0x90            PGS             spa (Spanish)           7291,910                49                      44 248 491      251 373        
00000.M2TS      4616 (0x1208)   0x90            PGS             zho (Chinese)           7291,910                41                      37 521 784      214 512        
00000.M2TS      4617 (0x1209)   0x90            PGS             zho (Chinese)           7291,910                45                      40 674 983      231 036        
00000.M2TS      4618 (0x120A)   0x90            PGS             ces (Czech)             7291,910                44                      39 722 468      226 760        
00000.M2TS      4619 (0x120B)   0x90            PGS             dan (Danish)            7291,910                43                      39 304 213      224 511        
00000.M2TS      4620 (0x120C)   0x90            PGS             nld (Dutch)             7291,910                40                      36 695 211      208 926        
00000.M2TS      4621 (0x120D)   0x90            PGS             fin (Finnish)           7291,910                46                      41 862 526      237 980        
00000.M2TS      4622 (0x120E)   0x90            PGS             ell (Greek)             7291,910                45                      41 349 531      235 288        
00000.M2TS      4623 (0x120F)   0x90            PGS             heb (Hebrew)            7291,910                30                      27 105 404      157 745        
00000.M2TS      4624 (0x1210)   0x90            PGS             hun (Hungarian)         7291,910                41                      37 775 456      216 170        
00000.M2TS      4625 (0x1211)   0x90            PGS             kor (Korean)            7291,910                30                      27 523 942      160 171        
00000.M2TS      4626 (0x1212)   0x90            PGS             nor (Norwegian)         7291,910                43                      38 831 071      221 408        
00000.M2TS      4627 (0x1213)   0x90            PGS             pol (Polish)            7291,910                41                      37 350 716      213 909        
00000.M2TS      4628 (0x1214)   0x90            PGS             por (Portuguese)        7291,910                41                      37 413 631      214 252        
00000.M2TS      4629 (0x1215)   0x90            PGS             ron (Romanian)          7291,910                39                      35 193 993      202 259        
00000.M2TS      4630 (0x1216)   0x90            PGS             swe (Swedish)           7291,910                45                      40 611 170      231 239        
00000.M2TS      4631 (0x1217)   0x90            PGS             tha (Thai)              7291,910                54                      49 060 078      276 961        
00000.M2TS      4632 (0x1218)   0x90            PGS             tur (Turkish)           7291,910                44                      39 861 818      227 005        
00000.M2TS      4633 (0x1219)   0x90            PGS             jpn (Japanese)          7291,910                21                      19 535 079      116 789        
00000.M2TS      4634 (0x121A)   0x90            PGS             jpn (Japanese)          7291,910                6                       5 506 510       32 748         
00000.M2TS      4635 (0x121B)   0x90            PGS             eng (English)           7291,910                73                      66 203 714      374 992        
00000.M2TS      4636 (0x121C)   0x90            PGS             fra (French)            7291,910                56                      51 188 512      292 446        
00000.M2TS      4637 (0x121D)   0x90            PGS             ita (Italian)           7291,910                65                      59 468 316      337 572        
00000.M2TS      4638 (0x121E)   0x90            PGS             deu (German)            7291,910                68                      62 380 471      354 217        
00000.M2TS      4639 (0x121F)   0x90            PGS             spa (Spanish)           7291,910                58                      53 069 140      302 813        

[/code]
<---- END FORUMS PASTE ---->

QUICK SUMMARY:

Disc Title: Some Like It Hot (1959)
Disc Size: 46 527 644 359 bytes
Protection: AACS
BD-Java: Yes
Playlist: 00001.MPLS
Size: 41 104 078 848 bytes
Length: 2:01:32
Total Bitrate: 45,09 Mbps
Video: MPEG-4 AVC Video / 31995 kbps / 1080p / 23,976 fps / 16:9 / High Profile 4.1
Audio: English / DTS-HD Master Audio / 5.1 / 48 kHz / 4057 kbps / 24-bit (DTS Core: 5.1 / 48 kHz / 1509 kbps / 24-bit / DN -4dB)
* Audio: French / DTS Audio / 5.1 / 48 kHz / 768 kbps / 24-bit / DN -4dB
* Audio: German / DTS Audio / 5.1 / 48 kHz / 768 kbps / 24-bit / DN -4dB
* Audio: Russian / DTS Audio / 5.1 / 48 kHz / 768 kbps / 24-bit / DN -4dB
* Audio: Russian / Dolby Digital Audio / 5.1 / 48 kHz / 448 kbps / DN -4dB
* Audio: Russian / Dolby Digital Audio / 5.1 / 48 kHz / 384 kbps
Audio: English / Dolby Digital Audio / 2.0 / 48 kHz / 256 kbps / DN -4dB
Audio: Japanese / Dolby Digital Audio / 2.0 / 48 kHz / 256 kbps / DN -4dB
* Audio: Polish / Dolby Digital Audio / 2.0 / 48 kHz / 256 kbps / DN -4dB
* Audio: Russian / Dolby Digital Audio / 2.0 / 48 kHz / 192 kbps
* Audio: Russian / Dolby Digital Audio / 2.0 / 48 kHz / 192 kbps
* Audio: Russian / Dolby Digital Audio / 2.0 / 48 kHz / 192 kbps
* Audio: Russian / Dolby Digital Audio / 2.0 / 48 kHz / 192 kbps
* Audio: Russian / Dolby Digital Audio / 2.0 / 48 kHz / 192 kbps
Subtitle: English / 51,918 kbps
Subtitle: English / 72,631 kbps
* Subtitle: Chinese / 41,164 kbps
* Subtitle: Chinese / 44,624 kbps
* Subtitle: Czech / 43,579 kbps
* Subtitle: Danish / 43,120 kbps
* Subtitle: Dutch / 40,258 kbps
* Subtitle: Finnish / 45,927 kbps
* Subtitle: French / 42,749 kbps
* Subtitle: French / 56,158 kbps
* Subtitle: German / 47,678 kbps
* Subtitle: German / 68,436 kbps
* Subtitle: Greek / 45,364 kbps
* Subtitle: Hebrew / 29,737 kbps
* Subtitle: Hungarian / 41,443 kbps
* Subtitle: Italian / 42,270 kbps
* Subtitle: Italian / 65,242 kbps
Subtitle: Japanese / 21,432 kbps
Subtitle: Japanese / 6,041 kbps
* Subtitle: Korean / 30,196 kbps
* Subtitle: Norwegian / 42,601 kbps
* Subtitle: Polish / 40,977 kbps
* Subtitle: Portuguese / 40,637 kbps
* Subtitle: Portuguese / 41,046 kbps
* Subtitle: Romanian / 38,611 kbps
* Subtitle: Russian / 47,974 kbps
* Subtitle: Spanish / 48,802 kbps
* Subtitle: Spanish / 48,544 kbps
* Subtitle: Spanish / 58,221 kbps
* Subtitle: Swedish / 44,554 kbps
* Subtitle: Thai / 53,823 kbps
* Subtitle: Turkish / 43,732 kbps


********************
PLAYLIST: 00103.MPLS
********************

<--- BEGIN FORUMS PASTE --->
[code]
                                                                                                                Total   Video                                            
Title                                                           Codec   Length  Movie Size      Disc Size       Bitrate Bitrate Main Audio Track                          Secondary Audio Track
-----                                                           ------  ------- --------------  --------------  ------- ------- ------------------                        ---------------------
00103.MPLS                                                      AVC     0:31:13 1 296 642 048   46 527 644 359  5,54    5,00    DD AC3 2.0 192Kbps                       
[/code]

[code]

DISC INFO:

Disc Title:     Some Like It Hot (1959)
Disc Size:      46 527 644 359 bytes
Protection:     AACS
BD-Java:        Yes
BDInfo:         0.5.6

PLAYLIST REPORT:

Name:                   00103.MPLS
Length:                 0:31:13 (h:m:s)
Size:                   1 296 642 048 bytes
Total Bitrate:          5,54 Mbps

VIDEO:

Codec                   Bitrate             Description    
-----                   -------             -----------    
MPEG-4 AVC Video        5000 kbps           480i / 29,970 fps / 4:3 / High Profile 3.2

AUDIO:

Codec                           Language        Bitrate         Description    
-----                           --------        -------         -----------    
Dolby Digital Audio             English         192 kbps        2.0 / 48 kHz / 192 kbps / DN -4dB

FILES:

Name            Time In         Length          Size            Total Bitrate  
----            -------         ------          ----            -------------  
00103.M2TS      0:00:00.000     0:31:13.905     1 296 642 048   5 536          

CHAPTERS:

Number          Time In         Length          Avg Video Rate  Max 1-Sec Rate  Max 1-Sec Time  Max 5-Sec Rate  Max 5-Sec Time  Max 10Sec Rate  Max 10Sec Time  Avg Frame Size  Max Frame Size  Max Frame Time 
------          -------         ------          --------------  --------------  --------------  --------------  --------------  --------------  --------------  --------------  --------------  -------------- 
1               0:00:00.000     0:31:13.905     5 000 kbps      8 495 kbps      00:00:11.978    7 897 kbps      00:00:10.610    7 075 kbps      00:00:07.207    20 853 bytes    106 072 bytes   00:10:28.294   

STREAM DIAGNOSTICS:

File            PID             Type            Codec           Language                Seconds                 Bitrate                 Bytes           Packets        
----            ---             ----            -----           --------                --------------          --------------          -------------   -----          
00103.M2TS      4113 (0x1011)   0x1B            AVC                                     1873,772                5 000                   1 171 134 855   6 397 763      
00103.M2TS      4352 (0x1100)   0x81            AC3             eng (English)           1873,772                192                     44 973 312      292 795        

[/code]
<---- END FORUMS PASTE ---->

QUICK SUMMARY:

Disc Title: Some Like It Hot (1959)
Disc Size: 46 527 644 359 bytes
Protection: AACS
BD-Java: Yes
Playlist: 00103.MPLS
Size: 1 296 642 048 bytes
Length: 0:31:13
Total Bitrate: 5,54 Mbps
Video: MPEG-4 AVC Video / 5000 kbps / 480i / 29,970 fps / 4:3 / High Profile 3.2
Audio: English / Dolby Digital Audio / 2.0 / 48 kHz / 192 kbps / DN -4dB


********************
PLAYLIST: 01103.MPLS
********************

<--- BEGIN FORUMS PASTE --->
[code]
                                                                                                                Total   Video                                            
Title                                                           Codec   Length  Movie Size      Disc Size       Bitrate Bitrate Main Audio Track                          Secondary Audio Track
-----                                                           ------  ------- --------------  --------------  ------- ------- ------------------                        ---------------------
01103.MPLS                                                      AVC     0:31:13 1 296 642 048   46 527 644 359  5,54    5,00    DD AC3 2.0 192Kbps                       
[/code]

[code]

DISC INFO:

Disc Title:     Some Like It Hot (1959)
Disc Size:      46 527 644 359 bytes
Protection:     AACS
BD-Java:        Yes
BDInfo:         0.5.6

PLAYLIST REPORT:

Name:                   01103.MPLS
Length:                 0:31:13 (h:m:s)
Size:                   1 296 642 048 bytes
Total Bitrate:          5,54 Mbps

VIDEO:

Codec                   Bitrate             Description    
-----                   -------             -----------    
MPEG-4 AVC Video        5000 kbps           480i / 29,970 fps / 4:3 / High Profile 3.2

AUDIO:

Codec                           Language        Bitrate         Description    
-----                           --------        -------         -----------    
Dolby Digital Audio             English         192 kbps        2.0 / 48 kHz / 192 kbps / DN -4dB

FILES:

Name            Time In         Length          Size            Total Bitrate  
----            -------         ------          ----            -------------  
00103.M2TS      0:00:00.000     0:31:13.905     1 296 642 048   5 536          

CHAPTERS:

Number          Time In         Length          Avg Video Rate  Max 1-Sec Rate  Max 1-Sec Time  Max 5-Sec Rate  Max 5-Sec Time  Max 10Sec Rate  Max 10Sec Time  Avg Frame Size  Max Frame Size  Max Frame Time 
------          -------         ------          --------------  --------------  --------------  --------------  --------------  --------------  --------------  --------------  --------------  -------------- 
1               0:00:00.000     0:31:13.905     5 000 kbps      8 495 kbps      00:00:11.978    7 897 kbps      00:00:10.610    7 075 kbps      00:00:07.207    20 853 bytes    106 072 bytes   00:10:28.294   

STREAM DIAGNOSTICS:

File            PID             Type            Codec           Language                Seconds                 Bitrate                 Bytes           Packets        
----            ---             ----            -----           --------                --------------          --------------          -------------   -----          
00103.M2TS      4113 (0x1011)   0x1B            AVC                                     1873,772                5 000                   1 171 134 855   6 397 763      
00103.M2TS      4352 (0x1100)   0x81            AC3             eng (English)           1873,772                192                     44 973 312      292 795        

[/code]
<---- END FORUMS PASTE ---->

QUICK SUMMARY:

Disc Title: Some Like It Hot (1959)
Disc Size: 46 527 644 359 bytes
Protection: AACS
BD-Java: Yes
Playlist: 01103.MPLS
Size: 1 296 642 048 bytes
Length: 0:31:13
Total Bitrate: 5,54 Mbps
Video: MPEG-4 AVC Video / 5000 kbps / 480i / 29,970 fps / 4:3 / High Profile 3.2
Audio: English / Dolby Digital Audio / 2.0 / 48 kHz / 192 kbps / DN -4dB


********************
PLAYLIST: 00101.MPLS
********************

<--- BEGIN FORUMS PASTE --->
[code]
                                                                                                                Total   Video                                            
Title                                                           Codec   Length  Movie Size      Disc Size       Bitrate Bitrate Main Audio Track                          Secondary Audio Track
-----                                                           ------  ------- --------------  --------------  ------- ------- ------------------                        ---------------------
00101.MPLS                                                      AVC     0:25:45 1 080 969 216   46 527 644 359  5,59    5,06    DD AC3 2.0 192Kbps                       
[/code]

[code]

DISC INFO:

Disc Title:     Some Like It Hot (1959)
Disc Size:      46 527 644 359 bytes
Protection:     AACS
BD-Java:        Yes
BDInfo:         0.5.6

PLAYLIST REPORT:

Name:                   00101.MPLS
Length:                 0:25:45 (h:m:s)
Size:                   1 080 969 216 bytes
Total Bitrate:          5,59 Mbps

VIDEO:

Codec                   Bitrate             Description    
-----                   -------             -----------    
MPEG-4 AVC Video        5056 kbps           480i / 29,970 fps / 4:3 / High Profile 3.2

AUDIO:

Codec                           Language        Bitrate         Description    
-----                           --------        -------         -----------    
Dolby Digital Audio             English         192 kbps        2.0 / 48 kHz / 192 kbps / DN -4dB

FILES:

Name            Time In         Length          Size            Total Bitrate  
----            -------         ------          ----            -------------  
00101.M2TS      0:00:00.000     0:25:45.844     1 080 969 216   5 594          

CHAPTERS:

Number          Time In         Length          Avg Video Rate  Max 1-Sec Rate  Max 1-Sec Time  Max 5-Sec Rate  Max 5-Sec Time  Max 10Sec Rate  Max 10Sec Time  Avg Frame Size  Max Frame Size  Max Frame Time 
------          -------         ------          --------------  --------------  --------------  --------------  --------------  --------------  --------------  --------------  --------------  -------------- 
1               0:00:00.000     0:25:45.844     5 056 kbps      9 333 kbps      00:03:58.871    9 047 kbps      00:03:54.667    8 370 kbps      00:03:54.267    21 088 bytes    106 100 bytes   00:17:20.639   

STREAM DIAGNOSTICS:

File            PID             Type            Codec           Language                Seconds                 Bitrate                 Bytes           Packets        
----            ---             ----            -----           --------                --------------          --------------          -------------   -----          
00101.M2TS      4113 (0x1011)   0x1B            AVC                                     1545,711                5 057                   976 989 331     5 336 708      
00101.M2TS      4352 (0x1100)   0x81            AC3             eng (English)           1545,711                192                     37 099 776      241 535        

[/code]
<---- END FORUMS PASTE ---->

QUICK SUMMARY:

Disc Title: Some Like It Hot (1959)
Disc Size: 46 527 644 359 bytes
Protection: AACS
BD-Java: Yes
Playlist: 00101.MPLS
Size: 1 080 969 216 bytes
Length: 0:25:45
Total Bitrate: 5,59 Mbps
Video: MPEG-4 AVC Video / 5056 kbps / 480i / 29,970 fps / 4:3 / High Profile 3.2
Audio: English / Dolby Digital Audio / 2.0 / 48 kHz / 192 kbps / DN -4dB


********************
PLAYLIST: 01101.MPLS
********************

<--- BEGIN FORUMS PASTE --->
[code]
                                                                                                                Total   Video                                            
Title                                                           Codec   Length  Movie Size      Disc Size       Bitrate Bitrate Main Audio Track                          Secondary Audio Track
-----                                                           ------  ------- --------------  --------------  ------- ------- ------------------                        ---------------------
01101.MPLS                                                      AVC     0:25:45 1 080 969 216   46 527 644 359  5,59    5,06    DD AC3 2.0 192Kbps                       
[/code]

[code]

DISC INFO:

Disc Title:     Some Like It Hot (1959)
Disc Size:      46 527 644 359 bytes
Protection:     AACS
BD-Java:        Yes
BDInfo:         0.5.6

PLAYLIST REPORT:

Name:                   01101.MPLS
Length:                 0:25:45 (h:m:s)
Size:                   1 080 969 216 bytes
Total Bitrate:          5,59 Mbps

VIDEO:

Codec                   Bitrate             Description    
-----                   -------             -----------    
MPEG-4 AVC Video        5056 kbps           480i / 29,970 fps / 4:3 / High Profile 3.2

AUDIO:

Codec                           Language        Bitrate         Description    
-----                           --------        -------         -----------    
Dolby Digital Audio             English         192 kbps        2.0 / 48 kHz / 192 kbps / DN -4dB

FILES:

Name            Time In         Length          Size            Total Bitrate  
----            -------         ------          ----            -------------  
00101.M2TS      0:00:00.000     0:25:45.844     1 080 969 216   5 594          

CHAPTERS:

Number          Time In         Length          Avg Video Rate  Max 1-Sec Rate  Max 1-Sec Time  Max 5-Sec Rate  Max 5-Sec Time  Max 10Sec Rate  Max 10Sec Time  Avg Frame Size  Max Frame Size  Max Frame Time 
------          -------         ------          --------------  --------------  --------------  --------------  --------------  --------------  --------------  --------------  --------------  -------------- 
1               0:00:00.000     0:25:45.844     5 056 kbps      9 333 kbps      00:03:58.871    9 047 kbps      00:03:54.667    8 370 kbps      00:03:54.267    21 088 bytes    106 100 bytes   00:17:20.639   

STREAM DIAGNOSTICS:

File            PID             Type            Codec           Language                Seconds                 Bitrate                 Bytes           Packets        
----            ---             ----            -----           --------                --------------          --------------          -------------   -----          
00101.M2TS      4113 (0x1011)   0x1B            AVC                                     1545,711                5 057                   976 989 331     5 336 708      
00101.M2TS      4352 (0x1100)   0x81            AC3             eng (English)           1545,711                192                     37 099 776      241 535        

[/code]
<---- END FORUMS PASTE ---->

QUICK SUMMARY:

Disc Title: Some Like It Hot (1959)
Disc Size: 46 527 644 359 bytes
Protection: AACS
BD-Java: Yes
Playlist: 01101.MPLS
Size: 1 080 969 216 bytes
Length: 0:25:45
Total Bitrate: 5,59 Mbps
Video: MPEG-4 AVC Video / 5056 kbps / 480i / 29,970 fps / 4:3 / High Profile 3.2
Audio: English / Dolby Digital Audio / 2.0 / 48 kHz / 192 kbps / DN -4dB


********************
PLAYLIST: 00105.MPLS
********************

<--- BEGIN FORUMS PASTE --->
[code]
                                                                                                                Total   Video                                            
Title                                                           Codec   Length  Movie Size      Disc Size       Bitrate Bitrate Main Audio Track                          Secondary Audio Track
-----                                                           ------  ------- --------------  --------------  ------- ------- ------------------                        ---------------------
00105.MPLS                                                      AVC     0:21:04 886 278 144     46 527 644 359  5,61    5,00    DD AC3 2.0 192Kbps                       
[/code]

[code]

DISC INFO:

Disc Title:     Some Like It Hot (1959)
Disc Size:      46 527 644 359 bytes
Protection:     AACS
BD-Java:        Yes
BDInfo:         0.5.6

PLAYLIST REPORT:

Name:                   00105.MPLS
Length:                 0:21:04 (h:m:s)
Size:                   886 278 144 bytes
Total Bitrate:          5,61 Mbps

(*) Indicates included stream hidden by this playlist.

VIDEO:

Codec                   Bitrate             Description    
-----                   -------             -----------    
MPEG-4 AVC Video        4998 kbps           480i / 29,970 fps / 4:3 / High Profile 3.2

AUDIO:

Codec                           Language        Bitrate         Description    
-----                           --------        -------         -----------    
Dolby Digital Audio             English         192 kbps        2.0 / 48 kHz / 192 kbps / DN -4dB

SUBTITLES:

Codec                           Language        Bitrate         Description    
-----                           --------        -------         -----------    
Presentation Graphics           English         14,728 kbps                    
Presentation Graphics           Dutch           8,429 kbps                     
Presentation Graphics           French          9,121 kbps                     
Presentation Graphics           German          9,928 kbps                     
Presentation Graphics           Italian         8,739 kbps                     
* Presentation Graphics         Japanese        4,016 kbps                     
Presentation Graphics           Spanish         9,483 kbps                     

FILES:

Name            Time In         Length          Size            Total Bitrate  
----            -------         ------          ----            -------------  
00105.M2TS      0:00:00.000     0:21:04.229     886 278 144     5 608          

CHAPTERS:

Number          Time In         Length          Avg Video Rate  Max 1-Sec Rate  Max 1-Sec Time  Max 5-Sec Rate  Max 5-Sec Time  Max 10Sec Rate  Max 10Sec Time  Avg Frame Size  Max Frame Size  Max Frame Time 
------          -------         ------          --------------  --------------  --------------  --------------  --------------  --------------  --------------  --------------  --------------  -------------- 
1               0:00:00.000     0:21:04.229     4 998 kbps      9 002 kbps      00:02:12.599    8 693 kbps      00:02:10.563    7 932 kbps      00:06:39.432    20 846 bytes    106 193 bytes   00:02:53.773   

STREAM DIAGNOSTICS:

File            PID             Type            Codec           Language                Seconds                 Bitrate                 Bytes           Packets        
----            ---             ----            -----           --------                --------------          --------------          -------------   -----          
00105.M2TS      4113 (0x1011)   0x1B            AVC                                     1264,096                4 999                   789 847 033     4 314 819      
00105.M2TS      4352 (0x1100)   0x81            AC3             eng (English)           1264,096                192                     30 340 608      197 530        
00105.M2TS      4608 (0x1200)   0x90            PGS             eng (English)           1264,096                15                      2 327 382       13 890         
00105.M2TS      4609 (0x1201)   0x90            PGS             fra (French)            1264,096                9                       1 441 385       8 591          
00105.M2TS      4610 (0x1202)   0x90            PGS             ita (Italian)           1264,096                9                       1 381 004       8 246          
00105.M2TS      4611 (0x1203)   0x90            PGS             deu (German)            1264,096                10                      1 568 900       9 312          
00105.M2TS      4612 (0x1204)   0x90            PGS             spa (Spanish)           1264,096                9                       1 498 524       8 916          
00105.M2TS      4613 (0x1205)   0x90            PGS             nld (Dutch)             1264,096                8                       1 332 015       7 963          
00105.M2TS      4614 (0x1206)   0x90            PGS             jpn (Japanese)          1264,096                4                       634 677         4 402          

[/code]
<---- END FORUMS PASTE ---->

QUICK SUMMARY:

Disc Title: Some Like It Hot (1959)
Disc Size: 46 527 644 359 bytes
Protection: AACS
BD-Java: Yes
Playlist: 00105.MPLS
Size: 886 278 144 bytes
Length: 0:21:04
Total Bitrate: 5,61 Mbps
Video: MPEG-4 AVC Video / 4998 kbps / 480i / 29,970 fps / 4:3 / High Profile 3.2
Audio: English / Dolby Digital Audio / 2.0 / 48 kHz / 192 kbps / DN -4dB
Subtitle: English / 14,728 kbps
Subtitle: Dutch / 8,429 kbps
Subtitle: French / 9,121 kbps
Subtitle: German / 9,928 kbps
Subtitle: Italian / 8,739 kbps
* Subtitle: Japanese / 4,016 kbps
Subtitle: Spanish / 9,483 kbps


********************
PLAYLIST: 01105.MPLS
********************

<--- BEGIN FORUMS PASTE --->
[code]
                                                                                                                Total   Video                                            
Title                                                           Codec   Length  Movie Size      Disc Size       Bitrate Bitrate Main Audio Track                          Secondary Audio Track
-----                                                           ------  ------- --------------  --------------  ------- ------- ------------------                        ---------------------
01105.MPLS                                                      AVC     0:21:04 886 278 144     46 527 644 359  5,61    5,00    DD AC3 2.0 192Kbps                       
[/code]

[code]

DISC INFO:

Disc Title:     Some Like It Hot (1959)
Disc Size:      46 527 644 359 bytes
Protection:     AACS
BD-Java:        Yes
BDInfo:         0.5.6

PLAYLIST REPORT:

Name:                   01105.MPLS
Length:                 0:21:04 (h:m:s)
Size:                   886 278 144 bytes
Total Bitrate:          5,61 Mbps

(*) Indicates included stream hidden by this playlist.

VIDEO:

Codec                   Bitrate             Description    
-----                   -------             -----------    
MPEG-4 AVC Video        4998 kbps           480i / 29,970 fps / 4:3 / High Profile 3.2

AUDIO:

Codec                           Language        Bitrate         Description    
-----                           --------        -------         -----------    
Dolby Digital Audio             English         192 kbps        2.0 / 48 kHz / 192 kbps / DN -4dB

SUBTITLES:

Codec                           Language        Bitrate         Description    
-----                           --------        -------         -----------    
Presentation Graphics           English         14,728 kbps                    
* Presentation Graphics         Dutch           8,429 kbps                     
* Presentation Graphics         French          9,121 kbps                     
* Presentation Graphics         German          9,928 kbps                     
* Presentation Graphics         Italian         8,739 kbps                     
Presentation Graphics           Japanese        4,016 kbps                     
* Presentation Graphics         Spanish         9,483 kbps                     

FILES:

Name            Time In         Length          Size            Total Bitrate  
----            -------         ------          ----            -------------  
00105.M2TS      0:00:00.000     0:21:04.229     886 278 144     5 608          

CHAPTERS:

Number          Time In         Length          Avg Video Rate  Max 1-Sec Rate  Max 1-Sec Time  Max 5-Sec Rate  Max 5-Sec Time  Max 10Sec Rate  Max 10Sec Time  Avg Frame Size  Max Frame Size  Max Frame Time 
------          -------         ------          --------------  --------------  --------------  --------------  --------------  --------------  --------------  --------------  --------------  -------------- 
1               0:00:00.000     0:21:04.229     4 998 kbps      9 002 kbps      00:02:12.599    8 693 kbps      00:02:10.563    7 932 kbps      00:06:39.432    20 846 bytes    106 193 bytes   00:02:53.773   

STREAM DIAGNOSTICS:

File            PID             Type            Codec           Language                Seconds                 Bitrate                 Bytes           Packets        
----            ---             ----            -----           --------                --------------          --------------          -------------   -----          
00105.M2TS      4113 (0x1011)   0x1B            AVC                                     1264,096                4 999                   789 847 033     4 314 819      
00105.M2TS      4352 (0x1100)   0x81            AC3             eng (English)           1264,096                192                     30 340 608      197 530        
00105.M2TS      4608 (0x1200)   0x90            PGS             eng (English)           1264,096                15                      2 327 382       13 890         
00105.M2TS      4609 (0x1201)   0x90            PGS             fra (French)            1264,096                9                       1 441 385       8 591          
00105.M2TS      4610 (0x1202)   0x90            PGS             ita (Italian)           1264,096                9                       1 381 004       8 246          
00105.M2TS      4611 (0x1203)   0x90            PGS             deu (German)            1264,096                10                      1 568 900       9 312          
00105.M2TS      4612 (0x1204)   0x90            PGS             spa (Spanish)           1264,096                9                       1 498 524       8 916          
00105.M2TS      4613 (0x1205)   0x90            PGS             nld (Dutch)             1264,096                8                       1 332 015       7 963          
00105.M2TS      4614 (0x1206)   0x90            PGS             jpn (Japanese)          1264,096                4                       634 677         4 402          

[/code]
<---- END FORUMS PASTE ---->

QUICK SUMMARY:

Disc Title: Some Like It Hot (1959)
Disc Size: 46 527 644 359 bytes
Protection: AACS
BD-Java: Yes
Playlist: 01105.MPLS
Size: 886 278 144 bytes
Length: 0:21:04
Total Bitrate: 5,61 Mbps
Video: MPEG-4 AVC Video / 4998 kbps / 480i / 29,970 fps / 4:3 / High Profile 3.2
Audio: English / Dolby Digital Audio / 2.0 / 48 kHz / 192 kbps / DN -4dB
Subtitle: English / 14,728 kbps
* Subtitle: Dutch / 8,429 kbps
* Subtitle: French / 9,121 kbps
* Subtitle: German / 9,928 kbps
* Subtitle: Italian / 8,739 kbps
Subtitle: Japanese / 4,016 kbps
* Subtitle: Spanish / 9,483 kbps


********************
PLAYLIST: 00102.MPLS
********************

<--- BEGIN FORUMS PASTE --->
[code]
                                                                                                                Total   Video                                            
Title                                                           Codec   Length  Movie Size      Disc Size       Bitrate Bitrate Main Audio Track                          Secondary Audio Track
-----                                                           ------  ------- --------------  --------------  ------- ------- ------------------                        ---------------------
00102.MPLS                                                      AVC     0:20:22 845 488 128     46 527 644 359  5,53    5,00    DD AC3 2.0 192Kbps                       
[/code]

[code]

DISC INFO:

Disc Title:     Some Like It Hot (1959)
Disc Size:      46 527 644 359 bytes
Protection:     AACS
BD-Java:        Yes
BDInfo:         0.5.6

PLAYLIST REPORT:

Name:                   00102.MPLS
Length:                 0:20:22 (h:m:s)
Size:                   845 488 128 bytes
Total Bitrate:          5,53 Mbps

VIDEO:

Codec                   Bitrate             Description    
-----                   -------             -----------    
MPEG-4 AVC Video        4998 kbps           480i / 29,970 fps / 4:3 / High Profile 3.2

AUDIO:

Codec                           Language        Bitrate         Description    
-----                           --------        -------         -----------    
Dolby Digital Audio             English         192 kbps        2.0 / 48 kHz / 192 kbps / DN -4dB

FILES:

Name            Time In         Length          Size            Total Bitrate  
----            -------         ------          ----            -------------  
00102.M2TS      0:00:00.000     0:20:22.220     845 488 128     5 534          

CHAPTERS:

Number          Time In         Length          Avg Video Rate  Max 1-Sec Rate  Max 1-Sec Time  Max 5-Sec Rate  Max 5-Sec Time  Max 10Sec Rate  Max 10Sec Time  Avg Frame Size  Max Frame Size  Max Frame Time 
------          -------         ------          --------------  --------------  --------------  --------------  --------------  --------------  --------------  --------------  --------------  -------------- 
1               0:00:00.000     0:20:22.220     4 998 kbps      9 149 kbps      00:06:53.479    8 980 kbps      00:06:34.227    8 762 kbps      00:06:33.626    20 848 bytes    106 171 bytes   00:08:32.478   

STREAM DIAGNOSTICS:

File            PID             Type            Codec           Language                Seconds                 Bitrate                 Bytes           Packets        
----            ---             ----            -----           --------                --------------          --------------          -------------   -----          
00102.M2TS      4113 (0x1011)   0x1B            AVC                                     1222,088                4 999                   763 655 416     4 171 634      
00102.M2TS      4352 (0x1100)   0x81            AC3             eng (English)           1222,088                192                     29 332 992      190 970        

[/code]
<---- END FORUMS PASTE ---->

QUICK SUMMARY:

Disc Title: Some Like It Hot (1959)
Disc Size: 46 527 644 359 bytes
Protection: AACS
BD-Java: Yes
Playlist: 00102.MPLS
Size: 845 488 128 bytes
Length: 0:20:22
Total Bitrate: 5,53 Mbps
Video: MPEG-4 AVC Video / 4998 kbps / 480i / 29,970 fps / 4:3 / High Profile 3.2
Audio: English / Dolby Digital Audio / 2.0 / 48 kHz / 192 kbps / DN -4dB


********************
PLAYLIST: 01102.MPLS
********************

<--- BEGIN FORUMS PASTE --->
[code]
                                                                                                                Total   Video                                            
Title                                                           Codec   Length  Movie Size      Disc Size       Bitrate Bitrate Main Audio Track                          Secondary Audio Track
-----                                                           ------  ------- --------------  --------------  ------- ------- ------------------                        ---------------------
01102.MPLS                                                      AVC     0:20:22 845 488 128     46 527 644 359  5,53    5,00    DD AC3 2.0 192Kbps                       
[/code]

[code]

DISC INFO:

Disc Title:     Some Like It Hot (1959)
Disc Size:      46 527 644 359 bytes
Protection:     AACS
BD-Java:        Yes
BDInfo:         0.5.6

PLAYLIST REPORT:

Name:                   01102.MPLS
Length:                 0:20:22 (h:m:s)
Size:                   845 488 128 bytes
Total Bitrate:          5,53 Mbps

VIDEO:

Codec                   Bitrate             Description    
-----                   -------             -----------    
MPEG-4 AVC Video        4998 kbps           480i / 29,970 fps / 4:3 / High Profile 3.2

AUDIO:

Codec                           Language        Bitrate         Description    
-----                           --------        -------         -----------    
Dolby Digital Audio             English         192 kbps        2.0 / 48 kHz / 192 kbps / DN -4dB

FILES:

Name            Time In         Length          Size            Total Bitrate  
----            -------         ------          ----            -------------  
00102.M2TS      0:00:00.000     0:20:22.220     845 488 128     5 534          

CHAPTERS:

Number          Time In         Length          Avg Video Rate  Max 1-Sec Rate  Max 1-Sec Time  Max 5-Sec Rate  Max 5-Sec Time  Max 10Sec Rate  Max 10Sec Time  Avg Frame Size  Max Frame Size  Max Frame Time 
------          -------         ------          --------------  --------------  --------------  --------------  --------------  --------------  --------------  --------------  --------------  -------------- 
1               0:00:00.000     0:20:22.220     4 998 kbps      9 149 kbps      00:06:53.479    8 980 kbps      00:06:34.227    8 762 kbps      00:06:33.626    20 848 bytes    106 171 bytes   00:08:32.478   

STREAM DIAGNOSTICS:

File            PID             Type            Codec           Language                Seconds                 Bitrate                 Bytes           Packets        
----            ---             ----            -----           --------                --------------          --------------          -------------   -----          
00102.M2TS      4113 (0x1011)   0x1B            AVC                                     1222,088                4 999                   763 655 416     4 171 634      
00102.M2TS      4352 (0x1100)   0x81            AC3             eng (English)           1222,088                192                     29 332 992      190 970        

[/code]
<---- END FORUMS PASTE ---->

QUICK SUMMARY:

Disc Title: Some Like It Hot (1959)
Disc Size: 46 527 644 359 bytes
Protection: AACS
BD-Java: Yes
Playlist: 01102.MPLS
Size: 845 488 128 bytes
Length: 0:20:22
Total Bitrate: 5,53 Mbps
Video: MPEG-4 AVC Video / 4998 kbps / 480i / 29,970 fps / 4:3 / High Profile 3.2
Audio: English / Dolby Digital Audio / 2.0 / 48 kHz / 192 kbps / DN -4dB


********************
PLAYLIST: 00104.MPLS
********************

<--- BEGIN FORUMS PASTE --->
[code]
                                                                                                                Total   Video                                            
Title                                                           Codec   Length  Movie Size      Disc Size       Bitrate Bitrate Main Audio Track                          Secondary Audio Track
-----                                                           ------  ------- --------------  --------------  ------- ------- ------------------                        ---------------------
00104.MPLS                                                      AVC     0:12:03 521 035 776     46 527 644 359  5,76    5,00    DD AC3 2.0 192Kbps                       
[/code]

[code]

DISC INFO:

Disc Title:     Some Like It Hot (1959)
Disc Size:      46 527 644 359 bytes
Protection:     AACS
BD-Java:        Yes
BDInfo:         0.5.6

PLAYLIST REPORT:

Name:                   00104.MPLS
Length:                 0:12:03 (h:m:s)
Size:                   521 035 776 bytes
Total Bitrate:          5,76 Mbps

(*) Indicates included stream hidden by this playlist.

VIDEO:

Codec                   Bitrate             Description    
-----                   -------             -----------    
MPEG-4 AVC Video        4999 kbps           480i / 29,970 fps / 4:3 / High Profile 3.2

AUDIO:

Codec                           Language        Bitrate         Description    
-----                           --------        -------         -----------    
Dolby Digital Audio             English         192 kbps        2.0 / 48 kHz / 192 kbps / DN -4dB

SUBTITLES:

Codec                           Language        Bitrate         Description    
-----                           --------        -------         -----------    
Presentation Graphics           English         36,168 kbps                    
Presentation Graphics           Dutch           28,699 kbps                    
Presentation Graphics           French          29,771 kbps                    
Presentation Graphics           German          30,299 kbps                    
Presentation Graphics           Italian         29,273 kbps                    
* Presentation Graphics         Japanese        14,192 kbps                    
Presentation Graphics           Spanish         28,984 kbps                    

FILES:

Name            Time In         Length          Size            Total Bitrate  
----            -------         ------          ----            -------------  
00104.M2TS      0:00:00.000     0:12:03.689     521 035 776     5 760          

CHAPTERS:

Number          Time In         Length          Avg Video Rate  Max 1-Sec Rate  Max 1-Sec Time  Max 5-Sec Rate  Max 5-Sec Time  Max 10Sec Rate  Max 10Sec Time  Avg Frame Size  Max Frame Size  Max Frame Time 
------          -------         ------          --------------  --------------  --------------  --------------  --------------  --------------  --------------  --------------  --------------  -------------- 
1               0:00:00.000     0:12:03.689     4 999 kbps      9 164 kbps      00:06:46.873    8 704 kbps      00:06:02.829    8 562 kbps      00:05:57.824    20 850 bytes    104 255 bytes   00:00:34.934   

STREAM DIAGNOSTICS:

File            PID             Type            Codec           Language                Seconds                 Bitrate                 Bytes           Packets        
----            ---             ----            -----           --------                --------------          --------------          -------------   -----          
00104.M2TS      4113 (0x1011)   0x1B            AVC                                     723,556                 5 000                   452 205 993     2 470 322      
00104.M2TS      4352 (0x1100)   0x81            AC3             eng (English)           723,556                 192                     17 368 320      113 075        
00104.M2TS      4608 (0x1200)   0x90            PGS             eng (English)           723,556                 36                      3 271 831       19 227         
00104.M2TS      4609 (0x1201)   0x90            PGS             fra (French)            723,556                 30                      2 693 136       15 895         
00104.M2TS      4610 (0x1202)   0x90            PGS             ita (Italian)           723,556                 29                      2 648 096       15 696         
00104.M2TS      4611 (0x1203)   0x90            PGS             deu (German)            723,556                 30                      2 740 916       16 207         
00104.M2TS      4612 (0x1204)   0x90            PGS             spa (Spanish)           723,556                 29                      2 621 926       15 560         
00104.M2TS      4613 (0x1205)   0x90            PGS             nld (Dutch)             723,556                 29                      2 596 131       15 286         
00104.M2TS      4614 (0x1206)   0x90            PGS             jpn (Japanese)          723,556                 14                      1 283 793       8 206          

[/code]
<---- END FORUMS PASTE ---->

QUICK SUMMARY:

Disc Title: Some Like It Hot (1959)
Disc Size: 46 527 644 359 bytes
Protection: AACS
BD-Java: Yes
Playlist: 00104.MPLS
Size: 521 035 776 bytes
Length: 0:12:03
Total Bitrate: 5,76 Mbps
Video: MPEG-4 AVC Video / 4999 kbps / 480i / 29,970 fps / 4:3 / High Profile 3.2
Audio: English / Dolby Digital Audio / 2.0 / 48 kHz / 192 kbps / DN -4dB
Subtitle: English / 36,168 kbps
Subtitle: Dutch / 28,699 kbps
Subtitle: French / 29,771 kbps
Subtitle: German / 30,299 kbps
Subtitle: Italian / 29,273 kbps
* Subtitle: Japanese / 14,192 kbps
Subtitle: Spanish / 28,984 kbps


********************
PLAYLIST: 01104.MPLS
********************

<--- BEGIN FORUMS PASTE --->
[code]
                                                                                                                Total   Video                                            
Title                                                           Codec   Length  Movie Size      Disc Size       Bitrate Bitrate Main Audio Track                          Secondary Audio Track
-----                                                           ------  ------- --------------  --------------  ------- ------- ------------------                        ---------------------
01104.MPLS                                                      AVC     0:12:03 521 035 776     46 527 644 359  5,76    5,00    DD AC3 2.0 192Kbps                       
[/code]

[code]

DISC INFO:

Disc Title:     Some Like It Hot (1959)
Disc Size:      46 527 644 359 bytes
Protection:     AACS
BD-Java:        Yes
BDInfo:         0.5.6

PLAYLIST REPORT:

Name:                   01104.MPLS
Length:                 0:12:03 (h:m:s)
Size:                   521 035 776 bytes
Total Bitrate:          5,76 Mbps

(*) Indicates included stream hidden by this playlist.

VIDEO:

Codec                   Bitrate             Description    
-----                   -------             -----------    
MPEG-4 AVC Video        4999 kbps           480i / 29,970 fps / 4:3 / High Profile 3.2

AUDIO:

Codec                           Language        Bitrate         Description    
-----                           --------        -------         -----------    
Dolby Digital Audio             English         192 kbps        2.0 / 48 kHz / 192 kbps / DN -4dB

SUBTITLES:

Codec                           Language        Bitrate         Description    
-----                           --------        -------         -----------    
Presentation Graphics           English         36,168 kbps                    
* Presentation Graphics         Dutch           28,699 kbps                    
* Presentation Graphics         French          29,771 kbps                    
* Presentation Graphics         German          30,299 kbps                    
* Presentation Graphics         Italian         29,273 kbps                    
Presentation Graphics           Japanese        14,192 kbps                    
* Presentation Graphics         Spanish         28,984 kbps                    

FILES:

Name            Time In         Length          Size            Total Bitrate  
----            -------         ------          ----            -------------  
00104.M2TS      0:00:00.000     0:12:03.689     521 035 776     5 760          

CHAPTERS:

Number          Time In         Length          Avg Video Rate  Max 1-Sec Rate  Max 1-Sec Time  Max 5-Sec Rate  Max 5-Sec Time  Max 10Sec Rate  Max 10Sec Time  Avg Frame Size  Max Frame Size  Max Frame Time 
------          -------         ------          --------------  --------------  --------------  --------------  --------------  --------------  --------------  --------------  --------------  -------------- 
1               0:00:00.000     0:12:03.689     4 999 kbps      9 164 kbps      00:06:46.873    8 704 kbps      00:06:02.829    8 562 kbps      00:05:57.824    20 850 bytes    104 255 bytes   00:00:34.934   

STREAM DIAGNOSTICS:

File            PID             Type            Codec           Language                Seconds                 Bitrate                 Bytes           Packets        
----            ---             ----            -----           --------                --------------          --------------          -------------   -----          
00104.M2TS      4113 (0x1011)   0x1B            AVC                                     723,556                 5 000                   452 205 993     2 470 322      
00104.M2TS      4352 (0x1100)   0x81            AC3             eng (English)           723,556                 192                     17 368 320      113 075        
00104.M2TS      4608 (0x1200)   0x90            PGS             eng (English)           723,556                 36                      3 271 831       19 227         
00104.M2TS      4609 (0x1201)   0x90            PGS             fra (French)            723,556                 30                      2 693 136       15 895         
00104.M2TS      4610 (0x1202)   0x90            PGS             ita (Italian)           723,556                 29                      2 648 096       15 696         
00104.M2TS      4611 (0x1203)   0x90            PGS             deu (German)            723,556                 30                      2 740 916       16 207         
00104.M2TS      4612 (0x1204)   0x90            PGS             spa (Spanish)           723,556                 29                      2 621 926       15 560         
00104.M2TS      4613 (0x1205)   0x90            PGS             nld (Dutch)             723,556                 29                      2 596 131       15 286         
00104.M2TS      4614 (0x1206)   0x90            PGS             jpn (Japanese)          723,556                 14                      1 283 793       8 206          

[/code]
<---- END FORUMS PASTE ---->

QUICK SUMMARY:

Disc Title: Some Like It Hot (1959)
Disc Size: 46 527 644 359 bytes
Protection: AACS
BD-Java: Yes
Playlist: 01104.MPLS
Size: 521 035 776 bytes
Length: 0:12:03
Total Bitrate: 5,76 Mbps
Video: MPEG-4 AVC Video / 4999 kbps / 480i / 29,970 fps / 4:3 / High Profile 3.2
Audio: English / Dolby Digital Audio / 2.0 / 48 kHz / 192 kbps / DN -4dB
Subtitle: English / 36,168 kbps
* Subtitle: Dutch / 28,699 kbps
* Subtitle: French / 29,771 kbps
* Subtitle: German / 30,299 kbps
* Subtitle: Italian / 29,273 kbps
Subtitle: Japanese / 14,192 kbps
* Subtitle: Spanish / 28,984 kbps


********************
PLAYLIST: 00106.MPLS
********************

<--- BEGIN FORUMS PASTE --->
[code]
                                                                                                                Total   Video                                            
Title                                                           Codec   Length  Movie Size      Disc Size       Bitrate Bitrate Main Audio Track                          Secondary Audio Track
-----                                                           ------  ------- --------------  --------------  ------- ------- ------------------                        ---------------------
00106.MPLS                                                      AVC     0:02:20 590 757 888     46 527 644 359  33,68   31,98   DD AC3 2.0 192Kbps                       
[/code]

[code]

DISC INFO:

Disc Title:     Some Like It Hot (1959)
Disc Size:      46 527 644 359 bytes
Protection:     AACS
BD-Java:        Yes
BDInfo:         0.5.6

PLAYLIST REPORT:

Name:                   00106.MPLS
Length:                 0:02:20 (h:m:s)
Size:                   590 757 888 bytes
Total Bitrate:          33,68 Mbps

VIDEO:

Codec                   Bitrate             Description    
-----                   -------             -----------    
MPEG-4 AVC Video        31981 kbps          1080p / 23,976 fps / 16:9 / High Profile 4.1

AUDIO:

Codec                           Language        Bitrate         Description    
-----                           --------        -------         -----------    
Dolby Digital Audio             English         192 kbps        2.0 / 48 kHz / 192 kbps

FILES:

Name            Time In         Length          Size            Total Bitrate  
----            -------         ------          ----            -------------  
00106.M2TS      0:00:00.000     0:02:20.306     590 757 888     33 684         

CHAPTERS:

Number          Time In         Length          Avg Video Rate  Max 1-Sec Rate  Max 1-Sec Time  Max 5-Sec Rate  Max 5-Sec Time  Max 10Sec Rate  Max 10Sec Time  Avg Frame Size  Max Frame Size  Max Frame Time 
------          -------         ------          --------------  --------------  --------------  --------------  --------------  --------------  --------------  --------------  --------------  -------------- 
1               0:00:00.000     0:02:20.306     31 981 kbps     40 300 kbps     00:01:35.303    38 096 kbps     00:01:38.598    37 885 kbps     00:01:33.510    166 732 bytes   297 053 bytes   00:01:32.175   

STREAM DIAGNOSTICS:

File            PID             Type            Codec           Language                Seconds                 Bitrate                 Bytes           Packets        
----            ---             ----            -----           --------                --------------          --------------          -------------   -----          
00106.M2TS      4113 (0x1011)   0x1B            AVC                                     140,140                 32 019                  560 885 975     3 050 235      
00106.M2TS      4352 (0x1100)   0x81            AC3             eng (English)           140,140                 192                     3 366 144       21 915         

[/code]
<---- END FORUMS PASTE ---->

QUICK SUMMARY:

Disc Title: Some Like It Hot (1959)
Disc Size: 46 527 644 359 bytes
Protection: AACS
BD-Java: Yes
Playlist: 00106.MPLS
Size: 590 757 888 bytes
Length: 0:02:20
Total Bitrate: 33,68 Mbps
Video: MPEG-4 AVC Video / 31981 kbps / 1080p / 23,976 fps / 16:9 / High Profile 4.1
Audio: English / Dolby Digital Audio / 2.0 / 48 kHz / 192 kbps


********************
PLAYLIST: 01106.MPLS
********************

<--- BEGIN FORUMS PASTE --->
[code]
                                                                                                                Total   Video                                            
Title                                                           Codec   Length  Movie Size      Disc Size       Bitrate Bitrate Main Audio Track                          Secondary Audio Track
-----                                                           ------  ------- --------------  --------------  ------- ------- ------------------                        ---------------------
01106.MPLS                                                      AVC     0:02:20 590 757 888     46 527 644 359  33,68   31,98   DD AC3 2.0 192Kbps                       
[/code]

[code]

DISC INFO:

Disc Title:     Some Like It Hot (1959)
Disc Size:      46 527 644 359 bytes
Protection:     AACS
BD-Java:        Yes
BDInfo:         0.5.6

PLAYLIST REPORT:

Name:                   01106.MPLS
Length:                 0:02:20 (h:m:s)
Size:                   590 757 888 bytes
Total Bitrate:          33,68 Mbps

VIDEO:

Codec                   Bitrate             Description    
-----                   -------             -----------    
MPEG-4 AVC Video        31981 kbps          1080p / 23,976 fps / 16:9 / High Profile 4.1

AUDIO:

Codec                           Language        Bitrate         Description    
-----                           --------        -------         -----------    
Dolby Digital Audio             English         192 kbps        2.0 / 48 kHz / 192 kbps

FILES:

Name            Time In         Length          Size            Total Bitrate  
----            -------         ------          ----            -------------  
00106.M2TS      0:00:00.000     0:02:20.306     590 757 888     33 684         

CHAPTERS:

Number          Time In         Length          Avg Video Rate  Max 1-Sec Rate  Max 1-Sec Time  Max 5-Sec Rate  Max 5-Sec Time  Max 10Sec Rate  Max 10Sec Time  Avg Frame Size  Max Frame Size  Max Frame Time 
------          -------         ------          --------------  --------------  --------------  --------------  --------------  --------------  --------------  --------------  --------------  -------------- 
1               0:00:00.000     0:02:20.306     31 981 kbps     40 300 kbps     00:01:35.303    38 096 kbps     00:01:38.598    37 885 kbps     00:01:33.510    166 732 bytes   297 053 bytes   00:01:32.175   

STREAM DIAGNOSTICS:

File            PID             Type            Codec           Language                Seconds                 Bitrate                 Bytes           Packets        
----            ---             ----            -----           --------                --------------          --------------          -------------   -----          
00106.M2TS      4113 (0x1011)   0x1B            AVC                                     140,140                 32 019                  560 885 975     3 050 235      
00106.M2TS      4352 (0x1100)   0x81            AC3             eng (English)           140,140                 192                     3 366 144       21 915         

[/code]
<---- END FORUMS PASTE ---->

QUICK SUMMARY:

Disc Title: Some Like It Hot (1959)
Disc Size: 46 527 644 359 bytes
Protection: AACS
BD-Java: Yes
Playlist: 01106.MPLS
Size: 590 757 888 bytes
Length: 0:02:20
Total Bitrate: 33,68 Mbps
Video: MPEG-4 AVC Video / 31981 kbps / 1080p / 23,976 fps / 16:9 / High Profile 4.1
Audio: English / Dolby Digital Audio / 2.0 / 48 kHz / 192 kbps


********************
PLAYLIST: 00318.MPLS
********************

<--- BEGIN FORUMS PASTE --->
[code]
                                                                                                                Total   Video                                            
Title                                                           Codec   Length  Movie Size      Disc Size       Bitrate Bitrate Main Audio Track                          Secondary Audio Track
-----                                                           ------  ------- --------------  --------------  ------- ------- ------------------                        ---------------------
00318.MPLS                                                      AVC     0:00:23 62 244 864      46 527 644 359  21,40   19,97   DD AC3 5.1 448Kbps                       
[/code]

[code]

DISC INFO:

Disc Title:     Some Like It Hot (1959)
Disc Size:      46 527 644 359 bytes
Protection:     AACS
BD-Java:        Yes
BDInfo:         0.5.6

PLAYLIST REPORT:

Name:                   00318.MPLS
Length:                 0:00:23 (h:m:s)
Size:                   62 244 864 bytes
Total Bitrate:          21,40 Mbps

VIDEO:

Codec                   Bitrate             Description    
-----                   -------             -----------    
MPEG-4 AVC Video        19974 kbps          1080p / 23,976 fps / 16:9 / High Profile 4.1

AUDIO:

Codec                           Language        Bitrate         Description    
-----                           --------        -------         -----------    
Dolby Digital Audio             English         448 kbps        5.1 / 48 kHz / 448 kbps / DN -4dB

FILES:

Name            Time In         Length          Size            Total Bitrate  
----            -------         ------          ----            -------------  
00318.M2TS      0:00:00.000     0:00:23.273     62 244 864      21 396         

CHAPTERS:

Number          Time In         Length          Avg Video Rate  Max 1-Sec Rate  Max 1-Sec Time  Max 5-Sec Rate  Max 5-Sec Time  Max 10Sec Rate  Max 10Sec Time  Avg Frame Size  Max Frame Size  Max Frame Time 
------          -------         ------          --------------  --------------  --------------  --------------  --------------  --------------  --------------  --------------  --------------  -------------- 
1               0:00:00.000     0:00:23.273     19 974 kbps     25 084 kbps     00:00:04.629    23 796 kbps     00:00:04.587    23 598 kbps     00:00:04.671    104 136 bytes   412 291 bytes   00:00:18.393   

STREAM DIAGNOSTICS:

File            PID             Type            Codec           Language                Seconds                 Bitrate                 Bytes           Packets        
----            ---             ----            -----           --------                --------------          --------------          -------------   -----          
00318.M2TS      4113 (0x1011)   0x1B            AVC                                     23,106                  20 118                  58 107 992      316 095        
00318.M2TS      4352 (0x1100)   0x81            AC3             eng (English)           23,106                  451                     1 302 784       7 270          

[/code]
<---- END FORUMS PASTE ---->

QUICK SUMMARY:

Disc Title: Some Like It Hot (1959)
Disc Size: 46 527 644 359 bytes
Protection: AACS
BD-Java: Yes
Playlist: 00318.MPLS
Size: 62 244 864 bytes
Length: 0:00:23
Total Bitrate: 21,40 Mbps
Video: MPEG-4 AVC Video / 19974 kbps / 1080p / 23,976 fps / 16:9 / High Profile 4.1
Audio: English / Dolby Digital Audio / 5.1 / 48 kHz / 448 kbps / DN -4dB