CopyPastehas never been so tasty!

American Graffiti bdrip 1080p

by denniya

  • 0
  • 0
  • 0
567 views

GeneralID                               : 1 (0x1)Complete name                    : C:\Фильмы\American Graffiti\American Graffiti.tsFormat                           : MPEG-TSFile size                        : 9.28 GiBDuration                         : 1h 52mnOverall bit rate                 : 11.8 MbpsMaximum Overall bit rate         : 35.5 Mbps
VideoID                               : 4113 (0x1011)Menu ID                          : 1 (0x1)Format                           : AVCFormat/Info                      : Advanced Video CodecFormat profile                   : High@L4.1Format settings, CABAC           : YesFormat settings, ReFrames        : 5 framesCodec ID                         : 27Duration                         : 1h 52mnBit rate mode                    : VariableBit rate                         : 9 607 KbpsMaximum bit rate                 : 40.0 MbpsWidth                            : 1 920 pixelsHeight                           : 812 pixelsDisplay aspect ratio             : 2.35:1Frame rate                       : 23.976 fpsColor space                      : YUVChroma subsampling               : 4:2:0Bit depth                        : 8 bitsScan type                        : ProgressiveBits/(Pixel*Frame)               : 0.257Stream size                      : 7.47 GiB (80%)Writing library                  : x264 core 115 r1995 c1e60b9Encoding settings                : cabac=1 / ref=5 / deblock=1:-2:-2 / analyse=0x3:0x133 / me=umh / subme=9 / psy=1 / psy_rd=1.10:0.15 / mixed_ref=1 / me_range=32 / chroma_me=1 / trellis=2 / 8x8dct=1 / cqm=0 / deadzone=21,11 / fast_pskip=1 / chroma_qp_offset=-3 / threads=12 / sliced_threads=0 / nr=0 / decimate=1 / interlaced=0 / bluray_compat=0 / constrained_intra=0 / bframes=5 / b_pyramid=2 / b_adapt=2 / b_bias=0 / direct=3 / weightb=1 / open_gop=0 / weightp=2 / keyint=250 / keyint_min=1 / scenecut=60 / intra_refresh=0 / rc_lookahead=60 / rc=2pass / mbtree=1 / bitrate=9607 / ratetol=1.0 / qcomp=0.70 / qpmin=10 / qpmax=51 / qpstep=4 / cplxblur=20.0 / qblur=0.5 / vbv_maxrate=40000 / vbv_bufsize=40000 / nal_hrd=none / ip_ratio=1.20 / aq=1:1.0
Audio #1ID                               : 4352 (0x1100)Menu ID                          : 1 (0x1)Format                           : DTSFormat/Info                      : Digital Theater SystemsCodec ID                         : 130Duration                         : 1h 52mnBit rate mode                    : ConstantBit rate                         : 1 510 KbpsChannel(s)                       : 2 channelsChannel positions                : Front: L RSampling rate                    : 48.0 KHzBit depth                        : 24 bitsCompression mode                 : LossyStream size                      : 1.19 GiB (13%)Language                         : English
Audio #2ID                               : 4353 (0x1101)Menu ID                          : 1 (0x1)Format                           : AC-3Format/Info                      : Audio Coding 3Mode extension                   : CM (complete main)Codec ID                         : 129Duration                         : 1h 52mnBit rate mode                    : ConstantBit rate                         : 192 KbpsChannel(s)                       : 2 channelsChannel positions                : Front: L RSampling rate                    : 48.0 KHzBit depth                        : 16 bitsCompression mode                 : LossyStream size                      : 154 MiB (2%)Language                         : Russian

Add A Comment: