CopyPastehas never been so tasty!

MediaInfo

by anonymous

  • 0
  • 0
  • 0
114 views

General

Unique ID                        : 170372238138473999628173946187614596625 (0x802C7FE00A0539FA851229D43F7D2E11)

Complete name                    : G:\BDRemux и Blu-ray\Scanners.1981.GER.BluRay.1080p.AVC.DTS-HD.MA.5.1\Skanneri.1981.BDRemux.HDTracker.mkv

Format                           : Matroska

File size                        : 16.0 GiB

Duration                         : 1h 44mn

Overall bit rate                 : 22.0 Mbps

Encoded date                     : UTC 2011-06-13 16:34:01

Writing application              : mkvmerge v4.4.0 ('Die Wiederkehr') сборка от Oct 31 2010 21:52:48

Writing library                  : libebml v1.0.0 + libmatroska v1.0.0

 

Video

ID                               : 1

Format                           : AVC

Format/Info                      : Advanced Video Codec

Format profile                   : High@L4.1

Format settings, CABAC           : Yes

Format settings, ReFrames        : 4 frames

Codec ID                         : V_MPEG4/ISO/AVC

Duration                         : 1h 44mn

Bit rate mode                    : Variable

Bit rate                         : 18.9 Mbps

Maximum bit rate                 : 35.0 Mbps

Width                            : 1 920 pixels

Height                           : 1 080 pixels

Display aspect ratio             : 16:9

Frame rate                       : 23.976 fps

Standard                         : NTSC

Color space                      : YUV

Chroma subsampling               : 4:2:0

Bit depth                        : 8 bits

Scan type                        : Progressive

Bits/(Pixel*Frame)               : 0.381

Stream size                      : 13.8 GiB (86%)

Title                            : Видеоряд

Color primaries                  : BT.709-5, BT.1361, IEC 61966-2-4, SMPTE RP177

Transfer characteristics         : BT.709-5, BT.1361

Matrix coefficients              : BT.709-5, BT.1361, IEC 61966-2-4 709, SMPTE RP177

 

Audio #1

ID                               : 2

Format                           : DTS

Format/Info                      : Digital Theater Systems

Codec ID                         : A_DTS

Duration                         : 1h 44mn

Bit rate mode                    : Constant

Bit rate                         : 1 510 Kbps

Channel(s)                       : 6 channels

Channel positions                : Front: L C R, Side: L R, LFE

Sampling rate                    : 48.0 KHz

Bit depth                        : 24 bits

Compression mode                 : Lossy

Stream size                      : 1.10 GiB (7%)

Title                            : Двухголосый, DTS, 6ch, 1510 Кбит

Language                         : Russian

 

Audio #2

ID                               : 3

Format                           : DTS

Format/Info                      : Digital Theater Systems

Format profile                   : MA / Core

Codec ID                         : A_DTS

Duration                         : 1h 44mn

Bit rate mode                    : Variable

Bit rate                         : 1 112 Kbps / 755 Kbps

Channel(s)                       : 6 channels

Channel positions                : Front: L C R, Side: L R, LFE

Sampling rate                    : 48.0 KHz

Bit depth                        : 16 bits

Compression mode                 : Lossless / Lossy

Title                            : Английский (DTS-HD MA, 5.1 ch, 1719 Кбит/с, 16-bit [DTS Core: 5.1 / 48 kHz / 768 kbps / 16-bit])

Language                         : English

 

Menu

00:00:00.000                     : :Chapter 01

00:10:12.695                     : :Chapter 02

00:17:20.956                     : :Chapter 03

00:25:24.856                     : :Chapter 04

00:34:22.393                     : :Chapter 05

00:44:53.524                     : :Chapter 06

00:51:56.863                     : :Chapter 07

01:01:05.203                     : :Chapter 08

01:08:33.943                     : :Chapter 09

01:16:43.056                     : :Chapter 10

01:24:48.208                     : :Chapter 11

01:37:16.455                     : :Chapter 12

01:42:50.539                     : :Chapter 13

 

Add A Comment: