CopyPastehas never been so tasty!

Anger Management (2003)

by anonymous

  • 0
  • 0
363 views

Disc Title:     Anger Management (2003)
Disc Size:      33 707 219 572 bytes
Protection:     AACS
BD-Java:        Yes
BDInfo:         0.5.6

Notes:         

BDINFO HOME:
  Cinema Squid
    http://www.cinemasquid.com/blu-ray/tools/bdinfo

INCLUDES FORUMS REPORT FOR:
  AVS Forum Blu-ray Audio and Video Specifications Thread
    http://www.avsforum.com/avs-vb/showthread.php?t=1155731


********************
PLAYLIST: 00001.MPLS
********************

<--- BEGIN FORUMS PASTE --->
[code]
                                                                                                                Total   Video                                            
Title                                                           Codec   Length  Movie Size      Disc Size       Bitrate Bitrate Main Audio Track                          Secondary Audio Track
-----                                                           ------  ------- --------------  --------------  ------- ------- ------------------                        ---------------------
00001.MPLS                                                      AVC     1:45:02 30 623 956 992  33 707 219 572  38,87   27,22   Dolby TrueHD 5.1 1650Kbps (48kHz/16-bit)  DD AC3 5.1 640Kbps
[/code]

[code]

DISC INFO:

Disc Title:     Anger Management (2003)
Disc Size:      33 707 219 572 bytes
Protection:     AACS
BD-Java:        Yes
BDInfo:         0.5.6

PLAYLIST REPORT:

Name:                   00001.MPLS
Length:                 1:45:02 (h:m:s)
Size:                   30 623 956 992 bytes
Total Bitrate:          38,87 Mbps

VIDEO:

Codec                   Bitrate             Description    
-----                   -------             -----------    
MPEG-4 AVC Video        27223 kbps          1080p / 23,976 fps / 16:9 / High Profile 4.1

AUDIO:

Codec                           Language        Bitrate         Description    
-----                           --------        -------         -----------    
Dolby TrueHD Audio              English         1650 kbps       5.1 / 48 kHz / 1650 kbps / 16-bit (AC3 Embedded: 5.1 / 48 kHz / 640 kbps / DN -6dB)
Dolby Digital Audio             English         640 kbps        5.1 / 48 kHz / 640 kbps / DN -4dB
Dolby Digital Audio             Czech           640 kbps        5.1 / 48 kHz / 640 kbps / DN -4dB
Dolby Digital Audio             Hungarian       640 kbps        5.1 / 48 kHz / 640 kbps / DN -5dB
Dolby Digital Audio             Polish          640 kbps        5.1 / 48 kHz / 640 kbps / DN -6dB
Dolby Digital Audio             Portuguese      640 kbps        5.1 / 48 kHz / 640 kbps / DN -4dB
Dolby Digital Audio             Russian         640 kbps        5.1 / 48 kHz / 640 kbps / DN -4dB
Dolby Digital Audio             Spanish         640 kbps        5.1 / 48 kHz / 640 kbps / DN -3dB
Dolby Digital Audio             Thai            640 kbps        5.1 / 48 kHz / 640 kbps / DN -4dB
Dolby Digital Audio             English         192 kbps        2.0 / 48 kHz / 192 kbps / Dolby Surround

SUBTITLES:

Codec                           Language        Bitrate         Description    
-----                           --------        -------         -----------    
Presentation Graphics           English         41,605 kbps                    
Presentation Graphics           English         31,528 kbps                    
Presentation Graphics           English         49,871 kbps                    
Presentation Graphics           Croatian        28,634 kbps                    
Presentation Graphics           Czech           33,834 kbps                    
Presentation Graphics           Greek           40,122 kbps                    
Presentation Graphics           Hindi           37,748 kbps                    
Presentation Graphics           Hungarian       34,014 kbps                    
Presentation Graphics           Icelandic       38,228 kbps                    
Presentation Graphics           Korean          27,543 kbps                    
Presentation Graphics           Korean          36,827 kbps                    
Presentation Graphics           Polish          33,244 kbps                    
Presentation Graphics           Portuguese      38,417 kbps                    
Presentation Graphics           Portuguese      48,820 kbps                    
Presentation Graphics           Romanian        34,142 kbps                    
Presentation Graphics           Russian         56,361 kbps                    
Presentation Graphics           Russian         2,337 kbps                     
Presentation Graphics           Russian         1,710 kbps                     
Presentation Graphics           Slovak          37,391 kbps                    
Presentation Graphics           Slovenian       32,205 kbps                    
Presentation Graphics           Spanish         40,317 kbps                    
Presentation Graphics           Spanish         48,887 kbps                    
Presentation Graphics           Thai            36,063 kbps                    
Presentation Graphics           Turkish         38,680 kbps                    

FILES:

Name            Time In         Length          Size            Total Bitrate  
----            -------         ------          ----            -------------  
00011.M2TS      0:00:00.000     1:45:02.296     30 623 956 992  38 873         

CHAPTERS:

Number          Time In         Length          Avg Video Rate  Max 1-Sec Rate  Max 1-Sec Time  Max 5-Sec Rate  Max 5-Sec Time  Max 10Sec Rate  Max 10Sec Time  Avg Frame Size  Max Frame Size  Max Frame Time 
------          -------         ------          --------------  --------------  --------------  --------------  --------------  --------------  --------------  --------------  --------------  -------------- 
1               0:00:00.000     0:05:04.053     28 585 kbps     39 438 kbps     00:02:15.009    34 692 kbps     00:00:50.258    34 236 kbps     00:00:48.214    149 008 bytes   553 852 bytes   00:00:43.251   
2               0:05:04.053     0:04:55.461     27 296 kbps     34 910 kbps     00:08:48.402    30 222 kbps     00:08:07.403    29 899 kbps     00:08:07.403    142 311 bytes   538 862 bytes   00:08:42.104   
3               0:09:59.515     0:06:55.206     28 015 kbps     35 975 kbps     00:16:26.110    31 076 kbps     00:10:09.900    30 101 kbps     00:10:07.607    146 056 bytes   548 968 bytes   00:11:11.128   
4               0:16:54.722     0:05:30.997     28 311 kbps     47 692 kbps     00:20:00.866    33 814 kbps     00:19:58.363    31 351 kbps     00:19:53.317    147 600 bytes   528 174 bytes   00:18:32.778   
5               0:22:25.719     0:07:03.256     27 408 kbps     37 414 kbps     00:24:16.246    31 005 kbps     00:24:13.160    29 995 kbps     00:24:08.155    142 891 bytes   543 619 bytes   00:25:23.647   
6               0:29:28.975     0:06:51.619     28 120 kbps     40 521 kbps     00:33:41.477    33 751 kbps     00:33:41.477    32 563 kbps     00:31:38.146    146 604 bytes   623 603 bytes   00:31:49.782   
7               0:36:20.595     0:06:01.444     27 783 kbps     34 979 kbps     00:40:31.512    31 048 kbps     00:40:20.793    30 567 kbps     00:40:20.042    144 849 bytes   568 263 bytes   00:41:37.912   
8               0:42:22.039     0:05:35.793     27 895 kbps     36 889 kbps     00:43:50.085    32 647 kbps     00:43:50.085    31 218 kbps     00:43:50.085    145 430 bytes   509 489 bytes   00:42:34.802   
9               0:47:57.833     0:04:38.611     28 814 kbps     40 973 kbps     00:50:23.395    33 150 kbps     00:52:12.462    32 790 kbps     00:49:51.697    150 225 bytes   572 206 bytes   00:50:11.925   
10              0:52:36.444     0:05:28.995     26 398 kbps     35 401 kbps     00:55:58.104    29 397 kbps     00:53:40.634    28 676 kbps     00:53:42.677    137 626 bytes   528 938 bytes   00:57:50.008   
11              0:58:05.440     0:06:37.146     28 753 kbps     37 041 kbps     00:59:00.370    33 365 kbps     00:58:59.035    32 079 kbps     00:58:53.363    149 905 bytes   476 717 bytes   00:59:00.495   
12              1:04:42.587     0:11:18.469     27 992 kbps     41 332 kbps     01:10:17.421    32 781 kbps     01:10:16.420    31 678 kbps     01:09:03.722    145 940 bytes   685 364 bytes   01:09:52.354   
13              1:16:01.056     0:04:43.741     27 868 kbps     37 519 kbps     01:17:05.329    32 403 kbps     01:17:08.415    31 108 kbps     01:17:05.037    145 291 bytes   491 574 bytes   01:17:20.218   
14              1:20:44.798     0:06:51.577     27 972 kbps     40 700 kbps     01:27:16.648    33 550 kbps     01:27:16.648    32 172 kbps     01:27:16.648    145 835 bytes   656 898 bytes   01:27:36.292   
15              1:27:36.376     0:07:30.700     27 726 kbps     43 842 kbps     01:30:13.866    32 906 kbps     01:28:18.334    31 732 kbps     01:28:16.791    144 549 bytes   618 605 bytes   01:27:37.085   
16              1:35:07.076     0:09:55.219     20 472 kbps     37 906 kbps     01:43:34.416    34 984 kbps     01:43:30.412    34 801 kbps     01:43:26.283    106 746 bytes   548 032 bytes   01:37:16.831   

STREAM DIAGNOSTICS:

File            PID             Type            Codec           Language                Seconds                 Bitrate                 Bytes           Packets        
----            ---             ----            -----           --------                --------------          --------------          -------------   -----          
00011.M2TS      4113 (0x1011)   0x1B            AVC                                     6302,213                27 224                  21 446 063 144  116 643 513    
00011.M2TS      4352 (0x1100)   0x83            TrueHD          eng (English)           6302,213                2 290                   1 804 281 078   14 109 682     
00011.M2TS      4353 (0x1101)   0x81            AC3             eng (English)           6302,213                640                     504 184 320     2 954 205      
00011.M2TS      4354 (0x1102)   0x81            AC3             spa (Spanish)           6302,213                640                     504 184 320     2 954 205      
00011.M2TS      4355 (0x1103)   0x81            AC3             por (Portuguese)        6302,213                640                     504 184 320     2 954 205      
00011.M2TS      4356 (0x1104)   0x81            AC3             ces (Czech)             6302,213                640                     504 184 320     2 954 205      
00011.M2TS      4357 (0x1105)   0x81            AC3             hun (Hungarian)         6302,213                640                     504 184 320     2 954 205      
00011.M2TS      4358 (0x1106)   0x81            AC3             pol (Polish)            6302,213                640                     504 184 320     2 954 205      
00011.M2TS      4359 (0x1107)   0x81            AC3             rus (Russian)           6302,213                640                     504 184 320     2 954 205      
00011.M2TS      4360 (0x1108)   0x81            AC3             tha (Thai)              6302,213                640                     504 184 320     2 954 205      
00011.M2TS      4361 (0x1109)   0x81            AC3             eng (English)           6302,213                192                     151 255 296     984 735        
00011.M2TS      4608 (0x1200)   0x90            PGS             eng (English)           6302,213                42                      32 775 814      187 869        
00011.M2TS      4609 (0x1201)   0x90            PGS             eng (English)           6302,213                32                      24 837 296      145 339        
00011.M2TS      4610 (0x1202)   0x90            PGS             spa (Spanish)           6302,213                40                      31 761 225      182 188        
00011.M2TS      4611 (0x1203)   0x90            PGS             rus (Russian)           6302,213                56                      44 400 365      251 701        
00011.M2TS      4612 (0x1204)   0x90            PGS             rus (Russian)           6302,213                2                       1 840 842       10 469         
00011.M2TS      4613 (0x1205)   0x90            PGS             hrv (Croatian)          6302,213                29                      22 557 635      132 193        
00011.M2TS      4614 (0x1206)   0x90            PGS             ces (Czech)             6302,213                34                      26 653 605      154 475        
00011.M2TS      4615 (0x1207)   0x90            PGS             ell (Greek)             6302,213                40                      31 607 982      181 378        
00011.M2TS      4616 (0x1208)   0x90            PGS             hin (Hindi)             6302,213                38                      29 737 334      171 303        
00011.M2TS      4617 (0x1209)   0x90            PGS             hun (Hungarian)         6302,213                34                      26 795 616      155 315        
00011.M2TS      4618 (0x120A)   0x90            PGS             isl (Icelandic)         6302,213                38                      30 115 327      173 060        
00011.M2TS      4619 (0x120B)   0x90            PGS             kor (Korean)            6302,213                28                      21 697 994      127 616        
00011.M2TS      4620 (0x120C)   0x90            PGS             rus (Russian)           6302,213                2                       1 347 185       7 630          
00011.M2TS      4621 (0x120D)   0x90            PGS             pol (Polish)            6302,213                33                      26 189 454      152 039        
00011.M2TS      4622 (0x120E)   0x90            PGS             por (Portuguese)        6302,213                38                      30 264 288      173 696        
00011.M2TS      4623 (0x120F)   0x90            PGS             ron (Romanian)          6302,213                34                      26 896 644      154 574        
00011.M2TS      4624 (0x1210)   0x90            PGS             slk (Slovak)            6302,213                37                      29 456 286      169 880        
00011.M2TS      4625 (0x1211)   0x90            PGS             slv (Slovenian)         6302,213                32                      25 370 702      147 401        
00011.M2TS      4626 (0x1212)   0x90            PGS             tha (Thai)              6302,213                36                      28 410 261      164 008        
00011.M2TS      4627 (0x1213)   0x90            PGS             tur (Turkish)           6302,213                39                      30 471 463      175 210        
00011.M2TS      4628 (0x1214)   0x90            PGS             eng (English)           6302,213                50                      39 288 033      223 509        
00011.M2TS      4629 (0x1215)   0x90            PGS             spa (Spanish)           6302,213                49                      38 512 854      220 451        
00011.M2TS      4630 (0x1216)   0x90            PGS             por (Portuguese)        6302,213                49                      38 459 912      220 075        
00011.M2TS      4631 (0x1217)   0x90            PGS             kor (Korean)            6302,213                37                      29 012 069      168 614        

[/code]
<---- END FORUMS PASTE ---->

QUICK SUMMARY:

Disc Title: Anger Management (2003)
Disc Size: 33 707 219 572 bytes
Protection: AACS
BD-Java: Yes
Playlist: 00001.MPLS
Size: 30 623 956 992 bytes
Length: 1:45:02
Total Bitrate: 38,87 Mbps
Video: MPEG-4 AVC Video / 27223 kbps / 1080p / 23,976 fps / 16:9 / High Profile 4.1
Audio: English / Dolby TrueHD Audio / 5.1 / 48 kHz / 1650 kbps / 16-bit (AC3 Embedded: 5.1 / 48 kHz / 640 kbps / DN -6dB)
Audio: English / Dolby Digital Audio / 5.1 / 48 kHz / 640 kbps / DN -4dB
Audio: Czech / Dolby Digital Audio / 5.1 / 48 kHz / 640 kbps / DN -4dB
Audio: Hungarian / Dolby Digital Audio / 5.1 / 48 kHz / 640 kbps / DN -5dB
Audio: Polish / Dolby Digital Audio / 5.1 / 48 kHz / 640 kbps / DN -6dB
Audio: Portuguese / Dolby Digital Audio / 5.1 / 48 kHz / 640 kbps / DN -4dB
Audio: Russian / Dolby Digital Audio / 5.1 / 48 kHz / 640 kbps / DN -4dB
Audio: Spanish / Dolby Digital Audio / 5.1 / 48 kHz / 640 kbps / DN -3dB
Audio: Thai / Dolby Digital Audio / 5.1 / 48 kHz / 640 kbps / DN -4dB
Audio: English / Dolby Digital Audio / 2.0 / 48 kHz / 192 kbps / Dolby Surround
Subtitle: English / 41,605 kbps
Subtitle: English / 31,528 kbps
Subtitle: English / 49,871 kbps
Subtitle: Croatian / 28,634 kbps
Subtitle: Czech / 33,834 kbps
Subtitle: Greek / 40,122 kbps
Subtitle: Hindi / 37,748 kbps
Subtitle: Hungarian / 34,014 kbps
Subtitle: Icelandic / 38,228 kbps
Subtitle: Korean / 27,543 kbps
Subtitle: Korean / 36,827 kbps
Subtitle: Polish / 33,244 kbps
Subtitle: Portuguese / 38,417 kbps
Subtitle: Portuguese / 48,820 kbps
Subtitle: Romanian / 34,142 kbps
Subtitle: Russian / 56,361 kbps
Subtitle: Russian / 2,337 kbps
Subtitle: Russian / 1,710 kbps
Subtitle: Slovak / 37,391 kbps
Subtitle: Slovenian / 32,205 kbps
Subtitle: Spanish / 40,317 kbps
Subtitle: Spanish / 48,887 kbps
Subtitle: Thai / 36,063 kbps
Subtitle: Turkish / 38,680 kbps


********************
PLAYLIST: 00216.MPLS
********************

<--- BEGIN FORUMS PASTE --->
[code]
                                                                                                                Total   Video                                            
Title                                                           Codec   Length  Movie Size      Disc Size       Bitrate Bitrate Main Audio Track                          Secondary Audio Track
-----                                                           ------  ------- --------------  --------------  ------- ------- ------------------                        ---------------------
00216.MPLS                                                      MPEG-2  0:22:01 1 074 008 064   33 707 219 572  6,50    5,82    DD AC3 2.0 192Kbps                       
[/code]

[code]

DISC INFO:

Disc Title:     Anger Management (2003)
Disc Size:      33 707 219 572 bytes
Protection:     AACS
BD-Java:        Yes
BDInfo:         0.5.6

PLAYLIST REPORT:

Name:                   00216.MPLS
Length:                 0:22:01 (h:m:s)
Size:                   1 074 008 064 bytes
Total Bitrate:          6,50 Mbps

VIDEO:

Codec                   Bitrate             Description    
-----                   -------             -----------    
MPEG-2 Video            5817 kbps           480i / 29,970 fps / 4:3

AUDIO:

Codec                           Language        Bitrate         Description    
-----                           --------        -------         -----------    
Dolby Digital Audio             English         192 kbps        2.0 / 48 kHz / 192 kbps / DN -4dB

SUBTITLES:

Codec                           Language        Bitrate         Description    
-----                           --------        -------         -----------    
Presentation Graphics           English         19,486 kbps                    
Presentation Graphics           Korean          18,551 kbps                    
Presentation Graphics           Portuguese      17,315 kbps                    
Presentation Graphics           Spanish         16,085 kbps                    
Presentation Graphics           Thai            22,046 kbps                    
Presentation Graphics           Undetermined    0,023 kbps                     

FILES:

Name            Time In         Length          Size            Total Bitrate  
----            -------         ------          ----            -------------  
00103.M2TS      0:00:00.000     0:17:55.274     873 449 472     6 498          
00104.M2TS      0:17:55.274     0:04:06.512     200 558 592     6 509          

CHAPTERS:

Number          Time In         Length          Avg Video Rate  Max 1-Sec Rate  Max 1-Sec Time  Max 5-Sec Rate  Max 5-Sec Time  Max 10Sec Rate  Max 10Sec Time  Avg Frame Size  Max Frame Size  Max Frame Time 
------          -------         ------          --------------  --------------  --------------  --------------  --------------  --------------  --------------  --------------  --------------  -------------- 
1               0:00:00.000     0:17:55.274     5 815 kbps      14 719 kbps     00:09:43.316    8 796 kbps      00:00:49.949    8 330 kbps      00:01:08.301    24 252 bytes    165 030 bytes   00:07:23.576   
2               0:17:55.274     0:04:06.512     5 828 kbps      11 568 kbps     00:19:44.750    9 090 kbps      00:18:19.465    8 116 kbps      00:19:52.157    24 313 bytes    152 473 bytes   00:18:52.464   

STREAM DIAGNOSTICS:

File            PID             Type            Codec           Language                Seconds                 Bitrate                 Bytes           Packets        
----            ---             ----            -----           --------                --------------          --------------          -------------   -----          
00103.M2TS      4113 (0x1011)   0x02            MPEG-2                                  1075,174                5 815                   781 510 042     4 266 140      
00103.M2TS      4352 (0x1100)   0x81            AC3             eng (English)           1075,174                192                     25 807 104      168 015        
00103.M2TS      4608 (0x1200)   0x90            PGS             eng (English)           1075,174                20                      2 654 234       16 349         
00103.M2TS      4609 (0x1201)   0x90            PGS             spa (Spanish)           1075,174                17                      2 224 648       14 068         
00103.M2TS      4610 (0x1202)   0x90            PGS             kor (Korean)            1075,174                19                      2 500 901       15 604         
00103.M2TS      4611 (0x1203)   0x90            PGS             und (Undetermined)      1075,174                0                       1 936           18             
00103.M2TS      4612 (0x1204)   0x90            PGS             por (Portuguese)        1075,174                18                      2 357 408       14 779         
00103.M2TS      4613 (0x1205)   0x90            PGS             tha (Thai)              1075,174                22                      2 977 641       18 183         
00104.M2TS      4113 (0x1011)   0x02            MPEG-2                                  246,446                 5 832                   179 670 667     980 780        
00104.M2TS      4352 (0x1100)   0x81            AC3             eng (English)           246,446                 192                     5 916 672       38 520         
00104.M2TS      4608 (0x1200)   0x90            PGS             eng (English)           246,446                 18                      565 373         3 501          
00104.M2TS      4609 (0x1201)   0x90            PGS             spa (Spanish)           246,446                 14                      432 987         2 771          
00104.M2TS      4610 (0x1202)   0x90            PGS             kor (Korean)            246,446                 18                      564 144         3 520          
00104.M2TS      4611 (0x1203)   0x90            PGS             und (Undetermined)      246,446                 0                       1 936           18             
00104.M2TS      4612 (0x1204)   0x90            PGS             por (Portuguese)        246,446                 16                      503 374         3 155          
00104.M2TS      4613 (0x1205)   0x90            PGS             tha (Thai)              246,446                 22                      664 793         4 071          

[/code]
<---- END FORUMS PASTE ---->

QUICK SUMMARY:

Disc Title: Anger Management (2003)
Disc Size: 33 707 219 572 bytes
Protection: AACS
BD-Java: Yes
Playlist: 00216.MPLS
Size: 1 074 008 064 bytes
Length: 0:22:01
Total Bitrate: 6,50 Mbps
Video: MPEG-2 Video / 5817 kbps / 480i / 29,970 fps / 4:3
Audio: English / Dolby Digital Audio / 2.0 / 48 kHz / 192 kbps / DN -4dB
Subtitle: English / 19,486 kbps
Subtitle: Korean / 18,551 kbps
Subtitle: Portuguese / 17,315 kbps
Subtitle: Spanish / 16,085 kbps
Subtitle: Thai / 22,046 kbps
Subtitle: Undetermined / 0,023 kbps


********************
PLAYLIST: 00202.MPLS
********************

<--- BEGIN FORUMS PASTE --->
[code]
                                                                                                                Total   Video                                            
Title                                                           Codec   Length  Movie Size      Disc Size       Bitrate Bitrate Main Audio Track                          Secondary Audio Track
-----                                                           ------  ------- --------------  --------------  ------- ------- ------------------                        ---------------------
00202.MPLS                                                      MPEG-2  0:17:55 873 449 472     33 707 219 572  6,50    5,81    DD AC3 2.0 192Kbps                       
[/code]

[code]

DISC INFO:

Disc Title:     Anger Management (2003)
Disc Size:      33 707 219 572 bytes
Protection:     AACS
BD-Java:        Yes
BDInfo:         0.5.6

PLAYLIST REPORT:

Name:                   00202.MPLS
Length:                 0:17:55 (h:m:s)
Size:                   873 449 472 bytes
Total Bitrate:          6,50 Mbps

VIDEO:

Codec                   Bitrate             Description    
-----                   -------             -----------    
MPEG-2 Video            5814 kbps           480i / 29,970 fps / 4:3

AUDIO:

Codec                           Language        Bitrate         Description    
-----                           --------        -------         -----------    
Dolby Digital Audio             English         192 kbps        2.0 / 48 kHz / 192 kbps / DN -4dB

SUBTITLES:

Codec                           Language        Bitrate         Description    
-----                           --------        -------         -----------    
Presentation Graphics           English         19,747 kbps                    
Presentation Graphics           Korean          18,607 kbps                    
Presentation Graphics           Portuguese      17,539 kbps                    
Presentation Graphics           Spanish         16,551 kbps                    
Presentation Graphics           Thai            22,154 kbps                    
Presentation Graphics           Undetermined    0,014 kbps                     

FILES:

Name            Time In         Length          Size            Total Bitrate  
----            -------         ------          ----            -------------  
00103.M2TS      0:00:00.000     0:17:55.274     873 449 472     6 498          

CHAPTERS:

Number          Time In         Length          Avg Video Rate  Max 1-Sec Rate  Max 1-Sec Time  Max 5-Sec Rate  Max 5-Sec Time  Max 10Sec Rate  Max 10Sec Time  Avg Frame Size  Max Frame Size  Max Frame Time 
------          -------         ------          --------------  --------------  --------------  --------------  --------------  --------------  --------------  --------------  --------------  -------------- 
1               0:00:00.000     0:17:55.274     5 814 kbps      14 719 kbps     00:09:43.316    8 796 kbps      00:00:49.949    8 330 kbps      00:01:08.301    24 251 bytes    165 030 bytes   00:07:23.576   

STREAM DIAGNOSTICS:

File            PID             Type            Codec           Language                Seconds                 Bitrate                 Bytes           Packets        
----            ---             ----            -----           --------                --------------          --------------          -------------   -----          
00103.M2TS      4113 (0x1011)   0x02            MPEG-2                                  1075,174                5 815                   781 510 042     4 266 140      
00103.M2TS      4352 (0x1100)   0x81            AC3             eng (English)           1075,174                192                     25 807 104      168 015        
00103.M2TS      4608 (0x1200)   0x90            PGS             eng (English)           1075,174                20                      2 654 234       16 349         
00103.M2TS      4609 (0x1201)   0x90            PGS             spa (Spanish)           1075,174                17                      2 224 648       14 068         
00103.M2TS      4610 (0x1202)   0x90            PGS             kor (Korean)            1075,174                19                      2 500 901       15 604         
00103.M2TS      4611 (0x1203)   0x90            PGS             und (Undetermined)      1075,174                0                       1 936           18             
00103.M2TS      4612 (0x1204)   0x90            PGS             por (Portuguese)        1075,174                18                      2 357 408       14 779         
00103.M2TS      4613 (0x1205)   0x90            PGS             tha (Thai)              1075,174                22                      2 977 641       18 183         

[/code]
<---- END FORUMS PASTE ---->

QUICK SUMMARY:

Disc Title: Anger Management (2003)
Disc Size: 33 707 219 572 bytes
Protection: AACS
BD-Java: Yes
Playlist: 00202.MPLS
Size: 873 449 472 bytes
Length: 0:17:55
Total Bitrate: 6,50 Mbps
Video: MPEG-2 Video / 5814 kbps / 480i / 29,970 fps / 4:3
Audio: English / Dolby Digital Audio / 2.0 / 48 kHz / 192 kbps / DN -4dB
Subtitle: English / 19,747 kbps
Subtitle: Korean / 18,607 kbps
Subtitle: Portuguese / 17,539 kbps
Subtitle: Spanish / 16,551 kbps
Subtitle: Thai / 22,154 kbps
Subtitle: Undetermined / 0,014 kbps


********************
PLAYLIST: 00203.MPLS
********************

<--- BEGIN FORUMS PASTE --->
[code]
                                                                                                                Total   Video                                            
Title                                                           Codec   Length  Movie Size      Disc Size       Bitrate Bitrate Main Audio Track                          Secondary Audio Track
-----                                                           ------  ------- --------------  --------------  ------- ------- ------------------                        ---------------------
00203.MPLS                                                      MPEG-2  0:04:06 200 558 592     33 707 219 572  6,51    5,83    DD AC3 2.0 192Kbps                       
[/code]

[code]

DISC INFO:

Disc Title:     Anger Management (2003)
Disc Size:      33 707 219 572 bytes
Protection:     AACS
BD-Java:        Yes
BDInfo:         0.5.6

PLAYLIST REPORT:

Name:                   00203.MPLS
Length:                 0:04:06 (h:m:s)
Size:                   200 558 592 bytes
Total Bitrate:          6,51 Mbps

VIDEO:

Codec                   Bitrate             Description    
-----                   -------             -----------    
MPEG-2 Video            5831 kbps           480i / 29,970 fps / 4:3

AUDIO:

Codec                           Language        Bitrate         Description    
-----                           --------        -------         -----------    
Dolby Digital Audio             English         192 kbps        2.0 / 48 kHz / 192 kbps / DN -2dB

SUBTITLES:

Codec                           Language        Bitrate         Description    
-----                           --------        -------         -----------    
Presentation Graphics           English         18,348 kbps                    
Presentation Graphics           Korean          18,308 kbps                    
Presentation Graphics           Portuguese      16,336 kbps                    
Presentation Graphics           Spanish         14,052 kbps                    
Presentation Graphics           Thai            21,574 kbps                    
Presentation Graphics           Undetermined    0,063 kbps                     

FILES:

Name            Time In         Length          Size            Total Bitrate  
----            -------         ------          ----            -------------  
00104.M2TS      0:00:00.000     0:04:06.512     200 558 592     6 509          

CHAPTERS:

Number          Time In         Length          Avg Video Rate  Max 1-Sec Rate  Max 1-Sec Time  Max 5-Sec Rate  Max 5-Sec Time  Max 10Sec Rate  Max 10Sec Time  Avg Frame Size  Max Frame Size  Max Frame Time 
------          -------         ------          --------------  --------------  --------------  --------------  --------------  --------------  --------------  --------------  --------------  -------------- 
1               0:00:00.000     0:04:06.512     5 831 kbps      11 568 kbps     00:01:49.476    9 090 kbps      00:00:24.190    8 116 kbps      00:01:56.883    24 319 bytes    152 473 bytes   00:00:57.190   

STREAM DIAGNOSTICS:

File            PID             Type            Codec           Language                Seconds                 Bitrate                 Bytes           Packets        
----            ---             ----            -----           --------                --------------          --------------          -------------   -----          
00104.M2TS      4113 (0x1011)   0x02            MPEG-2                                  246,446                 5 832                   179 670 667     980 780        
00104.M2TS      4352 (0x1100)   0x81            AC3             eng (English)           246,446                 192                     5 916 672       38 520         
00104.M2TS      4608 (0x1200)   0x90            PGS             eng (English)           246,446                 18                      565 373         3 501          
00104.M2TS      4609 (0x1201)   0x90            PGS             spa (Spanish)           246,446                 14                      432 987         2 771          
00104.M2TS      4610 (0x1202)   0x90            PGS             kor (Korean)            246,446                 18                      564 144         3 520          
00104.M2TS      4611 (0x1203)   0x90            PGS             und (Undetermined)      246,446                 0                       1 936           18             
00104.M2TS      4612 (0x1204)   0x90            PGS             por (Portuguese)        246,446                 16                      503 374         3 155          
00104.M2TS      4613 (0x1205)   0x90            PGS             tha (Thai)              246,446                 22                      664 793         4 071          

[/code]
<---- END FORUMS PASTE ---->

QUICK SUMMARY:

Disc Title: Anger Management (2003)
Disc Size: 33 707 219 572 bytes
Protection: AACS
BD-Java: Yes
Playlist: 00203.MPLS
Size: 200 558 592 bytes
Length: 0:04:06
Total Bitrate: 6,51 Mbps
Video: MPEG-2 Video / 5831 kbps / 480i / 29,970 fps / 4:3
Audio: English / Dolby Digital Audio / 2.0 / 48 kHz / 192 kbps / DN -2dB
Subtitle: English / 18,348 kbps
Subtitle: Korean / 18,308 kbps
Subtitle: Portuguese / 16,336 kbps
Subtitle: Spanish / 14,052 kbps
Subtitle: Thai / 21,574 kbps
Subtitle: Undetermined / 0,063 kbps


********************
PLAYLIST: 00217.MPLS
********************

<--- BEGIN FORUMS PASTE --->
[code]
                                                                                                                Total   Video                                            
Title                                                           Codec   Length  Movie Size      Disc Size       Bitrate Bitrate Main Audio Track                          Secondary Audio Track
-----                                                           ------  ------- --------------  --------------  ------- ------- ------------------                        ---------------------
00217.MPLS                                                      MPEG-2  0:10:20 513 202 176     33 707 219 572  6,61    5,95    DD AC3 2.0 192Kbps                       
[/code]

[code]

DISC INFO:

Disc Title:     Anger Management (2003)
Disc Size:      33 707 219 572 bytes
Protection:     AACS
BD-Java:        Yes
BDInfo:         0.5.6

PLAYLIST REPORT:

Name:                   00217.MPLS
Length:                 0:10:20 (h:m:s)
Size:                   513 202 176 bytes
Total Bitrate:          6,61 Mbps

VIDEO:

Codec                   Bitrate             Description    
-----                   -------             -----------    
MPEG-2 Video            5953 kbps           480i / 29,970 fps / 4:3

AUDIO:

Codec                           Language        Bitrate         Description    
-----                           --------        -------         -----------    
Dolby Digital Audio             English         192 kbps        2.0 / 48 kHz / 192 kbps / DN -3dB

SUBTITLES:

Codec                           Language        Bitrate         Description    
-----                           --------        -------         -----------    
Presentation Graphics           English         14,736 kbps                    
Presentation Graphics           Korean          13,905 kbps                    
Presentation Graphics           Portuguese      13,448 kbps                    
Presentation Graphics           Spanish         12,171 kbps                    
Presentation Graphics           Thai            15,067 kbps                    
Presentation Graphics           Undetermined    0,100 kbps                     

FILES:

Name            Time In         Length          Size            Total Bitrate  
----            -------         ------          ----            -------------  
00105.M2TS      0:00:00.000     0:02:25.512     120 158 208     6 606          
00106.M2TS      0:02:25.512     0:01:15.141     61 581 312      6 556          
00107.M2TS      0:03:40.653     0:05:14.447     260 395 008     6 625          
00109.M2TS      0:08:55.101     0:01:25.652     71 067 648      6 638          

CHAPTERS:

Number          Time In         Length          Avg Video Rate  Max 1-Sec Rate  Max 1-Sec Time  Max 5-Sec Rate  Max 5-Sec Time  Max 10Sec Rate  Max 10Sec Time  Avg Frame Size  Max Frame Size  Max Frame Time 
------          -------         ------          --------------  --------------  --------------  --------------  --------------  --------------  --------------  --------------  --------------  -------------- 
1               0:00:00.000     0:02:25.512     5 962 kbps      11 967 kbps     00:00:01.000    10 308 kbps     00:00:01.000    9 741 kbps      00:00:01.000    24 859 bytes    111 316 bytes   00:00:01.334   
2               0:02:25.512     0:01:15.141     5 916 kbps      10 069 kbps     00:03:35.114    9 565 kbps      00:03:34.314    8 458 kbps      00:03:29.309    24 675 bytes    113 357 bytes   00:03:04.183   
3               0:03:40.653     0:05:14.447     5 963 kbps      13 684 kbps     00:03:41.654    11 006 kbps     00:03:45.658    10 760 kbps     00:03:41.654    24 872 bytes    146 432 bytes   00:05:26.092   
4               0:08:55.101     0:01:25.652     5 929 kbps      10 316 kbps     00:10:06.806    8 068 kbps      00:09:34.340    7 181 kbps      00:09:32.505    24 739 bytes    131 863 bytes   00:10:06.906   

STREAM DIAGNOSTICS:

File            PID             Type            Codec           Language                Seconds                 Bitrate                 Bytes           Packets        
----            ---             ----            -----           --------                --------------          --------------          -------------   -----          
00105.M2TS      4113 (0x1011)   0x02            MPEG-2                                  145,445                 5 960                   108 361 831     591 454        
00105.M2TS      4352 (0x1100)   0x81            AC3             eng (English)           145,445                 192                     3 492 864       22 740         
00105.M2TS      4608 (0x1200)   0x90            PGS             eng (English)           145,445                 12                      212 640         1 365          
00105.M2TS      4609 (0x1201)   0x90            PGS             spa (Spanish)           145,445                 10                      173 039         1 147          
00105.M2TS      4610 (0x1202)   0x90            PGS             kor (Korean)            145,445                 11                      201 875         1 304          
00105.M2TS      4611 (0x1203)   0x90            PGS             und (Undetermined)      145,445                 0                       1 936           18             
00105.M2TS      4612 (0x1204)   0x90            PGS             por (Portuguese)        145,445                 11                      197 391         1 281          
00105.M2TS      4613 (0x1205)   0x90            PGS             tha (Thai)              145,445                 14                      258 941         1 611          
00106.M2TS      4113 (0x1011)   0x02            MPEG-2                                  75,075                  5 921                   55 569 535      303 305        
00106.M2TS      4352 (0x1100)   0x81            AC3             eng (English)           75,075                  192                     1 804 032       11 745         
00106.M2TS      4608 (0x1200)   0x90            PGS             eng (English)           75,075                  11                      101 283         641            
00106.M2TS      4609 (0x1201)   0x90            PGS             spa (Spanish)           75,075                  9                       86 276          560            
00106.M2TS      4610 (0x1202)   0x90            PGS             kor (Korean)            75,075                  12                      108 120         678            
00106.M2TS      4611 (0x1203)   0x90            PGS             und (Undetermined)      75,075                  0                       1 936           18             
00106.M2TS      4612 (0x1204)   0x90            PGS             por (Portuguese)        75,075                  10                      98 253          625            
00106.M2TS      4613 (0x1205)   0x90            PGS             tha (Thai)              75,075                  11                      101 464         643            
00107.M2TS      4113 (0x1011)   0x02            MPEG-2                                  314,314                 5 966                   234 393 974     1 279 369      
00107.M2TS      4352 (0x1100)   0x81            AC3             eng (English)           314,314                 192                     7 547 136       49 135         
00107.M2TS      4608 (0x1200)   0x90            PGS             eng (English)           314,314                 15                      594 690         3 718          
00107.M2TS      4609 (0x1201)   0x90            PGS             spa (Spanish)           314,314                 13                      495 921         3 190          
00107.M2TS      4610 (0x1202)   0x90            PGS             kor (Korean)            314,314                 14                      556 430         3 515          
00107.M2TS      4611 (0x1203)   0x90            PGS             und (Undetermined)      314,314                 0                       1 936           18             
00107.M2TS      4612 (0x1204)   0x90            PGS             por (Portuguese)        314,314                 14                      530 886         3 377          
00107.M2TS      4613 (0x1205)   0x90            PGS             tha (Thai)              314,314                 14                      530 809         3 374          
00109.M2TS      4113 (0x1011)   0x02            MPEG-2                                  85,586                  5 941                   63 554 466      346 875        
00109.M2TS      4352 (0x1100)   0x81            AC3             eng (English)           85,586                  192                     2 055 936       13 385         
00109.M2TS      4608 (0x1200)   0x90            PGS             eng (English)           85,586                  22                      234 782         1 446          
00109.M2TS      4609 (0x1201)   0x90            PGS             spa (Spanish)           85,586                  18                      189 184         1 207          
00109.M2TS      4610 (0x1202)   0x90            PGS             kor (Korean)            85,586                  20                      212 503         1 323          
00109.M2TS      4611 (0x1203)   0x90            PGS             und (Undetermined)      85,586                  0                       1 936           18             
00109.M2TS      4612 (0x1204)   0x90            PGS             por (Portuguese)        85,586                  20                      216 946         1 347          
00109.M2TS      4613 (0x1205)   0x90            PGS             tha (Thai)              85,586                  26                      277 861         1 676          

[/code]
<---- END FORUMS PASTE ---->

QUICK SUMMARY:

Disc Title: Anger Management (2003)
Disc Size: 33 707 219 572 bytes
Protection: AACS
BD-Java: Yes
Playlist: 00217.MPLS
Size: 513 202 176 bytes
Length: 0:10:20
Total Bitrate: 6,61 Mbps
Video: MPEG-2 Video / 5953 kbps / 480i / 29,970 fps / 4:3
Audio: English / Dolby Digital Audio / 2.0 / 48 kHz / 192 kbps / DN -3dB
Subtitle: English / 14,736 kbps
Subtitle: Korean / 13,905 kbps
Subtitle: Portuguese / 13,448 kbps
Subtitle: Spanish / 12,171 kbps
Subtitle: Thai / 15,067 kbps
Subtitle: Undetermined / 0,100 kbps


********************
PLAYLIST: 00206.MPLS
********************

<--- BEGIN FORUMS PASTE --->
[code]
                                                                                                                Total   Video                                            
Title                                                           Codec   Length  Movie Size      Disc Size       Bitrate Bitrate Main Audio Track                          Secondary Audio Track
-----                                                           ------  ------- --------------  --------------  ------- ------- ------------------                        ---------------------
00206.MPLS                                                      MPEG-2  0:05:14 260 395 008     33 707 219 572  6,62    5,96    DD AC3 2.0 192Kbps                       
[/code]

[code]

DISC INFO:

Disc Title:     Anger Management (2003)
Disc Size:      33 707 219 572 bytes
Protection:     AACS
BD-Java:        Yes
BDInfo:         0.5.6

PLAYLIST REPORT:

Name:                   00206.MPLS
Length:                 0:05:14 (h:m:s)
Size:                   260 395 008 bytes
Total Bitrate:          6,62 Mbps

VIDEO:

Codec                   Bitrate             Description    
-----                   -------             -----------    
MPEG-2 Video            5963 kbps           480i / 29,970 fps / 4:3

AUDIO:

Codec                           Language        Bitrate         Description    
-----                           --------        -------         -----------    
Dolby Digital Audio             English         192 kbps        2.0 / 48 kHz / 192 kbps / DN -3dB

SUBTITLES:

Codec                           Language        Bitrate         Description    
-----                           --------        -------         -----------    
Presentation Graphics           English         15,130 kbps                    
Presentation Graphics           Korean          14,156 kbps                    
Presentation Graphics           Portuguese      13,507 kbps                    
Presentation Graphics           Spanish         12,617 kbps                    
Presentation Graphics           Thai            13,505 kbps                    
Presentation Graphics           Undetermined    0,049 kbps                     

FILES:

Name            Time In         Length          Size            Total Bitrate  
----            -------         ------          ----            -------------  
00107.M2TS      0:00:00.000     0:05:14.447     260 395 008     6 625          

CHAPTERS:

Number          Time In         Length          Avg Video Rate  Max 1-Sec Rate  Max 1-Sec Time  Max 5-Sec Rate  Max 5-Sec Time  Max 10Sec Rate  Max 10Sec Time  Avg Frame Size  Max Frame Size  Max Frame Time 
------          -------         ------          --------------  --------------  --------------  --------------  --------------  --------------  --------------  --------------  --------------  -------------- 
1               0:00:00.000     0:05:14.447     5 963 kbps      13 684 kbps     00:00:01.000    11 006 kbps     00:00:05.004    10 760 kbps     00:00:01.000    24 872 bytes    146 432 bytes   00:01:45.438   

STREAM DIAGNOSTICS:

File            PID             Type            Codec           Language                Seconds                 Bitrate                 Bytes           Packets        
----            ---             ----            -----           --------                --------------          --------------          -------------   -----          
00107.M2TS      4113 (0x1011)   0x02            MPEG-2                                  314,314                 5 966                   234 393 974     1 279 369      
00107.M2TS      4352 (0x1100)   0x81            AC3             eng (English)           314,314                 192                     7 547 136       49 135         
00107.M2TS      4608 (0x1200)   0x90            PGS             eng (English)           314,314                 15                      594 690         3 718          
00107.M2TS      4609 (0x1201)   0x90            PGS             spa (Spanish)           314,314                 13                      495 921         3 190          
00107.M2TS      4610 (0x1202)   0x90            PGS             kor (Korean)            314,314                 14                      556 430         3 515          
00107.M2TS      4611 (0x1203)   0x90            PGS             und (Undetermined)      314,314                 0                       1 936           18             
00107.M2TS      4612 (0x1204)   0x90            PGS             por (Portuguese)        314,314                 14                      530 886         3 377          
00107.M2TS      4613 (0x1205)   0x90            PGS             tha (Thai)              314,314                 14                      530 809         3 374          

[/code]
<---- END FORUMS PASTE ---->

QUICK SUMMARY:

Disc Title: Anger Management (2003)
Disc Size: 33 707 219 572 bytes
Protection: AACS
BD-Java: Yes
Playlist: 00206.MPLS
Size: 260 395 008 bytes
Length: 0:05:14
Total Bitrate: 6,62 Mbps
Video: MPEG-2 Video / 5963 kbps / 480i / 29,970 fps / 4:3
Audio: English / Dolby Digital Audio / 2.0 / 48 kHz / 192 kbps / DN -3dB
Subtitle: English / 15,130 kbps
Subtitle: Korean / 14,156 kbps
Subtitle: Portuguese / 13,507 kbps
Subtitle: Spanish / 12,617 kbps
Subtitle: Thai / 13,505 kbps
Subtitle: Undetermined / 0,049 kbps


********************
PLAYLIST: 00204.MPLS
********************

<--- BEGIN FORUMS PASTE --->
[code]
                                                                                                                Total   Video                                            
Title                                                           Codec   Length  Movie Size      Disc Size       Bitrate Bitrate Main Audio Track                          Secondary Audio Track
-----                                                           ------  ------- --------------  --------------  ------- ------- ------------------                        ---------------------
00204.MPLS                                                      MPEG-2  0:02:25 120 158 208     33 707 219 572  6,61    5,96    DD AC3 2.0 192Kbps                       
[/code]

[code]

DISC INFO:

Disc Title:     Anger Management (2003)
Disc Size:      33 707 219 572 bytes
Protection:     AACS
BD-Java:        Yes
BDInfo:         0.5.6

PLAYLIST REPORT:

Name:                   00204.MPLS
Length:                 0:02:25 (h:m:s)
Size:                   120 158 208 bytes
Total Bitrate:          6,61 Mbps

VIDEO:

Codec                   Bitrate             Description    
-----                   -------             -----------    
MPEG-2 Video            5958 kbps           480i / 29,970 fps / 4:3

AUDIO:

Codec                           Language        Bitrate         Description    
-----                           --------        -------         -----------    
Dolby Digital Audio             English         192 kbps        2.0 / 48 kHz / 192 kbps / DN -2dB

SUBTITLES:

Codec                           Language        Bitrate         Description    
-----                           --------        -------         -----------    
Presentation Graphics           English         11,691 kbps                    
Presentation Graphics           Korean          11,099 kbps                    
Presentation Graphics           Portuguese      10,852 kbps                    
Presentation Graphics           Spanish         9,513 kbps                     
Presentation Graphics           Thai            14,236 kbps                    
Presentation Graphics           Undetermined    0,106 kbps                     

FILES:

Name            Time In         Length          Size            Total Bitrate  
----            -------         ------          ----            -------------  
00105.M2TS      0:00:00.000     0:02:25.512     120 158 208     6 606          

CHAPTERS:

Number          Time In         Length          Avg Video Rate  Max 1-Sec Rate  Max 1-Sec Time  Max 5-Sec Rate  Max 5-Sec Time  Max 10Sec Rate  Max 10Sec Time  Avg Frame Size  Max Frame Size  Max Frame Time 
------          -------         ------          --------------  --------------  --------------  --------------  --------------  --------------  --------------  --------------  --------------  -------------- 
1               0:00:00.000     0:02:25.512     5 958 kbps      11 967 kbps     00:00:01.000    10 308 kbps     00:00:01.000    9 741 kbps      00:00:01.000    24 848 bytes    111 316 bytes   00:00:01.334   

STREAM DIAGNOSTICS:

File            PID             Type            Codec           Language                Seconds                 Bitrate                 Bytes           Packets        
----            ---             ----            -----           --------                --------------          --------------          -------------   -----          
00105.M2TS      4113 (0x1011)   0x02            MPEG-2                                  145,445                 5 960                   108 361 831     591 454        
00105.M2TS      4352 (0x1100)   0x81            AC3             eng (English)           145,445                 192                     3 492 864       22 740         
00105.M2TS      4608 (0x1200)   0x90            PGS             eng (English)           145,445                 12                      212 640         1 365          
00105.M2TS      4609 (0x1201)   0x90            PGS             spa (Spanish)           145,445                 10                      173 039         1 147          
00105.M2TS      4610 (0x1202)   0x90            PGS             kor (Korean)            145,445                 11                      201 875         1 304          
00105.M2TS      4611 (0x1203)   0x90            PGS             und (Undetermined)      145,445                 0                       1 936           18             
00105.M2TS      4612 (0x1204)   0x90            PGS             por (Portuguese)        145,445                 11                      197 391         1 281          
00105.M2TS      4613 (0x1205)   0x90            PGS             tha (Thai)              145,445                 14                      258 941         1 611          

[/code]
<---- END FORUMS PASTE ---->

QUICK SUMMARY:

Disc Title: Anger Management (2003)
Disc Size: 33 707 219 572 bytes
Protection: AACS
BD-Java: Yes
Playlist: 00204.MPLS
Size: 120 158 208 bytes
Length: 0:02:25
Total Bitrate: 6,61 Mbps
Video: MPEG-2 Video / 5958 kbps / 480i / 29,970 fps / 4:3
Audio: English / Dolby Digital Audio / 2.0 / 48 kHz / 192 kbps / DN -2dB
Subtitle: English / 11,691 kbps
Subtitle: Korean / 11,099 kbps
Subtitle: Portuguese / 10,852 kbps
Subtitle: Spanish / 9,513 kbps
Subtitle: Thai / 14,236 kbps
Subtitle: Undetermined / 0,106 kbps


********************
PLAYLIST: 00208.MPLS
********************

<--- BEGIN FORUMS PASTE --->
[code]
                                                                                                                Total   Video                                            
Title                                                           Codec   Length  Movie Size      Disc Size       Bitrate Bitrate Main Audio Track                          Secondary Audio Track
-----                                                           ------  ------- --------------  --------------  ------- ------- ------------------                        ---------------------
00208.MPLS                                                      MPEG-2  0:01:25 71 067 648      33 707 219 572  6,64    5,94    DD AC3 2.0 192Kbps                       
[/code]

[code]

DISC INFO:

Disc Title:     Anger Management (2003)
Disc Size:      33 707 219 572 bytes
Protection:     AACS
BD-Java:        Yes
BDInfo:         0.5.6

PLAYLIST REPORT:

Name:                   00208.MPLS
Length:                 0:01:25 (h:m:s)
Size:                   71 067 648 bytes
Total Bitrate:          6,64 Mbps

VIDEO:

Codec                   Bitrate             Description    
-----                   -------             -----------    
MPEG-2 Video            5936 kbps           480i / 29,970 fps / 4:3

AUDIO:

Codec                           Language        Bitrate         Description    
-----                           --------        -------         -----------    
Dolby Digital Audio             English         192 kbps        2.0 / 48 kHz / 192 kbps / DN -5dB

SUBTITLES:

Codec                           Language        Bitrate         Description    
-----                           --------        -------         -----------    
Presentation Graphics           English         21,929 kbps                    
Presentation Graphics           Korean          19,848 kbps                    
Presentation Graphics           Portuguese      20,263 kbps                    
Presentation Graphics           Spanish         17,670 kbps                    
Presentation Graphics           Thai            25,952 kbps                    
Presentation Graphics           Undetermined    0,181 kbps                     

FILES:

Name            Time In         Length          Size            Total Bitrate  
----            -------         ------          ----            -------------  
00109.M2TS      0:00:00.000     0:01:25.652     71 067 648      6 638          

CHAPTERS:

Number          Time In         Length          Avg Video Rate  Max 1-Sec Rate  Max 1-Sec Time  Max 5-Sec Rate  Max 5-Sec Time  Max 10Sec Rate  Max 10Sec Time  Avg Frame Size  Max Frame Size  Max Frame Time 
------          -------         ------          --------------  --------------  --------------  --------------  --------------  --------------  --------------  --------------  --------------  -------------- 
1               0:00:00.000     0:01:25.652     5 936 kbps      10 316 kbps     00:01:11.704    8 068 kbps      00:00:39.239    7 181 kbps      00:00:37.404    24 758 bytes    131 863 bytes   00:01:11.805   

STREAM DIAGNOSTICS:

File            PID             Type            Codec           Language                Seconds                 Bitrate                 Bytes           Packets        
----            ---             ----            -----           --------                --------------          --------------          -------------   -----          
00109.M2TS      4113 (0x1011)   0x02            MPEG-2                                  85,586                  5 941                   63 554 466      346 875        
00109.M2TS      4352 (0x1100)   0x81            AC3             eng (English)           85,586                  192                     2 055 936       13 385         
00109.M2TS      4608 (0x1200)   0x90            PGS             eng (English)           85,586                  22                      234 782         1 446          
00109.M2TS      4609 (0x1201)   0x90            PGS             spa (Spanish)           85,586                  18                      189 184         1 207          
00109.M2TS      4610 (0x1202)   0x90            PGS             kor (Korean)            85,586                  20                      212 503         1 323          
00109.M2TS      4611 (0x1203)   0x90            PGS             und (Undetermined)      85,586                  0                       1 936           18             
00109.M2TS      4612 (0x1204)   0x90            PGS             por (Portuguese)        85,586                  20                      216 946         1 347          
00109.M2TS      4613 (0x1205)   0x90            PGS             tha (Thai)              85,586                  26                      277 861         1 676          

[/code]
<---- END FORUMS PASTE ---->

QUICK SUMMARY:

Disc Title: Anger Management (2003)
Disc Size: 33 707 219 572 bytes
Protection: AACS
BD-Java: Yes
Playlist: 00208.MPLS
Size: 71 067 648 bytes
Length: 0:01:25
Total Bitrate: 6,64 Mbps
Video: MPEG-2 Video / 5936 kbps / 480i / 29,970 fps / 4:3
Audio: English / Dolby Digital Audio / 2.0 / 48 kHz / 192 kbps / DN -5dB
Subtitle: English / 21,929 kbps
Subtitle: Korean / 19,848 kbps
Subtitle: Portuguese / 20,263 kbps
Subtitle: Spanish / 17,670 kbps
Subtitle: Thai / 25,952 kbps
Subtitle: Undetermined / 0,181 kbps


********************
PLAYLIST: 00205.MPLS
********************

<--- BEGIN FORUMS PASTE --->
[code]
                                                                                                                Total   Video                                            
Title                                                           Codec   Length  Movie Size      Disc Size       Bitrate Bitrate Main Audio Track                          Secondary Audio Track
-----                                                           ------  ------- --------------  --------------  ------- ------- ------------------                        ---------------------
00205.MPLS                                                      MPEG-2  0:01:15 61 581 312      33 707 219 572  6,56    5,92    DD AC3 2.0 192Kbps                       
[/code]

[code]

DISC INFO:

Disc Title:     Anger Management (2003)
Disc Size:      33 707 219 572 bytes
Protection:     AACS
BD-Java:        Yes
BDInfo:         0.5.6

PLAYLIST REPORT:

Name:                   00205.MPLS
Length:                 0:01:15 (h:m:s)
Size:                   61 581 312 bytes
Total Bitrate:          6,56 Mbps

VIDEO:

Codec                   Bitrate             Description    
-----                   -------             -----------    
MPEG-2 Video            5916 kbps           480i / 29,970 fps / 4:3

AUDIO:

Codec                           Language        Bitrate         Description    
-----                           --------        -------         -----------    
Dolby Digital Audio             English         192 kbps        2.0 / 48 kHz / 192 kbps / DN -4dB

SUBTITLES:

Codec                           Language        Bitrate         Description    
-----                           --------        -------         -----------    
Presentation Graphics           English         10,783 kbps                    
Presentation Graphics           Korean          11,511 kbps                    
Presentation Graphics           Portuguese      10,461 kbps                    
Presentation Graphics           Spanish         9,185 kbps                     
Presentation Graphics           Thai            10,802 kbps                    
Presentation Graphics           Undetermined    0,206 kbps                     

FILES:

Name            Time In         Length          Size            Total Bitrate  
----            -------         ------          ----            -------------  
00106.M2TS      0:00:00.000     0:01:15.141     61 581 312      6 556          

CHAPTERS:

Number          Time In         Length          Avg Video Rate  Max 1-Sec Rate  Max 1-Sec Time  Max 5-Sec Rate  Max 5-Sec Time  Max 10Sec Rate  Max 10Sec Time  Avg Frame Size  Max Frame Size  Max Frame Time 
------          -------         ------          --------------  --------------  --------------  --------------  --------------  --------------  --------------  --------------  --------------  -------------- 
1               0:00:00.000     0:01:15.141     5 916 kbps      10 069 kbps     00:01:09.602    9 565 kbps      00:01:08.802    8 458 kbps      00:01:03.797    24 676 bytes    113 357 bytes   00:00:38.671   

STREAM DIAGNOSTICS:

File            PID             Type            Codec           Language                Seconds                 Bitrate                 Bytes           Packets        
----            ---             ----            -----           --------                --------------          --------------          -------------   -----          
00106.M2TS      4113 (0x1011)   0x02            MPEG-2                                  75,075                  5 921                   55 569 535      303 305        
00106.M2TS      4352 (0x1100)   0x81            AC3             eng (English)           75,075                  192                     1 804 032       11 745         
00106.M2TS      4608 (0x1200)   0x90            PGS             eng (English)           75,075                  11                      101 283         641            
00106.M2TS      4609 (0x1201)   0x90            PGS             spa (Spanish)           75,075                  9                       86 276          560            
00106.M2TS      4610 (0x1202)   0x90            PGS             kor (Korean)            75,075                  12                      108 120         678            
00106.M2TS      4611 (0x1203)   0x90            PGS             und (Undetermined)      75,075                  0                       1 936           18             
00106.M2TS      4612 (0x1204)   0x90            PGS             por (Portuguese)        75,075                  10                      98 253          625            
00106.M2TS      4613 (0x1205)   0x90            PGS             tha (Thai)              75,075                  11                      101 464         643            

[/code]
<---- END FORUMS PASTE ---->

QUICK SUMMARY:

Disc Title: Anger Management (2003)
Disc Size: 33 707 219 572 bytes
Protection: AACS
BD-Java: Yes
Playlist: 00205.MPLS
Size: 61 581 312 bytes
Length: 0:01:15
Total Bitrate: 6,56 Mbps
Video: MPEG-2 Video / 5916 kbps / 480i / 29,970 fps / 4:3
Audio: English / Dolby Digital Audio / 2.0 / 48 kHz / 192 kbps / DN -4dB
Subtitle: English / 10,783 kbps
Subtitle: Korean / 11,511 kbps
Subtitle: Portuguese / 10,461 kbps
Subtitle: Spanish / 9,185 kbps
Subtitle: Thai / 10,802 kbps
Subtitle: Undetermined / 0,206 kbps


********************
PLAYLIST: 00209.MPLS
********************

<--- BEGIN FORUMS PASTE --->
[code]
                                                                                                                Total   Video                                            
Title                                                           Codec   Length  Movie Size      Disc Size       Bitrate Bitrate Main Audio Track                          Secondary Audio Track
-----                                                           ------  ------- --------------  --------------  ------- ------- ------------------                        ---------------------
00209.MPLS                                                      MPEG-2  0:05:36 276 590 592     33 707 219 572  6,57    5,92    DD AC3 2.0 192Kbps                       
[/code]

[code]

DISC INFO:

Disc Title:     Anger Management (2003)
Disc Size:      33 707 219 572 bytes
Protection:     AACS
BD-Java:        Yes
BDInfo:         0.5.6

PLAYLIST REPORT:

Name:                   00209.MPLS
Length:                 0:05:36 (h:m:s)
Size:                   276 590 592 bytes
Total Bitrate:          6,57 Mbps

VIDEO:

Codec                   Bitrate             Description    
-----                   -------             -----------    
MPEG-2 Video            5924 kbps           480i / 29,970 fps / 4:3

AUDIO:

Codec                           Language        Bitrate         Description    
-----                           --------        -------         -----------    
Dolby Digital Audio             English         192 kbps        2.0 / 48 kHz / 192 kbps / DN -5dB

SUBTITLES:

Codec                           Language        Bitrate         Description    
-----                           --------        -------         -----------    
Presentation Graphics           English         11,576 kbps                    
Presentation Graphics           Korean          10,926 kbps                    
Presentation Graphics           Portuguese      10,085 kbps                    
Presentation Graphics           Spanish         9,773 kbps                     
Presentation Graphics           Thai            12,800 kbps                    
Presentation Graphics           Undetermined    0,046 kbps                     

FILES:

Name            Time In         Length          Size            Total Bitrate  
----            -------         ------          ----            -------------  
00110.M2TS      0:00:00.000     0:05:36.869     276 590 592     6 568          

CHAPTERS:

Number          Time In         Length          Avg Video Rate  Max 1-Sec Rate  Max 1-Sec Time  Max 5-Sec Rate  Max 5-Sec Time  Max 10Sec Rate  Max 10Sec Time  Avg Frame Size  Max Frame Size  Max Frame Time 
------          -------         ------          --------------  --------------  --------------  --------------  --------------  --------------  --------------  --------------  --------------  -------------- 
1               0:00:00.000     0:05:36.869     5 924 kbps      11 845 kbps     00:01:35.395    10 363 kbps     00:00:14.047    9 499 kbps      00:04:11.784    24 710 bytes    152 465 bytes   00:00:18.852   

STREAM DIAGNOSTICS:

File            PID             Type            Codec           Language                Seconds                 Bitrate                 Bytes           Packets        
----            ---             ----            -----           --------                --------------          --------------          -------------   -----          
00110.M2TS      4113 (0x1011)   0x02            MPEG-2                                  336,736                 5 927                   249 470 878     1 361 682      
00110.M2TS      4352 (0x1100)   0x81            AC3             eng (English)           336,736                 192                     8 085 504       52 640         
00110.M2TS      4608 (0x1200)   0x90            PGS             eng (English)           336,736                 12                      487 431         3 115          
00110.M2TS      4609 (0x1201)   0x90            PGS             spa (Spanish)           336,736                 10                      411 520         2 694          
00110.M2TS      4610 (0x1202)   0x90            PGS             kor (Korean)            336,736                 11                      460 071         2 965          
00110.M2TS      4611 (0x1203)   0x90            PGS             und (Undetermined)      336,736                 0                       1 936           18             
00110.M2TS      4612 (0x1204)   0x90            PGS             por (Portuguese)        336,736                 10                      424 657         2 772          
00110.M2TS      4613 (0x1205)   0x90            PGS             tha (Thai)              336,736                 13                      538 990         3 397          

[/code]
<---- END FORUMS PASTE ---->

QUICK SUMMARY:

Disc Title: Anger Management (2003)
Disc Size: 33 707 219 572 bytes
Protection: AACS
BD-Java: Yes
Playlist: 00209.MPLS
Size: 276 590 592 bytes
Length: 0:05:36
Total Bitrate: 6,57 Mbps
Video: MPEG-2 Video / 5924 kbps / 480i / 29,970 fps / 4:3
Audio: English / Dolby Digital Audio / 2.0 / 48 kHz / 192 kbps / DN -5dB
Subtitle: English / 11,576 kbps
Subtitle: Korean / 10,926 kbps
Subtitle: Portuguese / 10,085 kbps
Subtitle: Spanish / 9,773 kbps
Subtitle: Thai / 12,800 kbps
Subtitle: Undetermined / 0,046 kbps


********************
PLAYLIST: 00211.MPLS
********************

<--- BEGIN FORUMS PASTE --->
[code]
                                                                                                                Total   Video                                            
Title                                                           Codec   Length  Movie Size      Disc Size       Bitrate Bitrate Main Audio Track                          Secondary Audio Track
-----                                                           ------  ------- --------------  --------------  ------- ------- ------------------                        ---------------------
00211.MPLS                                                      MPEG-2  0:03:49 187 539 456     33 707 219 572  6,54    5,93    DD AC3 2.0 192Kbps                       
[/code]

[code]

DISC INFO:

Disc Title:     Anger Management (2003)
Disc Size:      33 707 219 572 bytes
Protection:     AACS
BD-Java:        Yes
BDInfo:         0.5.6

PLAYLIST REPORT:

Name:                   00211.MPLS
Length:                 0:03:49 (h:m:s)
Size:                   187 539 456 bytes
Total Bitrate:          6,54 Mbps

VIDEO:

Codec                   Bitrate             Description    
-----                   -------             -----------    
MPEG-2 Video            5926 kbps           480i / 29,970 fps / 4:3

AUDIO:

Codec                           Language        Bitrate         Description    
-----                           --------        -------         -----------    
Dolby Digital Audio             English         192 kbps        2.0 / 48 kHz / 192 kbps / DN -4dB

SUBTITLES:

Codec                           Language        Bitrate         Description    
-----                           --------        -------         -----------    
Presentation Graphics           English         7,039 kbps                     
Presentation Graphics           Korean          6,930 kbps                     
Presentation Graphics           Portuguese      6,446 kbps                     
Presentation Graphics           Spanish         5,421 kbps                     
Presentation Graphics           Thai            8,196 kbps                     
Presentation Graphics           Undetermined    0,068 kbps                     

FILES:

Name            Time In         Length          Size            Total Bitrate  
----            -------         ------          ----            -------------  
00112.M2TS      0:00:00.000     0:03:49.262     187 539 456     6 544          

CHAPTERS:

Number          Time In         Length          Avg Video Rate  Max 1-Sec Rate  Max 1-Sec Time  Max 5-Sec Rate  Max 5-Sec Time  Max 10Sec Rate  Max 10Sec Time  Avg Frame Size  Max Frame Size  Max Frame Time 
------          -------         ------          --------------  --------------  --------------  --------------  --------------  --------------  --------------  --------------  --------------  -------------- 
1               0:00:00.000     0:03:49.262     5 926 kbps      13 450 kbps     00:00:01.000    8 616 kbps      00:00:00.900    7 148 kbps      00:03:15.895    24 717 bytes    146 003 bytes   00:00:08.241   

STREAM DIAGNOSTICS:

File            PID             Type            Codec           Language                Seconds                 Bitrate                 Bytes           Packets        
----            ---             ----            -----           --------                --------------          --------------          -------------   -----          
00112.M2TS      4113 (0x1011)   0x02            MPEG-2                                  229,129                 5 930                   169 830 871     926 991        
00112.M2TS      4352 (0x1100)   0x81            AC3             eng (English)           229,129                 192                     5 502 720       35 825         
00112.M2TS      4608 (0x1200)   0x90            PGS             eng (English)           229,129                 7                       201 729         1 283          
00112.M2TS      4609 (0x1201)   0x90            PGS             spa (Spanish)           229,129                 5                       155 353         1 033          
00112.M2TS      4610 (0x1202)   0x90            PGS             kor (Korean)            229,129                 7                       198 591         1 270          
00112.M2TS      4611 (0x1203)   0x90            PGS             und (Undetermined)      229,129                 0                       1 936           18             
00112.M2TS      4612 (0x1204)   0x90            PGS             por (Portuguese)        229,129                 6                       184 729         1 193          
00112.M2TS      4613 (0x1205)   0x90            PGS             tha (Thai)              229,129                 8                       234 871         1 463          

[/code]
<---- END FORUMS PASTE ---->

QUICK SUMMARY:

Disc Title: Anger Management (2003)
Disc Size: 33 707 219 572 bytes
Protection: AACS
BD-Java: Yes
Playlist: 00211.MPLS
Size: 187 539 456 bytes
Length: 0:03:49
Total Bitrate: 6,54 Mbps
Video: MPEG-2 Video / 5926 kbps / 480i / 29,970 fps / 4:3
Audio: English / Dolby Digital Audio / 2.0 / 48 kHz / 192 kbps / DN -4dB
Subtitle: English / 7,039 kbps
Subtitle: Korean / 6,930 kbps
Subtitle: Portuguese / 6,446 kbps
Subtitle: Spanish / 5,421 kbps
Subtitle: Thai / 8,196 kbps
Subtitle: Undetermined / 0,068 kbps


********************
PLAYLIST: 00214.MPLS
********************

<--- BEGIN FORUMS PASTE --->
[code]
                                                                                                                Total   Video                                            
Title                                                           Codec   Length  Movie Size      Disc Size       Bitrate Bitrate Main Audio Track                          Secondary Audio Track
-----                                                           ------  ------- --------------  --------------  ------- ------- ------------------                        ---------------------
00214.MPLS                                                      MPEG-2  0:02:31 500 041 728     33 707 219 572  26,37   24,51   DD AC3 5.1 640Kbps                       
[/code]

[code]

DISC INFO:

Disc Title:     Anger Management (2003)
Disc Size:      33 707 219 572 bytes
Protection:     AACS
BD-Java:        Yes
BDInfo:         0.5.6

PLAYLIST REPORT:

Name:                   00214.MPLS
Length:                 0:02:31 (h:m:s)
Size:                   500 041 728 bytes
Total Bitrate:          26,37 Mbps

VIDEO:

Codec                   Bitrate             Description    
-----                   -------             -----------    
MPEG-2 Video            24512 kbps          1080p / 23,976 fps / 16:9

AUDIO:

Codec                           Language        Bitrate         Description    
-----                           --------        -------         -----------    
Dolby Digital Audio             English         640 kbps        5.1 / 48 kHz / 640 kbps / DN -6dB

FILES:

Name            Time In         Length          Size            Total Bitrate  
----            -------         ------          ----            -------------  
00115.M2TS      0:00:00.000     0:02:31.693     500 041 728     26 371         

CHAPTERS:

Number          Time In         Length          Avg Video Rate  Max 1-Sec Rate  Max 1-Sec Time  Max 5-Sec Rate  Max 5-Sec Time  Max 10Sec Rate  Max 10Sec Time  Avg Frame Size  Max Frame Size  Max Frame Time 
------          -------         ------          --------------  --------------  --------------  --------------  --------------  --------------  --------------  --------------  --------------  -------------- 
1               0:00:00.000     0:02:31.693     24 512 kbps     39 495 kbps     00:00:06.506    33 226 kbps     00:01:38.181    30 833 kbps     00:01:38.473    127 794 bytes   698 109 bytes   00:01:47.398   

STREAM DIAGNOSTICS:

File            PID             Type            Codec           Language                Seconds                 Bitrate                 Bytes           Packets        
----            ---             ----            -----           --------                --------------          --------------          -------------   -----          
00115.M2TS      4113 (0x1011)   0x02            MPEG-2                                  151,526                 24 539                  464 788 042     2 528 142      
00115.M2TS      4352 (0x1100)   0x81            AC3             eng (English)           151,526                 641                     12 136 960      71 115         

[/code]
<---- END FORUMS PASTE ---->

QUICK SUMMARY:

Disc Title: Anger Management (2003)
Disc Size: 33 707 219 572 bytes
Protection: AACS
BD-Java: Yes
Playlist: 00214.MPLS
Size: 500 041 728 bytes
Length: 0:02:31
Total Bitrate: 26,37 Mbps
Video: MPEG-2 Video / 24512 kbps / 1080p / 23,976 fps / 16:9
Audio: English / Dolby Digital Audio / 5.1 / 48 kHz / 640 kbps / DN -6dB


********************
PLAYLIST: 00102.MPLS
********************

<--- BEGIN FORUMS PASTE --->
[code]
                                                                                                                Total   Video                                            
Title                                                           Codec   Length  Movie Size      Disc Size       Bitrate Bitrate Main Audio Track                          Secondary Audio Track
-----                                                           ------  ------- --------------  --------------  ------- ------- ------------------                        ---------------------
00102.MPLS                                                      MPEG-2  0:01:00 118 216 704     33 707 219 572  15,75   15,01                                            
[/code]

[code]

DISC INFO:

Disc Title:     Anger Management (2003)
Disc Size:      33 707 219 572 bytes
Protection:     AACS
BD-Java:        Yes
BDInfo:         0.5.6

PLAYLIST REPORT:

Name:                   00102.MPLS
Length:                 0:01:00 (h:m:s)
Size:                   118 216 704 bytes
Total Bitrate:          15,75 Mbps

VIDEO:

Codec                   Bitrate             Description    
-----                   -------             -----------    
MPEG-2 Video            15013 kbps          1080p / 23,976 fps / 16:9

FILES:

Name            Time In         Length          Size            Total Bitrate  
----            -------         ------          ----            -------------  
00081.M2TS      0:00:00.000     0:01:00.059     118 216 704     15 746         

CHAPTERS:

Number          Time In         Length          Avg Video Rate  Max 1-Sec Rate  Max 1-Sec Time  Max 5-Sec Rate  Max 5-Sec Time  Max 10Sec Rate  Max 10Sec Time  Avg Frame Size  Max Frame Size  Max Frame Time 
------          -------         ------          --------------  --------------  --------------  --------------  --------------  --------------  --------------  --------------  --------------  -------------- 
1               0:00:00.000     0:00:15.014     15 272 kbps     19 624 kbps     00:00:13.930    15 925 kbps     00:00:09.926    15 462 kbps     00:00:04.921    79 401 bytes    663 627 bytes   00:00:14.931   
2               0:00:15.014     0:00:15.014     14 775 kbps     15 185 kbps     00:00:16.433    15 033 kbps     00:00:16.433    15 017 kbps     00:00:16.433    77 031 bytes    674 417 bytes   00:00:15.432   
3               0:00:30.029     0:00:15.014     15 005 kbps     15 922 kbps     00:00:43.960    15 184 kbps     00:00:39.956    15 092 kbps     00:00:34.951    78 232 bytes    253 660 bytes   00:00:44.961   
4               0:00:45.044     0:00:15.014     15 001 kbps     15 033 kbps     00:00:45.045    15 007 kbps     00:00:45.044    15 003 kbps     00:00:45.044    78 424 bytes    253 660 bytes   00:00:45.462   

STREAM DIAGNOSTICS:

File            PID             Type            Codec           Language                Seconds                 Bitrate                 Bytes           Packets        
----            ---             ----            -----           --------                --------------          --------------          -------------   -----          
00081.M2TS      4113 (0x1011)   0x02            MPEG-2                                  59,935                  15 045                  112 712 665     613 678        

[/code]
<---- END FORUMS PASTE ---->

QUICK SUMMARY:

Disc Title: Anger Management (2003)
Disc Size: 33 707 219 572 bytes
Protection: AACS
BD-Java: Yes
Playlist: 00102.MPLS
Size: 118 216 704 bytes
Length: 0:01:00
Total Bitrate: 15,75 Mbps
Video: MPEG-2 Video / 15013 kbps / 1080p / 23,976 fps / 16:9


********************
PLAYLIST: 00212.MPLS
********************

<--- BEGIN FORUMS PASTE --->
[code]
                                                                                                                Total   Video                                            
Title                                                           Codec   Length  Movie Size      Disc Size       Bitrate Bitrate Main Audio Track                          Secondary Audio Track
-----                                                           ------  ------- --------------  --------------  ------- ------- ------------------                        ---------------------
00212.MPLS                                                      MPEG-2  0:00:32 100 958 208     33 707 219 572  25,02   23,21   DD AC3 5.1 640Kbps                       
[/code]

[code]

DISC INFO:

Disc Title:     Anger Management (2003)
Disc Size:      33 707 219 572 bytes
Protection:     AACS
BD-Java:        Yes
BDInfo:         0.5.6

PLAYLIST REPORT:

Name:                   00212.MPLS
Length:                 0:00:32 (h:m:s)
Size:                   100 958 208 bytes
Total Bitrate:          25,02 Mbps

VIDEO:

Codec                   Bitrate             Description    
-----                   -------             -----------    
MPEG-2 Video            23214 kbps          1080p / 23,976 fps / 16:9

AUDIO:

Codec                           Language        Bitrate         Description    
-----                           --------        -------         -----------    
Dolby Digital Audio             English         640 kbps        5.1 / 48 kHz / 640 kbps / DN -7dB

FILES:

Name            Time In         Length          Size            Total Bitrate  
----            -------         ------          ----            -------------  
00113.M2TS      0:00:00.000     0:00:32.282     100 958 208     25 019         

CHAPTERS:

Number          Time In         Length          Avg Video Rate  Max 1-Sec Rate  Max 1-Sec Time  Max 5-Sec Rate  Max 5-Sec Time  Max 10Sec Rate  Max 10Sec Time  Avg Frame Size  Max Frame Size  Max Frame Time 
------          -------         ------          --------------  --------------  --------------  --------------  --------------  --------------  --------------  --------------  --------------  -------------- 
1               0:00:00.000     0:00:32.282     23 214 kbps     37 279 kbps     00:00:04.254    30 052 kbps     00:00:04.254    27 709 kbps     00:00:03.003    121 027 bytes   610 358 bytes   00:00:32.073   

STREAM DIAGNOSTICS:

File            PID             Type            Codec           Language                Seconds                 Bitrate                 Bytes           Packets        
----            ---             ----            -----           --------                --------------          --------------          -------------   -----          
00113.M2TS      4113 (0x1011)   0x02            MPEG-2                                  32,157                  23 304                  93 675 129      509 553        
00113.M2TS      4352 (0x1100)   0x81            AC3             eng (English)           32,157                  643                     2 583 040       15 135         

[/code]
<---- END FORUMS PASTE ---->

QUICK SUMMARY:

Disc Title: Anger Management (2003)
Disc Size: 33 707 219 572 bytes
Protection: AACS
BD-Java: Yes
Playlist: 00212.MPLS
Size: 100 958 208 bytes
Length: 0:00:32
Total Bitrate: 25,02 Mbps
Video: MPEG-2 Video / 23214 kbps / 1080p / 23,976 fps / 16:9
Audio: English / Dolby Digital Audio / 5.1 / 48 kHz / 640 kbps / DN -7dB


********************
PLAYLIST: 00186.MPLS
********************

<--- BEGIN FORUMS PASTE --->
[code]
                                                                                                                Total   Video                                            
Title                                                           Codec   Length  Movie Size      Disc Size       Bitrate Bitrate Main Audio Track                          Secondary Audio Track
-----                                                           ------  ------- --------------  --------------  ------- ------- ------------------                        ---------------------
00186.MPLS                                                      MPEG-2  0:00:30 1 710 144       33 707 219 572  0,45    0,19                                             
[/code]

[code]

DISC INFO:

Disc Title:     Anger Management (2003)
Disc Size:      33 707 219 572 bytes
Protection:     AACS
BD-Java:        Yes
BDInfo:         0.5.6

PLAYLIST REPORT:

Name:                   00186.MPLS
Length:                 0:00:30 (h:m:s)
Size:                   1 710 144 bytes
Total Bitrate:          0,45 Mbps

VIDEO:

Codec                   Bitrate             Description    
-----                   -------             -----------    
MPEG-2 Video            193 kbps            1080p / 23,976 fps / 16:9

FILES:

Name            Time In         Length          Size            Total Bitrate  
----            -------         ------          ----            -------------  
00090.M2TS      0:00:00.000     0:00:06.005     269 376         180            
00090.M2TS      0:00:06.005     0:00:06.005     256 512         171            
00090.M2TS      0:00:12.011     0:00:06.006     229 248         153            
00090.M2TS      0:00:18.018     0:00:06.005     287 232         192            
00090.M2TS      0:00:24.024     0:00:06.005     475 200         318            
00090.M2TS      0:00:30.029     0:00:00.041     192 576         36 935         

CHAPTERS:

Number          Time In         Length          Avg Video Rate  Max 1-Sec Rate  Max 1-Sec Time  Max 5-Sec Rate  Max 5-Sec Time  Max 10Sec Rate  Max 10Sec Time  Avg Frame Size  Max Frame Size  Max Frame Time 
------          -------         ------          --------------  --------------  --------------  --------------  --------------  --------------  --------------  --------------  --------------  -------------- 
1               0:00:00.000     0:00:06.005     572 kbps        278 kbps        00:00:05.964    278 kbps        00:00:05.964    0 kbps          00:00:00.000    214 649 bytes   220 714 bytes   00:00:05.964   
2               0:00:06.005     0:00:06.005     243 kbps        243 kbps        00:00:11.970    243 kbps        00:00:11.970    0 kbps          00:00:00.000    182 481 bytes   182 481 bytes   00:00:17.976   
3               0:00:12.011     0:00:06.006     317 kbps        317 kbps        00:00:17.976    317 kbps        00:00:17.976    0 kbps          00:00:00.000    238 288 bytes   238 288 bytes   00:00:23.982   
4               0:00:18.018     0:00:06.005     311 kbps        311 kbps        00:00:23.982    311 kbps        00:00:23.982    0 kbps          00:00:00.000    233 513 bytes   233 513 bytes   00:00:29.988   
5               0:00:24.024     0:00:06.047     4 388 kbps      557 kbps        00:00:17.934    557 kbps        00:00:17.934    434 kbps        00:00:17.976    207 334 bytes   238 288 bytes   00:00:23.982   

STREAM DIAGNOSTICS:

File            PID             Type            Codec           Language                Seconds                 Bitrate                 Bytes           Packets        
----            ---             ----            -----           --------                --------------          --------------          -------------   -----          
00090.M2TS      4113 (0x1011)   0x02            MPEG-2                                  24,024                  422                     1 266 060       6 884          

[/code]
<---- END FORUMS PASTE ---->

QUICK SUMMARY:

Disc Title: Anger Management (2003)
Disc Size: 33 707 219 572 bytes
Protection: AACS
BD-Java: Yes
Playlist: 00186.MPLS
Size: 1 710 144 bytes
Length: 0:00:30
Total Bitrate: 0,45 Mbps
Video: MPEG-2 Video / 193 kbps / 1080p / 23,976 fps / 16:9