CopyPastehas never been so tasty!

Transformer

by anonymous

  • 0
  • 0
  • 0
331 views

Общее

Полное имя : Transformers Dark of the Moon.BDRip 1080p.mkv
Формат : Matroska
Версия формата : Version 2
Размер файла : 20,5 Гбайт
Продолжительность : 2 ч. 34 м.
Общий поток : 19,0 Мбит/сек
Название фильма : Transformers: Dark of the Moon.BDRip 1080p
Дата кодирования : UTC 2011-09-30 15:01:48
Программа кодирования : mkvmerge v5.0.0 ('Die Wahre Liebe') built on Sep 25 2011 20:33:49
Библиотека кодирования : libebml v1.2.2 + libmatroska v1.3.0

Видео
Идентификатор : 1
Формат : AVC
Формат/Информация : Advanced Video Codec
Профиль формата : High@L4.1
Параметр CABAC формата : Да
Параметр ReFrames формата : 4 кадра
Идентификатор кодека : V_MPEG4/ISO/AVC
Продолжительность : 2 ч. 34 м.
Битрейт : 15,0 Мбит/сек
Ширина : 1920 пикс.
Высота : 800 пикс.
Соотношение сторон : 2,40:1
Частота кадров : 23,976 кадр/сек
Цветовое пространство : YUV
Подвыборка цветности : 4:2:0
Битовая глубина : 8 бит
Тип развёртки : Прогрессивная
Бит/(Пиксели*Кадры) : 0.407
Размер потока : 15,8 Гбайт (77%)
Заголовок : Transformers: Dark of the Moon.BDRip 1080p.3HR&Zer0
Библиотека кодирования : x264 core 116 r2074 2641b9e
Настройки программы : cabac=1 / ref=4 / deblock=1:-1:-1 / analyse=0x3:0x133 / me=umh / subme=10 / psy=1 / psy_rd=1.00:0.20 / mixed_ref=1 / me_range=32 / chroma_me=1 / trellis=2 / 8x8dct=1 / cqm=0 / deadzone=21,11 / fast_pskip=0 / chroma_qp_offset=-3 / threads=6 / sliced_threads=0 / nr=0 / decimate=1 / interlaced=0 / bluray_compat=0 / constrained_intra=0 / bframes=4 / b_pyramid=2 / b_adapt=2 / b_bias=0 / direct=3 / weightb=1 / open_gop=0 / weightp=2 / keyint=250 / keyint_min=25 / scenecut=40 / intra_refresh=0 / rc_lookahead=50 / rc=2pass / mbtree=1 / bitrate=15000 / ratetol=1.0 / qcomp=0.60 / qpmin=10 / qpmax=51 / qpstep=4 / cplxblur=20.0 / qblur=0.5 / ip_ratio=1.40 / aq=1:1.00
Язык : English

Аудио #1
Идентификатор : 2
Формат : DTS
Формат/Информация : Digital Theater Systems
Идентификатор кодека : A_DTS
Продолжительность : 2 ч. 34 м.
Вид битрейта : Постоянный
Битрейт : 1510 Кбит/сек
Каналы : 6 каналов
Расположение каналов : Front: L C R, Side: L R, LFE
Частота : 48,0 КГц
Битовая глубина : 24 бит
Метод сжатия : С потерями
Размер потока : 1,63 Гбайт (8%)
Заголовок : rus-MVO, DTS, 1510 Kbps, 6 channels, 48.0 KHz, 24 bits
Язык : Russian

Аудио #2
Идентификатор : 3
Формат : DTS
Формат/Информация : Digital Theater Systems
Идентификатор кодека : A_DTS
Продолжительность : 2 ч. 34 м.
Вид битрейта : Постоянный
Битрейт : 1510 Кбит/сек
Каналы : 6 каналов
Расположение каналов : Front: L C R, Side: L R, LFE
Частота : 48,0 КГц
Битовая глубина : 24 бит
Метод сжатия : С потерями
Размер потока : 1,63 Гбайт (8%)
Язык : English

Аудио #3
Идентификатор : 4
Формат : AC-3
Формат/Информация : Audio Coding 3
Расширение режима : CM (complete main)
Идентификатор кодека : A_AC3
Продолжительность : 2 ч. 34 м.
Вид битрейта : Постоянный
Битрейт : 384 Кбит/сек
Каналы : 2 канала
Расположение каналов : Front: L R
Частота : 48,0 КГц
Битовая глубина : 16 бит
Метод сжатия : С потерями
Размер потока : 424 Мбайт (2%)
Заголовок : Ukrainian
Язык : Ukrainian

Аудио #4
Идентификатор : 5
Формат : AC-3
Формат/Информация : Audio Coding 3
Расширение режима : CM (complete main)
Идентификатор кодека : A_AC3
Продолжительность : 2 ч. 34 м.
Вид битрейта : Постоянный
Битрейт : 640 Кбит/сек
Каналы : 6 каналов
Расположение каналов : Front: L C R, Side: L R, LFE
Частота : 48,0 КГц
Битовая глубина : 16 бит
Метод сжатия : С потерями
Размер потока : 707 Мбайт (3%)
Язык : French

Текст #1
Идентификатор : 6
Формат : UTF-8
Идентификатор кодека : S_TEXT/UTF8
Идентификатор кодека/Информация : UTF-8 Plain Text
Язык : Russian

Текст #2
Идентификатор : 7
Формат : UTF-8
Идентификатор кодека : S_TEXT/UTF8
Идентификатор кодека/Информация : UTF-8 Plain Text
Язык : English

Меню
00:00:00.000 : en:00:00:00.000
00:08:52.574 : en:00:08:52.574
00:14:26.616 : en:00:14:26.616
00:20:20.928 : en:00:20:20.928
00:28:48.143 : en:00:28:48.143
00:36:18.635 : en:00:36:18.635
00:45:18.549 : en:00:45:18.549
00:51:53.027 : en:00:51:53.027
00:56:34.224 : en:00:56:34.224
01:04:13.308 : en:01:04:13.308
01:12:56.706 : en:01:12:56.706
01:19:09.078 : en:01:19:09.078
01:23:41.391 : en:01:23:41.391
01:28:44.819 : en:01:28:44.819
01:35:13.082 : en:01:35:13.082
01:42:44.158 : en:01:42:44.158
01:49:12.337 : en:01:49:12.337
01:56:42.913 : en:01:56:42.913
02:04:59.117 : en:02:04:59.117
02:11:29.590 : en:02:11:29.590
02:19:10.884 : en:02:19:10.884
02:25:37.520 : en:02:25:37.520

Log;

x264 [info]: frame I:2095 Avg QP:17.19 size:265422
x264 [info]: frame P:64405 Avg QP:19.62 size:119669
x264 [info]: frame B:155596 Avg QP:22.22 size: 58503

 

Add A Comment: