CopyPastehas never been so tasty!

50 First Dates (2004)

by anonymous

  • 0
  • 0
353 views

Disc Title:     50 First Dates (2004)
Disc Size:      23 463 877 313 bytes
Protection:     AACS
BD-Java:        No
BDInfo:         0.5.6

Notes:         

BDINFO HOME:
  Cinema Squid
    http://www.cinemasquid.com/blu-ray/tools/bdinfo

INCLUDES FORUMS REPORT FOR:
  AVS Forum Blu-ray Audio and Video Specifications Thread
    http://www.avsforum.com/avs-vb/showthread.php?t=1155731


********************
PLAYLIST: 00011.MPLS
********************

<--- BEGIN FORUMS PASTE --->
[code]
                                                                                                                Total   Video                                            
Title                                                           Codec   Length  Movie Size      Disc Size       Bitrate Bitrate Main Audio Track                          Secondary Audio Track
-----                                                           ------  ------- --------------  --------------  ------- ------- ------------------                        ---------------------
00011.MPLS                                                      MPEG-2  1:39:03 21 905 866 752  23 463 877 313  29,48   17,04   Dolby TrueHD 5.1 1690Kbps (48kHz/16-bit) 
[/code]

[code]

DISC INFO:

Disc Title:     50 First Dates (2004)
Disc Size:      23 463 877 313 bytes
Protection:     AACS
BD-Java:        No
BDInfo:         0.5.6

PLAYLIST REPORT:

Name:                   00011.MPLS
Length:                 1:39:03 (h:m:s)
Size:                   21 905 866 752 bytes
Total Bitrate:          29,48 Mbps

VIDEO:

Codec                   Bitrate             Description    
-----                   -------             -----------    
MPEG-2 Video            17043 kbps          1080p / 23,976 fps / 16:9

AUDIO:

Codec                           Language        Bitrate         Description    
-----                           --------        -------         -----------    
Dolby TrueHD Audio              English         1690 kbps       5.1 / 48 kHz / 1690 kbps / 16-bit (AC3 Embedded: 5.1 / 48 kHz / 640 kbps / DN -8dB)
Dolby TrueHD Audio              Portuguese      1646 kbps       5.1 / 48 kHz / 1646 kbps / 16-bit (AC3 Embedded: 5.1 / 48 kHz / 448 kbps)
Dolby Digital Audio             Czech           640 kbps        5.1 / 48 kHz / 640 kbps / DN -6dB
Dolby Digital Audio             Russian         448 kbps        5.1 / 48 kHz / 448 kbps / DN -4dB
Dolby Digital Audio             Russian         384 kbps        5.1 / 48 kHz / 384 kbps / DN -4dB
Dolby Digital Audio             Russian         640 kbps        5.1 / 48 kHz / 640 kbps / DN -5dB
Dolby Digital Audio             Spanish         640 kbps        5.1 / 48 kHz / 640 kbps
Dolby Digital Audio             Thai            640 kbps        5.1 / 48 kHz / 640 kbps
Dolby Digital Audio             English         192 kbps        2.0 / 48 kHz / 192 kbps / Dolby Surround

SUBTITLES:

Codec                           Language        Bitrate         Description    
-----                           --------        -------         -----------    
Presentation Graphics           English         63,608 kbps                    
Presentation Graphics           Bulgarian       31,765 kbps                    
Presentation Graphics           Croatian        29,029 kbps                    
Presentation Graphics           Czech           30,675 kbps                    
Presentation Graphics           Icelandic       33,780 kbps                    
Presentation Graphics           Portuguese      31,693 kbps                    
Presentation Graphics           Portuguese      56,216 kbps                    
Presentation Graphics           Romanian        32,729 kbps                    
Presentation Graphics           Russian         0,677 kbps                     
Presentation Graphics           Russian         51,611 kbps                    
Presentation Graphics           Russian         40,215 kbps                    
Presentation Graphics           Russian         0,576 kbps                     
Presentation Graphics           Serbian         32,517 kbps                    
Presentation Graphics           Slovenian       30,476 kbps                    
Presentation Graphics           Spanish         35,181 kbps                    
Presentation Graphics           Spanish         105,326 kbps                   
Presentation Graphics           Thai            32,732 kbps                    

FILES:

Name            Time In         Length          Size            Total Bitrate  
----            -------         ------          ----            -------------  
00011.M2TS      0:00:00.000     1:39:03.938     21 905 866 752  29 483         

CHAPTERS:

Number          Time In         Length          Avg Video Rate  Max 1-Sec Rate  Max 1-Sec Time  Max 5-Sec Rate  Max 5-Sec Time  Max 10Sec Rate  Max 10Sec Time  Avg Frame Size  Max Frame Size  Max Frame Time 
------          -------         ------          --------------  --------------  --------------  --------------  --------------  --------------  --------------  --------------  --------------  -------------- 
1               0:00:00.000     0:05:27.243     16 806 kbps     27 272 kbps     00:03:07.020    24 498 kbps     00:03:02.974    23 492 kbps     00:03:01.055    87 606 bytes    471 927 bytes   00:04:32.188   
2               0:05:27.243     0:06:09.702     17 843 kbps     29 473 kbps     00:07:33.327    26 118 kbps     00:07:29.198    24 804 kbps     00:07:26.028    93 027 bytes    526 139 bytes   00:06:58.459   
3               0:11:36.946     0:09:44.333     16 946 kbps     26 199 kbps     00:19:22.286    23 502 kbps     00:19:22.286    23 214 kbps     00:19:22.286    88 349 bytes    579 582 bytes   00:19:10.065   
4               0:21:21.279     0:03:18.823     17 711 kbps     27 059 kbps     00:23:05.008    23 415 kbps     00:23:15.143    22 281 kbps     00:23:15.143    92 338 bytes    518 022 bytes   00:23:30.075   
5               0:24:40.103     0:06:54.122     16 760 kbps     26 604 kbps     00:29:40.778    21 779 kbps     00:26:39.514    19 590 kbps     00:30:02.217    87 379 bytes    496 903 bytes   00:25:11.927   
6               0:31:34.225     0:02:48.835     16 293 kbps     22 262 kbps     00:32:47.382    18 268 kbps     00:34:06.669    17 205 kbps     00:32:23.983    84 942 bytes    488 002 bytes   00:33:27.171   
7               0:34:23.060     0:06:34.018     17 442 kbps     26 140 kbps     00:38:42.695    21 902 kbps     00:39:21.525    20 808 kbps     00:38:49.285    90 934 bytes    538 307 bytes   00:38:59.003   
8               0:40:57.079     0:05:22.238     17 554 kbps     28 442 kbps     00:43:05.416    22 758 kbps     00:43:03.455    20 780 kbps     00:43:47.625    91 516 bytes    560 395 bytes   00:41:30.654   
9               0:46:19.318     0:04:56.421     16 818 kbps     26 304 kbps     00:48:10.345    23 719 kbps     00:48:10.095    22 635 kbps     00:48:04.756    87 679 bytes    481 624 bytes   00:48:49.426   
10              0:51:15.739     0:04:53.793     17 007 kbps     25 658 kbps     00:55:07.304    23 673 kbps     00:55:03.300    22 818 kbps     00:54:58.378    88 664 bytes    507 595 bytes   00:53:20.822   
11              0:56:09.532     0:07:30.283     17 659 kbps     26 258 kbps     00:57:37.787    23 255 kbps     00:57:35.785    22 136 kbps     00:57:35.285    92 067 bytes    534 302 bytes   01:01:30.937   
12              1:03:39.816     0:05:10.685     17 261 kbps     25 687 kbps     01:05:54.408    23 428 kbps     01:05:51.322    22 326 kbps     01:05:22.126    89 990 bytes    443 157 bytes   01:07:19.910   
13              1:08:50.501     0:05:09.058     16 394 kbps     25 610 kbps     01:10:20.674    20 847 kbps     01:11:13.727    20 354 kbps     01:11:11.850    85 472 bytes    523 586 bytes   01:13:20.187   
14              1:13:59.560     0:12:56.066     17 370 kbps     30 585 kbps     01:14:18.370    28 380 kbps     01:21:56.286    26 576 kbps     01:21:56.286    90 559 bytes    544 818 bytes   01:14:05.357   
15              1:26:55.627     0:01:40.308     19 877 kbps     27 906 kbps     01:28:33.933    23 135 kbps     01:28:29.929    22 059 kbps     01:28:12.704    103 632 bytes   490 260 bytes   01:27:09.265   
16              1:28:35.935     0:10:28.002     15 482 kbps     29 943 kbps     01:30:14.409    27 535 kbps     01:30:13.449    25 228 kbps     01:30:13.157    80 724 bytes    452 651 bytes   01:29:02.128   

STREAM DIAGNOSTICS:

File            PID             Type            Codec           Language                Seconds                 Bitrate                 Bytes           Packets        
----            ---             ----            -----           --------                --------------          --------------          -------------   -----          
00011.M2TS      4113 (0x1011)   0x02            MPEG-2                                  5943,813                17 043                  12 662 465 416  68 900 539     
00011.M2TS      4352 (0x1100)   0x83            TrueHD          eng (English)           5943,813                2 330                   1 731 149 864   14 024 433     
00011.M2TS      4353 (0x1101)   0x81            AC3             spa (Spanish)           5943,813                640                     475 517 440     2 786 235      
00011.M2TS      4354 (0x1102)   0x83            TrueHD          por (Portuguese)        5943,813                2 094                   1 556 078 052   12 591 291     
00011.M2TS      4355 (0x1103)   0x81            AC3             ces (Czech)             5943,813                640                     475 517 440     2 786 235      
00011.M2TS      4356 (0x1104)   0x81            AC3             rus (Russian)           5943,813                448                     332 862 208     1 857 490      
00011.M2TS      4357 (0x1105)   0x81            AC3             rus (Russian)           5943,813                384                     285 310 464     1 671 741      
00011.M2TS      4358 (0x1106)   0x81            AC3             rus (Russian)           5943,813                640                     475 517 440     2 786 235      
00011.M2TS      4359 (0x1107)   0x81            AC3             tha (Thai)              5943,813                640                     475 517 440     2 786 235      
00011.M2TS      4360 (0x1108)   0x81            AC3             eng (English)           5943,813                192                     142 655 232     928 745        
00011.M2TS      4608 (0x1200)   0x90            PGS             eng (English)           5943,813                64                      47 260 236      265 346        
00011.M2TS      4609 (0x1201)   0x90            PGS             spa (Spanish)           5943,813                35                      26 139 548      150 532        
00011.M2TS      4610 (0x1202)   0x90            PGS             por (Portuguese)        5943,813                32                      23 548 012      136 307        
00011.M2TS      4611 (0x1203)   0x90            PGS             bul (Bulgarian)         5943,813                32                      23 601 151      136 883        
00011.M2TS      4612 (0x1204)   0x90            PGS             rus (Russian)           5943,813                1                       503 202         2 902          
00011.M2TS      4613 (0x1205)   0x90            PGS             hrv (Croatian)          5943,813                29                      21 568 002      125 605        
00011.M2TS      4614 (0x1206)   0x90            PGS             ces (Czech)             5943,813                31                      22 791 139      132 287        
00011.M2TS      4615 (0x1207)   0x90            PGS             rus (Russian)           5943,813                52                      38 346 727      217 870        
00011.M2TS      4616 (0x1208)   0x90            PGS             isl (Icelandic)         5943,813                34                      25 098 329      144 706        
00011.M2TS      4617 (0x1209)   0x90            PGS             rus (Russian)           5943,813                40                      29 879 672      169 706        
00011.M2TS      4618 (0x120A)   0x90            PGS             ron (Romanian)          5943,813                33                      24 317 183      140 609        
00011.M2TS      4619 (0x120B)   0x90            PGS             srp (Serbian)           5943,813                33                      24 159 854      139 655        
00011.M2TS      4620 (0x120C)   0x90            PGS             slv (Slovenian)         5943,813                30                      22 643 708      131 618        
00011.M2TS      4621 (0x120D)   0x90            PGS             tha (Thai)              5943,813                33                      24 319 368      140 537        
00011.M2TS      4622 (0x120E)   0x90            PGS             spa (Spanish)           5943,813                105                     78 256 589      436 512        
00011.M2TS      4623 (0x120F)   0x90            PGS             por (Portuguese)        5943,813                56                      41 767 771      237 916        
00011.M2TS      4624 (0x1210)   0x90            PGS             rus (Russian)           5943,813                1                       428 141         2 481          

[/code]
<---- END FORUMS PASTE ---->

QUICK SUMMARY:

Disc Title: 50 First Dates (2004)
Disc Size: 23 463 877 313 bytes
Protection: AACS
BD-Java: No
Playlist: 00011.MPLS
Size: 21 905 866 752 bytes
Length: 1:39:03
Total Bitrate: 29,48 Mbps
Video: MPEG-2 Video / 17043 kbps / 1080p / 23,976 fps / 16:9
Audio: English / Dolby TrueHD Audio / 5.1 / 48 kHz / 1690 kbps / 16-bit (AC3 Embedded: 5.1 / 48 kHz / 640 kbps / DN -8dB)
Audio: Portuguese / Dolby TrueHD Audio / 5.1 / 48 kHz / 1646 kbps / 16-bit (AC3 Embedded: 5.1 / 48 kHz / 448 kbps)
Audio: Czech / Dolby Digital Audio / 5.1 / 48 kHz / 640 kbps / DN -6dB
Audio: Russian / Dolby Digital Audio / 5.1 / 48 kHz / 448 kbps / DN -4dB
Audio: Russian / Dolby Digital Audio / 5.1 / 48 kHz / 384 kbps / DN -4dB
Audio: Russian / Dolby Digital Audio / 5.1 / 48 kHz / 640 kbps / DN -5dB
Audio: Spanish / Dolby Digital Audio / 5.1 / 48 kHz / 640 kbps
Audio: Thai / Dolby Digital Audio / 5.1 / 48 kHz / 640 kbps
Audio: English / Dolby Digital Audio / 2.0 / 48 kHz / 192 kbps / Dolby Surround
Subtitle: English / 63,608 kbps
Subtitle: Bulgarian / 31,765 kbps
Subtitle: Croatian / 29,029 kbps
Subtitle: Czech / 30,675 kbps
Subtitle: Icelandic / 33,780 kbps
Subtitle: Portuguese / 31,693 kbps
Subtitle: Portuguese / 56,216 kbps
Subtitle: Romanian / 32,729 kbps
Subtitle: Russian / 0,677 kbps
Subtitle: Russian / 51,611 kbps
Subtitle: Russian / 40,215 kbps
Subtitle: Russian / 0,576 kbps
Subtitle: Serbian / 32,517 kbps
Subtitle: Slovenian / 30,476 kbps
Subtitle: Spanish / 35,181 kbps
Subtitle: Spanish / 105,326 kbps
Subtitle: Thai / 32,732 kbps


********************
PLAYLIST: 00203.MPLS
********************

<--- BEGIN FORUMS PASTE --->
[code]
                                                                                                                Total   Video                                            
Title                                                           Codec   Length  Movie Size      Disc Size       Bitrate Bitrate Main Audio Track                          Secondary Audio Track
-----                                                           ------  ------- --------------  --------------  ------- ------- ------------------                        ---------------------
00203.MPLS                                                      MPEG-2  0:07:05 294 340 608     23 463 877 313  5,53    4,94    DD AC3 2.0 192Kbps                       
[/code]

[code]

DISC INFO:

Disc Title:     50 First Dates (2004)
Disc Size:      23 463 877 313 bytes
Protection:     AACS
BD-Java:        No
BDInfo:         0.5.6

PLAYLIST REPORT:

Name:                   00203.MPLS
Length:                 0:07:05 (h:m:s)
Size:                   294 340 608 bytes
Total Bitrate:          5,53 Mbps

VIDEO:

Codec                   Bitrate             Description    
-----                   -------             -----------    
MPEG-2 Video            4943 kbps           480i / 29,970 fps / 4:3

AUDIO:

Codec                           Language        Bitrate         Description    
-----                           --------        -------         -----------    
Dolby Digital Audio             English         192 kbps        2.0 / 48 kHz / 192 kbps / DN -3dB

SUBTITLES:

Codec                           Language        Bitrate         Description    
-----                           --------        -------         -----------    
Presentation Graphics           Portuguese      12,665 kbps                    
Presentation Graphics           Russian         0,036 kbps                     
Presentation Graphics           Spanish         15,058 kbps                    
Presentation Graphics           Thai            17,348 kbps                    

FILES:

Name            Time In         Length          Size            Total Bitrate  
----            -------         ------          ----            -------------  
00105.M2TS      0:00:00.000     0:07:05.758     294 340 608     5 531          

CHAPTERS:

Number          Time In         Length          Avg Video Rate  Max 1-Sec Rate  Max 1-Sec Time  Max 5-Sec Rate  Max 5-Sec Time  Max 10Sec Rate  Max 10Sec Time  Avg Frame Size  Max Frame Size  Max Frame Time 
------          -------         ------          --------------  --------------  --------------  --------------  --------------  --------------  --------------  --------------  --------------  -------------- 
1               0:00:00.000     0:07:05.758     4 943 kbps      9 676 kbps      00:05:11.110    8 926 kbps      00:06:04.263    7 230 kbps      00:01:44.003    20 615 bytes    105 419 bytes   00:00:58.291   

STREAM DIAGNOSTICS:

File            PID             Type            Codec           Language                Seconds                 Bitrate                 Bytes           Packets        
----            ---             ----            -----           --------                --------------          --------------          -------------   -----          
00105.M2TS      4113 (0x1011)   0x02            MPEG-2                                  425,625                 4 944                   263 046 607     1 437 018      
00105.M2TS      4352 (0x1100)   0x81            AC3             eng (English)           425,625                 192                     10 218 240      66 525         
00105.M2TS      4608 (0x1200)   0x90            PGS             spa (Spanish)           425,625                 15                      801 398         5 066          
00105.M2TS      4609 (0x1201)   0x90            PGS             por (Portuguese)        425,625                 13                      674 004         4 377          
00105.M2TS      4610 (0x1202)   0x90            PGS             rus (Russian)           425,625                 0                       1 936           18             
00105.M2TS      4611 (0x1203)   0x90            PGS             tha (Thai)              425,625                 17                      923 279         5 730          

[/code]
<---- END FORUMS PASTE ---->

QUICK SUMMARY:

Disc Title: 50 First Dates (2004)
Disc Size: 23 463 877 313 bytes
Protection: AACS
BD-Java: No
Playlist: 00203.MPLS
Size: 294 340 608 bytes
Length: 0:07:05
Total Bitrate: 5,53 Mbps
Video: MPEG-2 Video / 4943 kbps / 480i / 29,970 fps / 4:3
Audio: English / Dolby Digital Audio / 2.0 / 48 kHz / 192 kbps / DN -3dB
Subtitle: Portuguese / 12,665 kbps
Subtitle: Russian / 0,036 kbps
Subtitle: Spanish / 15,058 kbps
Subtitle: Thai / 17,348 kbps


********************
PLAYLIST: 00202.MPLS
********************

<--- BEGIN FORUMS PASTE --->
[code]
                                                                                                                Total   Video                                            
Title                                                           Codec   Length  Movie Size      Disc Size       Bitrate Bitrate Main Audio Track                          Secondary Audio Track
-----                                                           ------  ------- --------------  --------------  ------- ------- ------------------                        ---------------------
00202.MPLS                                                      MPEG-2  0:04:55 234 946 560     23 463 877 313  6,36    5,72    DD AC3 2.0 192Kbps                       
[/code]

[code]

DISC INFO:

Disc Title:     50 First Dates (2004)
Disc Size:      23 463 877 313 bytes
Protection:     AACS
BD-Java:        No
BDInfo:         0.5.6

PLAYLIST REPORT:

Name:                   00202.MPLS
Length:                 0:04:55 (h:m:s)
Size:                   234 946 560 bytes
Total Bitrate:          6,36 Mbps

VIDEO:

Codec                   Bitrate             Description    
-----                   -------             -----------    
MPEG-2 Video            5718 kbps           480i / 29,970 fps / 4:3

AUDIO:

Codec                           Language        Bitrate         Description    
-----                           --------        -------         -----------    
Dolby Digital Audio             English         192 kbps        2.0 / 48 kHz / 192 kbps / DN -2dB

SUBTITLES:

Codec                           Language        Bitrate         Description    
-----                           --------        -------         -----------    
Presentation Graphics           Portuguese      16,226 kbps                    
Presentation Graphics           Russian         0,052 kbps                     
Presentation Graphics           Spanish         21,059 kbps                    
Presentation Graphics           Thai            23,710 kbps                    

FILES:

Name            Time In         Length          Size            Total Bitrate  
----            -------         ------          ----            -------------  
00104.M2TS      0:00:00.000     0:04:55.561     234 946 560     6 359          

CHAPTERS:

Number          Time In         Length          Avg Video Rate  Max 1-Sec Rate  Max 1-Sec Time  Max 5-Sec Rate  Max 5-Sec Time  Max 10Sec Rate  Max 10Sec Time  Avg Frame Size  Max Frame Size  Max Frame Time 
------          -------         ------          --------------  --------------  --------------  --------------  --------------  --------------  --------------  --------------  --------------  -------------- 
1               0:00:00.000     0:04:55.561     5 718 kbps      11 394 kbps     00:04:51.891    9 129 kbps      00:04:45.585    8 236 kbps      00:04:42.982    23 850 bytes    168 997 bytes   00:04:47.320   

STREAM DIAGNOSTICS:

File            PID             Type            Codec           Language                Seconds                 Bitrate                 Bytes           Packets        
----            ---             ----            -----           --------                --------------          --------------          -------------   -----          
00104.M2TS      4113 (0x1011)   0x02            MPEG-2                                  295,495                 5 719                   211 260 221     1 153 318      
00104.M2TS      4352 (0x1100)   0x81            AC3             eng (English)           295,495                 192                     7 094 016       46 185         
00104.M2TS      4608 (0x1200)   0x90            PGS             spa (Spanish)           295,495                 21                      778 032         4 888          
00104.M2TS      4609 (0x1201)   0x90            PGS             por (Portuguese)        295,495                 16                      599 491         3 925          
00104.M2TS      4610 (0x1202)   0x90            PGS             rus (Russian)           295,495                 0                       1 936           18             
00104.M2TS      4611 (0x1203)   0x90            PGS             tha (Thai)              295,495                 24                      875 956         5 424          

[/code]
<---- END FORUMS PASTE ---->

QUICK SUMMARY:

Disc Title: 50 First Dates (2004)
Disc Size: 23 463 877 313 bytes
Protection: AACS
BD-Java: No
Playlist: 00202.MPLS
Size: 234 946 560 bytes
Length: 0:04:55
Total Bitrate: 6,36 Mbps
Video: MPEG-2 Video / 5718 kbps / 480i / 29,970 fps / 4:3
Audio: English / Dolby Digital Audio / 2.0 / 48 kHz / 192 kbps / DN -2dB
Subtitle: Portuguese / 16,226 kbps
Subtitle: Russian / 0,052 kbps
Subtitle: Spanish / 21,059 kbps
Subtitle: Thai / 23,710 kbps


********************
PLAYLIST: 00204.MPLS
********************

<--- BEGIN FORUMS PASTE --->
[code]
                                                                                                                Total   Video                                            
Title                                                           Codec   Length  Movie Size      Disc Size       Bitrate Bitrate Main Audio Track                          Secondary Audio Track
-----                                                           ------  ------- --------------  --------------  ------- ------- ------------------                        ---------------------
00204.MPLS                                                      MPEG-2  0:02:26 345 686 016     23 463 877 313  18,82   17,51   DD AC3 5.1 448Kbps                       
[/code]

[code]

DISC INFO:

Disc Title:     50 First Dates (2004)
Disc Size:      23 463 877 313 bytes
Protection:     AACS
BD-Java:        No
BDInfo:         0.5.6

PLAYLIST REPORT:

Name:                   00204.MPLS
Length:                 0:02:26 (h:m:s)
Size:                   345 686 016 bytes
Total Bitrate:          18,82 Mbps

VIDEO:

Codec                   Bitrate             Description    
-----                   -------             -----------    
MPEG-2 Video            17506 kbps          1080p / 23,976 fps / 16:9

AUDIO:

Codec                           Language        Bitrate         Description    
-----                           --------        -------         -----------    
Dolby Digital Audio             English         448 kbps        5.1 / 48 kHz / 448 kbps / DN -4dB

FILES:

Name            Time In         Length          Size            Total Bitrate  
----            -------         ------          ----            -------------  
00106.M2TS      0:00:00.000     0:02:26.938     345 686 016     18 821         

CHAPTERS:

Number          Time In         Length          Avg Video Rate  Max 1-Sec Rate  Max 1-Sec Time  Max 5-Sec Rate  Max 5-Sec Time  Max 10Sec Rate  Max 10Sec Time  Avg Frame Size  Max Frame Size  Max Frame Time 
------          -------         ------          --------------  --------------  --------------  --------------  --------------  --------------  --------------  --------------  --------------  -------------- 
1               0:00:00.000     0:02:26.938     17 506 kbps     31 783 kbps     00:00:12.012    23 323 kbps     00:01:30.006    22 010 kbps     00:01:25.001    91 270 bytes    606 275 bytes   00:02:09.170   

STREAM DIAGNOSTICS:

File            PID             Type            Codec           Language                Seconds                 Bitrate                 Bytes           Packets        
----            ---             ----            -----           --------                --------------          --------------          -------------   -----          
00106.M2TS      4113 (0x1011)   0x02            MPEG-2                                  146,772                 17 526                  321 544 797     1 749 554      
00106.M2TS      4352 (0x1100)   0x81            AC3             eng (English)           146,772                 449                     8 228 864       45 920         

[/code]
<---- END FORUMS PASTE ---->

QUICK SUMMARY:

Disc Title: 50 First Dates (2004)
Disc Size: 23 463 877 313 bytes
Protection: AACS
BD-Java: No
Playlist: 00204.MPLS
Size: 345 686 016 bytes
Length: 0:02:26
Total Bitrate: 18,82 Mbps
Video: MPEG-2 Video / 17506 kbps / 1080p / 23,976 fps / 16:9
Audio: English / Dolby Digital Audio / 5.1 / 48 kHz / 448 kbps / DN -4dB


********************
PLAYLIST: 00205.MPLS
********************

<--- BEGIN FORUMS PASTE --->
[code]
                                                                                                                Total   Video                                            
Title                                                           Codec   Length  Movie Size      Disc Size       Bitrate Bitrate Main Audio Track                          Secondary Audio Track
-----                                                           ------  ------- --------------  --------------  ------- ------- ------------------                        ---------------------
00205.MPLS                                                      MPEG-2  0:02:14 290 156 544     23 463 877 313  17,27   15,79   DD AC3 5.1 640Kbps                       
[/code]

[code]

DISC INFO:

Disc Title:     50 First Dates (2004)
Disc Size:      23 463 877 313 bytes
Protection:     AACS
BD-Java:        No
BDInfo:         0.5.6

PLAYLIST REPORT:

Name:                   00205.MPLS
Length:                 0:02:14 (h:m:s)
Size:                   290 156 544 bytes
Total Bitrate:          17,27 Mbps

VIDEO:

Codec                   Bitrate             Description    
-----                   -------             -----------    
MPEG-2 Video            15793 kbps          1080p / 23,976 fps / 16:9

AUDIO:

Codec                           Language        Bitrate         Description    
-----                           --------        -------         -----------    
Dolby Digital Audio             English         640 kbps        5.1 / 48 kHz / 640 kbps / DN -5dB

FILES:

Name            Time In         Length          Size            Total Bitrate  
----            -------         ------          ----            -------------  
00107.M2TS      0:00:00.000     0:02:14.384     290 156 544     17 273         

CHAPTERS:

Number          Time In         Length          Avg Video Rate  Max 1-Sec Rate  Max 1-Sec Time  Max 5-Sec Rate  Max 5-Sec Time  Max 10Sec Rate  Max 10Sec Time  Avg Frame Size  Max Frame Size  Max Frame Time 
------          -------         ------          --------------  --------------  --------------  --------------  --------------  --------------  --------------  --------------  --------------  -------------- 
1               0:00:00.000     0:02:14.384     15 793 kbps     31 843 kbps     00:01:47.106    24 999 kbps     00:00:25.191    22 211 kbps     00:00:20.145    82 338 bytes    501 254 bytes   00:01:05.356   

STREAM DIAGNOSTICS:

File            PID             Type            Codec           Language                Seconds                 Bitrate                 Bytes           Packets        
----            ---             ----            -----           --------                --------------          --------------          -------------   -----          
00107.M2TS      4113 (0x1011)   0x02            MPEG-2                                  134,259                 15 808                  265 293 955     1 443 677      
00107.M2TS      4352 (0x1100)   0x81            AC3             eng (English)           134,259                 641                     10 752 000      63 000         

[/code]
<---- END FORUMS PASTE ---->

QUICK SUMMARY:

Disc Title: 50 First Dates (2004)
Disc Size: 23 463 877 313 bytes
Protection: AACS
BD-Java: No
Playlist: 00205.MPLS
Size: 290 156 544 bytes
Length: 0:02:14
Total Bitrate: 17,27 Mbps
Video: MPEG-2 Video / 15793 kbps / 1080p / 23,976 fps / 16:9
Audio: English / Dolby Digital Audio / 5.1 / 48 kHz / 640 kbps / DN -5dB


********************
PLAYLIST: 00102.MPLS
********************

<--- BEGIN FORUMS PASTE --->
[code]
                                                                                                                Total   Video                                            
Title                                                           Codec   Length  Movie Size      Disc Size       Bitrate Bitrate Main Audio Track                          Secondary Audio Track
-----                                                           ------  ------- --------------  --------------  ------- ------- ------------------                        ---------------------
00102.MPLS                                                      MPEG-2  0:01:00 118 216 704     23 463 877 313  15,75   15,01                                            
[/code]

[code]

DISC INFO:

Disc Title:     50 First Dates (2004)
Disc Size:      23 463 877 313 bytes
Protection:     AACS
BD-Java:        No
BDInfo:         0.5.6

PLAYLIST REPORT:

Name:                   00102.MPLS
Length:                 0:01:00 (h:m:s)
Size:                   118 216 704 bytes
Total Bitrate:          15,75 Mbps

VIDEO:

Codec                   Bitrate             Description    
-----                   -------             -----------    
MPEG-2 Video            15013 kbps          1080p / 23,976 fps / 16:9

FILES:

Name            Time In         Length          Size            Total Bitrate  
----            -------         ------          ----            -------------  
00081.M2TS      0:00:00.000     0:01:00.059     118 216 704     15 746         

CHAPTERS:

Number          Time In         Length          Avg Video Rate  Max 1-Sec Rate  Max 1-Sec Time  Max 5-Sec Rate  Max 5-Sec Time  Max 10Sec Rate  Max 10Sec Time  Avg Frame Size  Max Frame Size  Max Frame Time 
------          -------         ------          --------------  --------------  --------------  --------------  --------------  --------------  --------------  --------------  --------------  -------------- 
1               0:00:00.000     0:00:15.014     15 272 kbps     19 624 kbps     00:00:13.930    15 925 kbps     00:00:09.926    15 462 kbps     00:00:04.921    79 401 bytes    663 627 bytes   00:00:14.931   
2               0:00:15.014     0:00:15.014     14 775 kbps     15 185 kbps     00:00:16.433    15 033 kbps     00:00:16.433    15 017 kbps     00:00:16.433    77 031 bytes    674 417 bytes   00:00:15.432   
3               0:00:30.029     0:00:15.014     15 005 kbps     15 922 kbps     00:00:43.960    15 184 kbps     00:00:39.956    15 092 kbps     00:00:34.951    78 232 bytes    253 660 bytes   00:00:44.961   
4               0:00:45.044     0:00:15.014     15 001 kbps     15 033 kbps     00:00:45.045    15 007 kbps     00:00:45.044    15 003 kbps     00:00:45.044    78 424 bytes    253 660 bytes   00:00:45.462   

STREAM DIAGNOSTICS:

File            PID             Type            Codec           Language                Seconds                 Bitrate                 Bytes           Packets        
----            ---             ----            -----           --------                --------------          --------------          -------------   -----          
00081.M2TS      4113 (0x1011)   0x02            MPEG-2                                  59,935                  15 045                  112 712 665     613 678        

[/code]
<---- END FORUMS PASTE ---->

QUICK SUMMARY:

Disc Title: 50 First Dates (2004)
Disc Size: 23 463 877 313 bytes
Protection: AACS
BD-Java: No
Playlist: 00102.MPLS
Size: 118 216 704 bytes
Length: 0:01:00
Total Bitrate: 15,75 Mbps
Video: MPEG-2 Video / 15013 kbps / 1080p / 23,976 fps / 16:9


********************
PLAYLIST: 00186.MPLS
********************

<--- BEGIN FORUMS PASTE --->
[code]
                                                                                                                Total   Video                                            
Title                                                           Codec   Length  Movie Size      Disc Size       Bitrate Bitrate Main Audio Track                          Secondary Audio Track
-----                                                           ------  ------- --------------  --------------  ------- ------- ------------------                        ---------------------
00186.MPLS                                                      MPEG-2  0:00:30 1 710 144       23 463 877 313  0,45    0,19                                             
[/code]

[code]

DISC INFO:

Disc Title:     50 First Dates (2004)
Disc Size:      23 463 877 313 bytes
Protection:     AACS
BD-Java:        No
BDInfo:         0.5.6

PLAYLIST REPORT:

Name:                   00186.MPLS
Length:                 0:00:30 (h:m:s)
Size:                   1 710 144 bytes
Total Bitrate:          0,45 Mbps

VIDEO:

Codec                   Bitrate             Description    
-----                   -------             -----------    
MPEG-2 Video            193 kbps            1080p / 23,976 fps / 16:9

FILES:

Name            Time In         Length          Size            Total Bitrate  
----            -------         ------          ----            -------------  
00090.M2TS      0:00:00.000     0:00:06.005     256 704         172            
00090.M2TS      0:00:06.005     0:00:06.005     269 184         180            
00090.M2TS      0:00:12.011     0:00:06.006     229 248         153            
00090.M2TS      0:00:18.018     0:00:06.005     287 232         192            
00090.M2TS      0:00:24.024     0:00:06.005     475 200         318            
00090.M2TS      0:00:30.029     0:00:00.041     192 576         36 935         

CHAPTERS:

Number          Time In         Length          Avg Video Rate  Max 1-Sec Rate  Max 1-Sec Time  Max 5-Sec Rate  Max 5-Sec Time  Max 10Sec Rate  Max 10Sec Time  Avg Frame Size  Max Frame Size  Max Frame Time 
------          -------         ------          --------------  --------------  --------------  --------------  --------------  --------------  --------------  --------------  --------------  -------------- 
1               0:00:00.000     0:00:06.005     572 kbps        294 kbps        00:00:05.964    294 kbps        00:00:05.964    0 kbps          00:00:00.000    214 649 bytes   220 714 bytes   00:00:11.970   
2               0:00:06.005     0:00:06.005     243 kbps        243 kbps        00:00:11.970    243 kbps        00:00:11.970    0 kbps          00:00:00.000    182 481 bytes   182 481 bytes   00:00:17.976   
3               0:00:12.011     0:00:06.006     317 kbps        317 kbps        00:00:17.976    317 kbps        00:00:17.976    0 kbps          00:00:00.000    238 288 bytes   238 288 bytes   00:00:23.982   
4               0:00:18.018     0:00:06.005     311 kbps        311 kbps        00:00:23.982    311 kbps        00:00:23.982    0 kbps          00:00:00.000    233 513 bytes   233 513 bytes   00:00:29.988   
5               0:00:24.024     0:00:06.047     4 404 kbps      557 kbps        00:00:17.934    557 kbps        00:00:17.934    434 kbps        00:00:17.976    208 092 bytes   238 288 bytes   00:00:23.982   

STREAM DIAGNOSTICS:

File            PID             Type            Codec           Language                Seconds                 Bitrate                 Bytes           Packets        
----            ---             ----            -----           --------                --------------          --------------          -------------   -----          
00090.M2TS      4113 (0x1011)   0x02            MPEG-2                                  24,024                  422                     1 266 060       6 884          

[/code]
<---- END FORUMS PASTE ---->

QUICK SUMMARY:

Disc Title: 50 First Dates (2004)
Disc Size: 23 463 877 313 bytes
Protection: AACS
BD-Java: No
Playlist: 00186.MPLS
Size: 1 710 144 bytes
Length: 0:00:30
Total Bitrate: 0,45 Mbps
Video: MPEG-2 Video / 193 kbps / 1080p / 23,976 fps / 16:9