CopyPastehas never been so tasty!

The Pursuit of Happyness (2006)

by anonymous

  • 0
  • 0
260 views

Disc Title:     Pursuit of Happyness, The (2006)
Disc Size:      49 141 081 284 bytes
Protection:     AACS
BD-Java:        No
BDInfo:         0.5.6

Notes:         

BDINFO HOME:
  Cinema Squid
    http://www.cinemasquid.com/blu-ray/tools/bdinfo

INCLUDES FORUMS REPORT FOR:
  AVS Forum Blu-ray Audio and Video Specifications Thread
    http://www.avsforum.com/avs-vb/showthread.php?t=1155731


********************
PLAYLIST: 00002.MPLS
********************

<--- BEGIN FORUMS PASTE --->
[code]
                                                                                                                Total   Video                                            
Title                                                           Codec   Length  Movie Size      Disc Size       Bitrate Bitrate Main Audio Track                          Secondary Audio Track
-----                                                           ------  ------- --------------  --------------  ------- ------- ------------------                        ---------------------
00002.MPLS                                                      AVC     1:57:27 39 184 699 392  49 141 081 284  44,48   26,91   LPCM 5.1 4608Kbps (48kHz/16-bit)          DD AC3 5.1 640Kbps
[/code]

[code]

DISC INFO:

Disc Title:     Pursuit of Happyness, The (2006)
Disc Size:      49 141 081 284 bytes
Protection:     AACS
BD-Java:        No
BDInfo:         0.5.6

PLAYLIST REPORT:

Name:                   00002.MPLS
Length:                 1:57:27 (h:m:s)
Size:                   39 184 699 392 bytes
Total Bitrate:          44,48 Mbps

VIDEO:

Codec                   Bitrate             Description    
-----                   -------             -----------    
MPEG-4 AVC Video        26905 kbps          1080p / 23,976 fps / 16:9 / High Profile 4.1

AUDIO:

Codec                           Language        Bitrate         Description    
-----                           --------        -------         -----------    
LPCM Audio                      English         4608 kbps       5.1 / 48 kHz / 4608 kbps / 16-bit
LPCM Audio                      Spanish         4608 kbps       5.1 / 48 kHz / 4608 kbps / 16-bit
Dolby Digital Audio             English         640 kbps        5.1 / 48 kHz / 640 kbps / DN -2dB
Dolby Digital Audio             Catalan         640 kbps        5.1 / 48 kHz / 640 kbps
Dolby Digital Audio             Czech           640 kbps        5.1 / 48 kHz / 640 kbps / DN -4dB
Dolby Digital Audio             Hungarian       640 kbps        5.1 / 48 kHz / 640 kbps / DN -1dB
Dolby Digital Audio             Polish          640 kbps        5.1 / 48 kHz / 640 kbps / DN -6dB
Dolby Digital Audio             Russian         640 kbps        5.1 / 48 kHz / 640 kbps / DN -1dB
Dolby Digital Audio             Spanish         640 kbps        5.1 / 48 kHz / 640 kbps / DN -3dB
Dolby Digital Audio             English         192 kbps        2.0 / 48 kHz / 192 kbps / DN -7dB / Dolby Surround

SUBTITLES:

Codec                           Language        Bitrate         Description    
-----                           --------        -------         -----------    
Presentation Graphics           English         53,419 kbps                    
Presentation Graphics           Bulgarian       43,023 kbps                    
Presentation Graphics           Chinese         38,455 kbps                    
Presentation Graphics           Croatian        43,742 kbps                    
Presentation Graphics           Czech           42,950 kbps                    
Presentation Graphics           Dutch           46,168 kbps                    
Presentation Graphics           Dutch           69,695 kbps                    
Presentation Graphics           Estonian        39,532 kbps                    
Presentation Graphics           Finnish         40,641 kbps                    
Presentation Graphics           Greek           50,007 kbps                    
Presentation Graphics           Hindi           48,813 kbps                    
Presentation Graphics           Hungarian       42,709 kbps                    
Presentation Graphics           Lithuanian      44,515 kbps                    
Presentation Graphics           Norwegian       39,677 kbps                    
Presentation Graphics           Polish          38,799 kbps                    
Presentation Graphics           Portuguese      53,124 kbps                    
Presentation Graphics           Portuguese      44,799 kbps                    
Presentation Graphics           Romanian        53,383 kbps                    
Presentation Graphics           Russian         39,024 kbps                    
Presentation Graphics           Slovenian       40,072 kbps                    
Presentation Graphics           Spanish         44,079 kbps                    
Presentation Graphics           Spanish         75,540 kbps                    
Presentation Graphics           Swedish         44,804 kbps                    
Presentation Graphics           Thai            39,211 kbps                    

FILES:

Name            Time In         Length          Size            Total Bitrate  
----            -------         ------          ----            -------------  
00003.M2TS      0:00:00.000     1:57:27.040     39 184 699 392  44 484         

CHAPTERS:

Number          Time In         Length          Avg Video Rate  Max 1-Sec Rate  Max 1-Sec Time  Max 5-Sec Rate  Max 5-Sec Time  Max 10Sec Rate  Max 10Sec Time  Avg Frame Size  Max Frame Size  Max Frame Time 
------          -------         ------          --------------  --------------  --------------  --------------  --------------  --------------  --------------  --------------  --------------  -------------- 
1               0:00:00.000     0:05:09.017     21 242 kbps     57 724 kbps     00:01:11.362    34 487 kbps     00:02:35.530    32 370 kbps     00:01:48.483    110 730 bytes   773 884 bytes   00:01:12.238   
2               0:05:09.017     0:07:27.238     29 161 kbps     38 828 kbps     00:08:25.588    31 907 kbps     00:06:07.575    30 990 kbps     00:07:15.017    152 031 bytes   677 739 bytes   00:06:49.158   
3               0:12:36.255     0:09:49.297     27 975 kbps     50 701 kbps     00:21:37.921    31 864 kbps     00:21:08.141    31 371 kbps     00:21:07.891    145 849 bytes   765 866 bytes   00:21:36.837   
4               0:22:25.552     0:05:44.344     27 793 kbps     35 992 kbps     00:23:44.172    29 846 kbps     00:24:50.238    29 336 kbps     00:24:46.359    144 899 bytes   617 445 bytes   00:27:01.536   
5               0:28:09.896     0:05:24.032     28 228 kbps     43 550 kbps     00:32:00.835    31 124 kbps     00:30:13.686    30 405 kbps     00:30:08.890    147 167 bytes   594 743 bytes   00:29:09.581   
6               0:33:33.928     0:07:44.505     28 096 kbps     48 106 kbps     00:41:12.219    30 804 kbps     00:33:47.900    30 454 kbps     00:40:31.178    146 482 bytes   705 882 bytes   00:39:14.435   
7               0:41:18.434     0:06:57.083     27 890 kbps     37 854 kbps     00:47:15.791    31 769 kbps     00:47:21.922    31 145 kbps     00:47:17.042    145 408 bytes   705 298 bytes   00:47:49.867   
8               0:48:15.517     0:07:33.995     27 766 kbps     35 336 kbps     00:55:44.341    31 420 kbps     00:48:15.517    30 852 kbps     00:48:15.517    144 760 bytes   737 724 bytes   00:55:44.382   
9               0:55:49.512     0:06:27.720     28 102 kbps     36 704 kbps     00:59:12.382    31 240 kbps     00:55:49.929    29 963 kbps     00:57:59.142    146 511 bytes   728 077 bytes   00:57:17.767   
10              1:02:17.233     0:07:03.131     27 827 kbps     37 981 kbps     01:04:20.064    30 953 kbps     01:07:29.170    30 164 kbps     01:07:29.211    145 077 bytes   574 724 bytes   01:03:28.346   
11              1:09:20.364     0:08:29.091     28 012 kbps     36 136 kbps     01:09:30.916    31 145 kbps     01:09:51.478    30 612 kbps     01:09:51.520    146 042 bytes   733 688 bytes   01:12:51.575   
12              1:17:49.456     0:06:44.779     28 049 kbps     38 380 kbps     01:18:37.421    30 899 kbps     01:24:29.230    30 716 kbps     01:24:24.225    146 235 bytes   637 525 bytes   01:17:54.836   
13              1:24:34.235     0:09:23.062     27 587 kbps     37 358 kbps     01:32:22.286    31 084 kbps     01:27:03.801    30 626 kbps     01:27:01.049    143 825 bytes   665 216 bytes   01:32:22.453   
14              1:33:57.298     0:07:21.941     28 499 kbps     38 986 kbps     01:39:42.017    30 891 kbps     01:36:48.552    30 109 kbps     01:39:42.017    148 581 bytes   674 177 bytes   01:36:46.133   
15              1:41:19.239     0:07:10.888     27 893 kbps     37 654 kbps     01:41:41.303    31 032 kbps     01:41:40.803    30 341 kbps     01:41:43.514    145 420 bytes   681 565 bytes   01:45:32.826   
16              1:48:30.128     0:08:56.911     16 899 kbps     44 338 kbps     01:52:32.787    32 327 kbps     01:52:32.746    31 351 kbps     01:50:12.063    88 119 bytes    703 458 bytes   01:51:45.782   

STREAM DIAGNOSTICS:

File            PID             Type            Codec           Language                Seconds                 Bitrate                 Bytes           Packets        
----            ---             ----            -----           --------                --------------          --------------          -------------   -----          
00003.M2TS      4113 (0x1011)   0x1B            AVC                                     7046,957                26 906                  23 700 288 641  128 905 014    
00003.M2TS      4352 (0x1100)   0x81            AC3             eng (English)           7046,957                640                     563 763 200     3 303 300      
00003.M2TS      4353 (0x1101)   0x80            LPCM            eng (English)           7046,957                4 614                   4 064 732 672   22 550 528     
00003.M2TS      4354 (0x1102)   0x81            AC3             spa (Spanish)           7046,957                640                     563 763 200     3 303 300      
00003.M2TS      4355 (0x1103)   0x80            LPCM            spa (Spanish)           7046,957                4 614                   4 064 732 672   22 550 528     
00003.M2TS      4356 (0x1104)   0x81            AC3             rus (Russian)           7046,957                640                     563 763 200     3 303 300      
00003.M2TS      4357 (0x1105)   0x81            AC3             cat (Catalan)           7046,957                640                     563 763 200     3 303 300      
00003.M2TS      4358 (0x1106)   0x81            AC3             ces (Czech)             7046,957                640                     563 763 200     3 303 300      
00003.M2TS      4359 (0x1107)   0x81            AC3             hun (Hungarian)         7046,957                640                     563 763 200     3 303 300      
00003.M2TS      4360 (0x1108)   0x81            AC3             pol (Polish)            7046,957                640                     563 763 200     3 303 300      
00003.M2TS      4361 (0x1109)   0x81            AC3             eng (English)           7046,957                192                     169 128 960     1 101 100      
00003.M2TS      4608 (0x1200)   0x90            PGS             eng (English)           7046,957                53                      47 055 690      264 484        
00003.M2TS      4609 (0x1201)   0x90            PGS             spa (Spanish)           7046,957                44                      38 828 259      219 070        
00003.M2TS      4610 (0x1202)   0x90            PGS             nld (Dutch)             7046,957                46                      40 668 658      228 910        
00003.M2TS      4611 (0x1203)   0x90            PGS             bul (Bulgarian)         7046,957                43                      37 898 064      213 251        
00003.M2TS      4612 (0x1204)   0x90            PGS             hrv (Croatian)          7046,957                44                      38 531 713      218 201        
00003.M2TS      4613 (0x1205)   0x90            PGS             ces (Czech)             7046,957                43                      37 833 888      214 176        
00003.M2TS      4614 (0x1206)   0x90            PGS             rus (Russian)           7046,957                39                      34 375 336      194 797        
00003.M2TS      4615 (0x1207)   0x90            PGS             est (Estonian)          7046,957                40                      34 823 248      194 926        
00003.M2TS      4616 (0x1208)   0x90            PGS             fin (Finnish)           7046,957                41                      35 799 809      202 602        
00003.M2TS      4617 (0x1209)   0x90            PGS             ell (Greek)             7046,957                50                      44 050 525      248 145        
00003.M2TS      4618 (0x120A)   0x90            PGS             hin (Hindi)             7046,957                49                      42 998 587      242 506        
00003.M2TS      4619 (0x120B)   0x90            PGS             hun (Hungarian)         7046,957                43                      37 621 331      213 110        
00003.M2TS      4620 (0x120C)   0x90            PGS             lit (Lithuanian)        7046,957                45                      39 212 802      219 435        
00003.M2TS      4621 (0x120D)   0x90            PGS             nor (Norwegian)         7046,957                40                      34 950 905      197 975        
00003.M2TS      4622 (0x120E)   0x90            PGS             pol (Polish)            7046,957                39                      34 177 382      193 852        
00003.M2TS      4623 (0x120F)   0x90            PGS             por (Portuguese)        7046,957                53                      46 795 529      263 129        
00003.M2TS      4624 (0x1210)   0x90            PGS             ron (Romanian)          7046,957                53                      47 023 805      264 563        
00003.M2TS      4625 (0x1211)   0x90            PGS             slv (Slovenian)         7046,957                40                      35 298 355      200 632        
00003.M2TS      4626 (0x1212)   0x90            PGS             swe (Swedish)           7046,957                45                      39 467 011      222 738        
00003.M2TS      4627 (0x1213)   0x90            PGS             zho (Chinese)           7046,957                38                      33 874 268      192 925        
00003.M2TS      4628 (0x1214)   0x90            PGS             tha (Thai)              7046,957                39                      34 540 153      196 604        
00003.M2TS      4629 (0x1215)   0x90            PGS             por (Portuguese)        7046,957                45                      39 462 800      222 804        
00003.M2TS      4630 (0x1216)   0x90            PGS             spa (Spanish)           7046,957                76                      66 541 778      372 959        
00003.M2TS      4631 (0x1217)   0x90            PGS             nld (Dutch)             7046,957                70                      61 392 695      343 815        

[/code]
<---- END FORUMS PASTE ---->

QUICK SUMMARY:

Disc Title: Pursuit of Happyness, The (2006)
Disc Size: 49 141 081 284 bytes
Protection: AACS
BD-Java: No
Playlist: 00002.MPLS
Size: 39 184 699 392 bytes
Length: 1:57:27
Total Bitrate: 44,48 Mbps
Video: MPEG-4 AVC Video / 26905 kbps / 1080p / 23,976 fps / 16:9 / High Profile 4.1
Audio: English / LPCM Audio / 5.1 / 48 kHz / 4608 kbps / 16-bit
Audio: Spanish / LPCM Audio / 5.1 / 48 kHz / 4608 kbps / 16-bit
Audio: English / Dolby Digital Audio / 5.1 / 48 kHz / 640 kbps / DN -2dB
Audio: Catalan / Dolby Digital Audio / 5.1 / 48 kHz / 640 kbps
Audio: Czech / Dolby Digital Audio / 5.1 / 48 kHz / 640 kbps / DN -4dB
Audio: Hungarian / Dolby Digital Audio / 5.1 / 48 kHz / 640 kbps / DN -1dB
Audio: Polish / Dolby Digital Audio / 5.1 / 48 kHz / 640 kbps / DN -6dB
Audio: Russian / Dolby Digital Audio / 5.1 / 48 kHz / 640 kbps / DN -1dB
Audio: Spanish / Dolby Digital Audio / 5.1 / 48 kHz / 640 kbps / DN -3dB
Audio: English / Dolby Digital Audio / 2.0 / 48 kHz / 192 kbps / DN -7dB / Dolby Surround
Subtitle: English / 53,419 kbps
Subtitle: Bulgarian / 43,023 kbps
Subtitle: Chinese / 38,455 kbps
Subtitle: Croatian / 43,742 kbps
Subtitle: Czech / 42,950 kbps
Subtitle: Dutch / 46,168 kbps
Subtitle: Dutch / 69,695 kbps
Subtitle: Estonian / 39,532 kbps
Subtitle: Finnish / 40,641 kbps
Subtitle: Greek / 50,007 kbps
Subtitle: Hindi / 48,813 kbps
Subtitle: Hungarian / 42,709 kbps
Subtitle: Lithuanian / 44,515 kbps
Subtitle: Norwegian / 39,677 kbps
Subtitle: Polish / 38,799 kbps
Subtitle: Portuguese / 53,124 kbps
Subtitle: Portuguese / 44,799 kbps
Subtitle: Romanian / 53,383 kbps
Subtitle: Russian / 39,024 kbps
Subtitle: Slovenian / 40,072 kbps
Subtitle: Spanish / 44,079 kbps
Subtitle: Spanish / 75,540 kbps
Subtitle: Swedish / 44,804 kbps
Subtitle: Thai / 39,211 kbps


********************
PLAYLIST: 00003.MPLS
********************

<--- BEGIN FORUMS PASTE --->
[code]
                                                                                                                Total   Video                                            
Title                                                           Codec   Length  Movie Size      Disc Size       Bitrate Bitrate Main Audio Track                          Secondary Audio Track
-----                                                           ------  ------- --------------  --------------  ------- ------- ------------------                        ---------------------
00003.MPLS                                                      AVC     1:57:27 39 184 699 392  49 141 081 284  44,48   26,91   LPCM 5.1 4608Kbps (48kHz/16-bit)          DD AC3 5.1 640Kbps
[/code]

[code]

DISC INFO:

Disc Title:     Pursuit of Happyness, The (2006)
Disc Size:      49 141 081 284 bytes
Protection:     AACS
BD-Java:        No
BDInfo:         0.5.6

PLAYLIST REPORT:

Name:                   00003.MPLS
Length:                 1:57:27 (h:m:s)
Size:                   39 184 699 392 bytes
Total Bitrate:          44,48 Mbps

VIDEO:

Codec                   Bitrate             Description    
-----                   -------             -----------    
MPEG-4 AVC Video        26905 kbps          1080p / 23,976 fps / 16:9 / High Profile 4.1

AUDIO:

Codec                           Language        Bitrate         Description    
-----                           --------        -------         -----------    
LPCM Audio                      English         4608 kbps       5.1 / 48 kHz / 4608 kbps / 16-bit
LPCM Audio                      Spanish         4608 kbps       5.1 / 48 kHz / 4608 kbps / 16-bit
Dolby Digital Audio             English         640 kbps        5.1 / 48 kHz / 640 kbps / DN -2dB
Dolby Digital Audio             Catalan         640 kbps        5.1 / 48 kHz / 640 kbps
Dolby Digital Audio             Czech           640 kbps        5.1 / 48 kHz / 640 kbps / DN -4dB
Dolby Digital Audio             Hungarian       640 kbps        5.1 / 48 kHz / 640 kbps / DN -1dB
Dolby Digital Audio             Polish          640 kbps        5.1 / 48 kHz / 640 kbps / DN -6dB
Dolby Digital Audio             Russian         640 kbps        5.1 / 48 kHz / 640 kbps / DN -1dB
Dolby Digital Audio             Spanish         640 kbps        5.1 / 48 kHz / 640 kbps / DN -3dB
Dolby Digital Audio             English         192 kbps        2.0 / 48 kHz / 192 kbps / DN -7dB / Dolby Surround

SUBTITLES:

Codec                           Language        Bitrate         Description    
-----                           --------        -------         -----------    
Presentation Graphics           English         53,419 kbps                    
Presentation Graphics           Bulgarian       43,023 kbps                    
Presentation Graphics           Chinese         38,455 kbps                    
Presentation Graphics           Croatian        43,742 kbps                    
Presentation Graphics           Czech           42,950 kbps                    
Presentation Graphics           Dutch           46,168 kbps                    
Presentation Graphics           Dutch           69,695 kbps                    
Presentation Graphics           Estonian        39,532 kbps                    
Presentation Graphics           Finnish         40,641 kbps                    
Presentation Graphics           Greek           50,007 kbps                    
Presentation Graphics           Hindi           48,813 kbps                    
Presentation Graphics           Hungarian       42,709 kbps                    
Presentation Graphics           Lithuanian      44,515 kbps                    
Presentation Graphics           Norwegian       39,677 kbps                    
Presentation Graphics           Polish          38,799 kbps                    
Presentation Graphics           Portuguese      53,124 kbps                    
Presentation Graphics           Portuguese      44,799 kbps                    
Presentation Graphics           Romanian        53,383 kbps                    
Presentation Graphics           Russian         39,024 kbps                    
Presentation Graphics           Slovenian       40,072 kbps                    
Presentation Graphics           Spanish         44,079 kbps                    
Presentation Graphics           Spanish         75,540 kbps                    
Presentation Graphics           Swedish         44,804 kbps                    
Presentation Graphics           Thai            39,211 kbps                    

FILES:

Name            Time In         Length          Size            Total Bitrate  
----            -------         ------          ----            -------------  
00003.M2TS      0:00:00.000     1:57:27.040     39 184 699 392  44 484         

CHAPTERS:

Number          Time In         Length          Avg Video Rate  Max 1-Sec Rate  Max 1-Sec Time  Max 5-Sec Rate  Max 5-Sec Time  Max 10Sec Rate  Max 10Sec Time  Avg Frame Size  Max Frame Size  Max Frame Time 
------          -------         ------          --------------  --------------  --------------  --------------  --------------  --------------  --------------  --------------  --------------  -------------- 
1               0:00:00.000     0:05:09.017     21 242 kbps     57 724 kbps     00:01:11.362    34 487 kbps     00:02:35.530    32 370 kbps     00:01:48.483    110 730 bytes   773 884 bytes   00:01:12.238   
2               0:05:09.017     0:07:27.238     29 161 kbps     38 828 kbps     00:08:25.588    31 907 kbps     00:06:07.575    30 990 kbps     00:07:15.017    152 031 bytes   677 739 bytes   00:06:49.158   
3               0:12:36.255     0:09:49.297     27 975 kbps     50 701 kbps     00:21:37.921    31 864 kbps     00:21:08.141    31 371 kbps     00:21:07.891    145 849 bytes   765 866 bytes   00:21:36.837   
4               0:22:25.552     0:05:44.344     27 793 kbps     35 992 kbps     00:23:44.172    29 846 kbps     00:24:50.238    29 336 kbps     00:24:46.359    144 899 bytes   617 445 bytes   00:27:01.536   
5               0:28:09.896     0:05:24.032     28 228 kbps     43 550 kbps     00:32:00.835    31 124 kbps     00:30:13.686    30 405 kbps     00:30:08.890    147 167 bytes   594 743 bytes   00:29:09.581   
6               0:33:33.928     0:07:44.505     28 096 kbps     48 106 kbps     00:41:12.219    30 804 kbps     00:33:47.900    30 454 kbps     00:40:31.178    146 482 bytes   705 882 bytes   00:39:14.435   
7               0:41:18.434     0:06:57.083     27 890 kbps     37 854 kbps     00:47:15.791    31 769 kbps     00:47:21.922    31 145 kbps     00:47:17.042    145 408 bytes   705 298 bytes   00:47:49.867   
8               0:48:15.517     0:07:33.995     27 766 kbps     35 336 kbps     00:55:44.341    31 420 kbps     00:48:15.517    30 852 kbps     00:48:15.517    144 760 bytes   737 724 bytes   00:55:44.382   
9               0:55:49.512     0:06:27.720     28 102 kbps     36 704 kbps     00:59:12.382    31 240 kbps     00:55:49.929    29 963 kbps     00:57:59.142    146 511 bytes   728 077 bytes   00:57:17.767   
10              1:02:17.233     0:07:03.131     27 827 kbps     37 981 kbps     01:04:20.064    30 953 kbps     01:07:29.170    30 164 kbps     01:07:29.211    145 077 bytes   574 724 bytes   01:03:28.346   
11              1:09:20.364     0:08:29.091     28 012 kbps     36 136 kbps     01:09:30.916    31 145 kbps     01:09:51.478    30 612 kbps     01:09:51.520    146 042 bytes   733 688 bytes   01:12:51.575   
12              1:17:49.456     0:06:44.779     28 049 kbps     38 380 kbps     01:18:37.421    30 899 kbps     01:24:29.230    30 716 kbps     01:24:24.225    146 235 bytes   637 525 bytes   01:17:54.836   
13              1:24:34.235     0:09:23.062     27 587 kbps     37 358 kbps     01:32:22.286    31 084 kbps     01:27:03.801    30 626 kbps     01:27:01.049    143 825 bytes   665 216 bytes   01:32:22.453   
14              1:33:57.298     0:07:21.941     28 499 kbps     38 986 kbps     01:39:42.017    30 891 kbps     01:36:48.552    30 109 kbps     01:39:42.017    148 581 bytes   674 177 bytes   01:36:46.133   
15              1:41:19.239     0:07:10.888     27 893 kbps     37 654 kbps     01:41:41.303    31 032 kbps     01:41:40.803    30 341 kbps     01:41:43.514    145 420 bytes   681 565 bytes   01:45:32.826   
16              1:48:30.128     0:08:56.911     16 899 kbps     44 338 kbps     01:52:32.787    32 327 kbps     01:52:32.746    31 351 kbps     01:50:12.063    88 119 bytes    703 458 bytes   01:51:45.782   

STREAM DIAGNOSTICS:

File            PID             Type            Codec           Language                Seconds                 Bitrate                 Bytes           Packets        
----            ---             ----            -----           --------                --------------          --------------          -------------   -----          
00003.M2TS      4113 (0x1011)   0x1B            AVC                                     7046,957                26 906                  23 700 288 641  128 905 014    
00003.M2TS      4352 (0x1100)   0x81            AC3             eng (English)           7046,957                640                     563 763 200     3 303 300      
00003.M2TS      4353 (0x1101)   0x80            LPCM            eng (English)           7046,957                4 614                   4 064 732 672   22 550 528     
00003.M2TS      4354 (0x1102)   0x81            AC3             spa (Spanish)           7046,957                640                     563 763 200     3 303 300      
00003.M2TS      4355 (0x1103)   0x80            LPCM            spa (Spanish)           7046,957                4 614                   4 064 732 672   22 550 528     
00003.M2TS      4356 (0x1104)   0x81            AC3             rus (Russian)           7046,957                640                     563 763 200     3 303 300      
00003.M2TS      4357 (0x1105)   0x81            AC3             cat (Catalan)           7046,957                640                     563 763 200     3 303 300      
00003.M2TS      4358 (0x1106)   0x81            AC3             ces (Czech)             7046,957                640                     563 763 200     3 303 300      
00003.M2TS      4359 (0x1107)   0x81            AC3             hun (Hungarian)         7046,957                640                     563 763 200     3 303 300      
00003.M2TS      4360 (0x1108)   0x81            AC3             pol (Polish)            7046,957                640                     563 763 200     3 303 300      
00003.M2TS      4361 (0x1109)   0x81            AC3             eng (English)           7046,957                192                     169 128 960     1 101 100      
00003.M2TS      4608 (0x1200)   0x90            PGS             eng (English)           7046,957                53                      47 055 690      264 484        
00003.M2TS      4609 (0x1201)   0x90            PGS             spa (Spanish)           7046,957                44                      38 828 259      219 070        
00003.M2TS      4610 (0x1202)   0x90            PGS             nld (Dutch)             7046,957                46                      40 668 658      228 910        
00003.M2TS      4611 (0x1203)   0x90            PGS             bul (Bulgarian)         7046,957                43                      37 898 064      213 251        
00003.M2TS      4612 (0x1204)   0x90            PGS             hrv (Croatian)          7046,957                44                      38 531 713      218 201        
00003.M2TS      4613 (0x1205)   0x90            PGS             ces (Czech)             7046,957                43                      37 833 888      214 176        
00003.M2TS      4614 (0x1206)   0x90            PGS             rus (Russian)           7046,957                39                      34 375 336      194 797        
00003.M2TS      4615 (0x1207)   0x90            PGS             est (Estonian)          7046,957                40                      34 823 248      194 926        
00003.M2TS      4616 (0x1208)   0x90            PGS             fin (Finnish)           7046,957                41                      35 799 809      202 602        
00003.M2TS      4617 (0x1209)   0x90            PGS             ell (Greek)             7046,957                50                      44 050 525      248 145        
00003.M2TS      4618 (0x120A)   0x90            PGS             hin (Hindi)             7046,957                49                      42 998 587      242 506        
00003.M2TS      4619 (0x120B)   0x90            PGS             hun (Hungarian)         7046,957                43                      37 621 331      213 110        
00003.M2TS      4620 (0x120C)   0x90            PGS             lit (Lithuanian)        7046,957                45                      39 212 802      219 435        
00003.M2TS      4621 (0x120D)   0x90            PGS             nor (Norwegian)         7046,957                40                      34 950 905      197 975        
00003.M2TS      4622 (0x120E)   0x90            PGS             pol (Polish)            7046,957                39                      34 177 382      193 852        
00003.M2TS      4623 (0x120F)   0x90            PGS             por (Portuguese)        7046,957                53                      46 795 529      263 129        
00003.M2TS      4624 (0x1210)   0x90            PGS             ron (Romanian)          7046,957                53                      47 023 805      264 563        
00003.M2TS      4625 (0x1211)   0x90            PGS             slv (Slovenian)         7046,957                40                      35 298 355      200 632        
00003.M2TS      4626 (0x1212)   0x90            PGS             swe (Swedish)           7046,957                45                      39 467 011      222 738        
00003.M2TS      4627 (0x1213)   0x90            PGS             zho (Chinese)           7046,957                38                      33 874 268      192 925        
00003.M2TS      4628 (0x1214)   0x90            PGS             tha (Thai)              7046,957                39                      34 540 153      196 604        
00003.M2TS      4629 (0x1215)   0x90            PGS             por (Portuguese)        7046,957                45                      39 462 800      222 804        
00003.M2TS      4630 (0x1216)   0x90            PGS             spa (Spanish)           7046,957                76                      66 541 778      372 959        
00003.M2TS      4631 (0x1217)   0x90            PGS             nld (Dutch)             7046,957                70                      61 392 695      343 815        

[/code]
<---- END FORUMS PASTE ---->

QUICK SUMMARY:

Disc Title: Pursuit of Happyness, The (2006)
Disc Size: 49 141 081 284 bytes
Protection: AACS
BD-Java: No
Playlist: 00003.MPLS
Size: 39 184 699 392 bytes
Length: 1:57:27
Total Bitrate: 44,48 Mbps
Video: MPEG-4 AVC Video / 26905 kbps / 1080p / 23,976 fps / 16:9 / High Profile 4.1
Audio: English / LPCM Audio / 5.1 / 48 kHz / 4608 kbps / 16-bit
Audio: Spanish / LPCM Audio / 5.1 / 48 kHz / 4608 kbps / 16-bit
Audio: English / Dolby Digital Audio / 5.1 / 48 kHz / 640 kbps / DN -2dB
Audio: Catalan / Dolby Digital Audio / 5.1 / 48 kHz / 640 kbps
Audio: Czech / Dolby Digital Audio / 5.1 / 48 kHz / 640 kbps / DN -4dB
Audio: Hungarian / Dolby Digital Audio / 5.1 / 48 kHz / 640 kbps / DN -1dB
Audio: Polish / Dolby Digital Audio / 5.1 / 48 kHz / 640 kbps / DN -6dB
Audio: Russian / Dolby Digital Audio / 5.1 / 48 kHz / 640 kbps / DN -1dB
Audio: Spanish / Dolby Digital Audio / 5.1 / 48 kHz / 640 kbps / DN -3dB
Audio: English / Dolby Digital Audio / 2.0 / 48 kHz / 192 kbps / DN -7dB / Dolby Surround
Subtitle: English / 53,419 kbps
Subtitle: Bulgarian / 43,023 kbps
Subtitle: Chinese / 38,455 kbps
Subtitle: Croatian / 43,742 kbps
Subtitle: Czech / 42,950 kbps
Subtitle: Dutch / 46,168 kbps
Subtitle: Dutch / 69,695 kbps
Subtitle: Estonian / 39,532 kbps
Subtitle: Finnish / 40,641 kbps
Subtitle: Greek / 50,007 kbps
Subtitle: Hindi / 48,813 kbps
Subtitle: Hungarian / 42,709 kbps
Subtitle: Lithuanian / 44,515 kbps
Subtitle: Norwegian / 39,677 kbps
Subtitle: Polish / 38,799 kbps
Subtitle: Portuguese / 53,124 kbps
Subtitle: Portuguese / 44,799 kbps
Subtitle: Romanian / 53,383 kbps
Subtitle: Russian / 39,024 kbps
Subtitle: Slovenian / 40,072 kbps
Subtitle: Spanish / 44,079 kbps
Subtitle: Spanish / 75,540 kbps
Subtitle: Swedish / 44,804 kbps
Subtitle: Thai / 39,211 kbps


********************
PLAYLIST: 00012.MPLS
********************

<--- BEGIN FORUMS PASTE --->
[code]
                                                                                                                Total   Video                                            
Title                                                           Codec   Length  Movie Size      Disc Size       Bitrate Bitrate Main Audio Track                          Secondary Audio Track
-----                                                           ------  ------- --------------  --------------  ------- ------- ------------------                        ---------------------
00012.MPLS                                                      MPEG-2  0:17:36 2 518 253 568   49 141 081 284  19,07   17,71   DD AC3 2.0 192Kbps                       
[/code]

[code]

DISC INFO:

Disc Title:     Pursuit of Happyness, The (2006)
Disc Size:      49 141 081 284 bytes
Protection:     AACS
BD-Java:        No
BDInfo:         0.5.6

PLAYLIST REPORT:

Name:                   00012.MPLS
Length:                 0:17:36 (h:m:s)
Size:                   2 518 253 568 bytes
Total Bitrate:          19,07 Mbps

VIDEO:

Codec                   Bitrate             Description    
-----                   -------             -----------    
MPEG-2 Video            17708 kbps          1080p / 23,976 fps / 16:9

AUDIO:

Codec                           Language        Bitrate         Description    
-----                           --------        -------         -----------    
Dolby Digital Audio             English         192 kbps        2.0 / 48 kHz / 192 kbps / DN -5dB

SUBTITLES:

Codec                           Language        Bitrate         Description    
-----                           --------        -------         -----------    
Presentation Graphics           Dutch           89,428 kbps                    
Presentation Graphics           Portuguese      87,738 kbps                    
Presentation Graphics           Spanish         84,446 kbps                    

FILES:

Name            Time In         Length          Size            Total Bitrate  
----            -------         ------          ----            -------------  
00013.M2TS      0:00:00.000     0:17:36.305     2 518 253 568   19 072         

CHAPTERS:

Number          Time In         Length          Avg Video Rate  Max 1-Sec Rate  Max 1-Sec Time  Max 5-Sec Rate  Max 5-Sec Time  Max 10Sec Rate  Max 10Sec Time  Avg Frame Size  Max Frame Size  Max Frame Time 
------          -------         ------          --------------  --------------  --------------  --------------  --------------  --------------  --------------  --------------  --------------  -------------- 
1               0:00:00.000     0:17:36.305     17 708 kbps     33 654 kbps     00:00:39.914    23 366 kbps     00:13:04.992    22 008 kbps     00:06:22.256    92 324 bytes    589 270 bytes   00:00:00.417   

STREAM DIAGNOSTICS:

File            PID             Type            Codec           Language                Seconds                 Bitrate                 Bytes           Packets        
----            ---             ----            -----           --------                --------------          --------------          -------------   -----          
00013.M2TS      4113 (0x1011)   0x02            MPEG-2                                  1056,180                17 711                  2 338 197 220   12 722 258     
00013.M2TS      4352 (0x1100)   0x81            AC3             eng (English)           1056,180                192                     25 351 680      165 050        
00013.M2TS      4608 (0x1200)   0x90            PGS             nld (Dutch)             1056,180                89                      11 807 904      65 988         
00013.M2TS      4609 (0x1201)   0x90            PGS             por (Portuguese)        1056,180                88                      11 584 759      64 809         
00013.M2TS      4610 (0x1202)   0x90            PGS             spa (Spanish)           1056,180                84                      11 150 152      62 389         

[/code]
<---- END FORUMS PASTE ---->

QUICK SUMMARY:

Disc Title: Pursuit of Happyness, The (2006)
Disc Size: 49 141 081 284 bytes
Protection: AACS
BD-Java: No
Playlist: 00012.MPLS
Size: 2 518 253 568 bytes
Length: 0:17:36
Total Bitrate: 19,07 Mbps
Video: MPEG-2 Video / 17708 kbps / 1080p / 23,976 fps / 16:9
Audio: English / Dolby Digital Audio / 2.0 / 48 kHz / 192 kbps / DN -5dB
Subtitle: Dutch / 89,428 kbps
Subtitle: Portuguese / 87,738 kbps
Subtitle: Spanish / 84,446 kbps


********************
PLAYLIST: 00014.MPLS
********************

<--- BEGIN FORUMS PASTE --->
[code]
                                                                                                                Total   Video                                            
Title                                                           Codec   Length  Movie Size      Disc Size       Bitrate Bitrate Main Audio Track                          Secondary Audio Track
-----                                                           ------  ------- --------------  --------------  ------- ------- ------------------                        ---------------------
00014.MPLS                                                      MPEG-2  0:13:02 1 842 690 048   49 141 081 284  18,83   17,48   DD AC3 2.0 192Kbps                       
[/code]

[code]

DISC INFO:

Disc Title:     Pursuit of Happyness, The (2006)
Disc Size:      49 141 081 284 bytes
Protection:     AACS
BD-Java:        No
BDInfo:         0.5.6

PLAYLIST REPORT:

Name:                   00014.MPLS
Length:                 0:13:02 (h:m:s)
Size:                   1 842 690 048 bytes
Total Bitrate:          18,83 Mbps

VIDEO:

Codec                   Bitrate             Description    
-----                   -------             -----------    
MPEG-2 Video            17483 kbps          1080p / 23,976 fps / 16:9

AUDIO:

Codec                           Language        Bitrate         Description    
-----                           --------        -------         -----------    
Dolby Digital Audio             English         192 kbps        2.0 / 48 kHz / 192 kbps / DN -5dB

SUBTITLES:

Codec                           Language        Bitrate         Description    
-----                           --------        -------         -----------    
Presentation Graphics           Dutch           86,588 kbps                    
Presentation Graphics           Portuguese      84,123 kbps                    
Presentation Graphics           Spanish         83,455 kbps                    

FILES:

Name            Time In         Length          Size            Total Bitrate  
----            -------         ------          ----            -------------  
00015.M2TS      0:00:00.000     0:13:02.907     1 842 690 048   18 829         

CHAPTERS:

Number          Time In         Length          Avg Video Rate  Max 1-Sec Rate  Max 1-Sec Time  Max 5-Sec Rate  Max 5-Sec Time  Max 10Sec Rate  Max 10Sec Time  Avg Frame Size  Max Frame Size  Max Frame Time 
------          -------         ------          --------------  --------------  --------------  --------------  --------------  --------------  --------------  --------------  --------------  -------------- 
1               0:00:00.000     0:13:02.907     17 483 kbps     33 350 kbps     00:01:23.708    25 403 kbps     00:00:19.894    23 927 kbps     00:00:19.853    91 146 bytes    614 336 bytes   00:04:30.311   

STREAM DIAGNOSTICS:

File            PID             Type            Codec           Language                Seconds                 Bitrate                 Bytes           Packets        
----            ---             ----            -----           --------                --------------          --------------          -------------   -----          
00015.M2TS      4113 (0x1011)   0x02            MPEG-2                                  782,782                 17 485                  1 710 906 210   9 309 499      
00015.M2TS      4352 (0x1100)   0x81            AC3             eng (English)           782,782                 192                     18 789 888      122 330        
00015.M2TS      4608 (0x1200)   0x90            PGS             nld (Dutch)             782,782                 87                      8 473 819       47 394         
00015.M2TS      4609 (0x1201)   0x90            PGS             por (Portuguese)        782,782                 84                      8 232 529       46 110         
00015.M2TS      4610 (0x1202)   0x90            PGS             spa (Spanish)           782,782                 83                      8 167 146       45 751         

[/code]
<---- END FORUMS PASTE ---->

QUICK SUMMARY:

Disc Title: Pursuit of Happyness, The (2006)
Disc Size: 49 141 081 284 bytes
Protection: AACS
BD-Java: No
Playlist: 00014.MPLS
Size: 1 842 690 048 bytes
Length: 0:13:02
Total Bitrate: 18,83 Mbps
Video: MPEG-2 Video / 17483 kbps / 1080p / 23,976 fps / 16:9
Audio: English / Dolby Digital Audio / 2.0 / 48 kHz / 192 kbps / DN -5dB
Subtitle: Dutch / 86,588 kbps
Subtitle: Portuguese / 84,123 kbps
Subtitle: Spanish / 83,455 kbps


********************
PLAYLIST: 00013.MPLS
********************

<--- BEGIN FORUMS PASTE --->
[code]
                                                                                                                Total   Video                                            
Title                                                           Codec   Length  Movie Size      Disc Size       Bitrate Bitrate Main Audio Track                          Secondary Audio Track
-----                                                           ------  ------- --------------  --------------  ------- ------- ------------------                        ---------------------
00013.MPLS                                                      MPEG-2  0:07:30 1 052 418 048   49 141 081 284  18,70   17,38   DD AC3 2.0 192Kbps                       
[/code]

[code]

DISC INFO:

Disc Title:     Pursuit of Happyness, The (2006)
Disc Size:      49 141 081 284 bytes
Protection:     AACS
BD-Java:        No
BDInfo:         0.5.6

PLAYLIST REPORT:

Name:                   00013.MPLS
Length:                 0:07:30 (h:m:s)
Size:                   1 052 418 048 bytes
Total Bitrate:          18,70 Mbps

VIDEO:

Codec                   Bitrate             Description    
-----                   -------             -----------    
MPEG-2 Video            17375 kbps          1080p / 23,976 fps / 16:9

AUDIO:

Codec                           Language        Bitrate         Description    
-----                           --------        -------         -----------    
Dolby Digital Audio             English         192 kbps        2.0 / 48 kHz / 192 kbps / DN -5dB

SUBTITLES:

Codec                           Language        Bitrate         Description    
-----                           --------        -------         -----------    
Presentation Graphics           Dutch           80,051 kbps                    
Presentation Graphics           Portuguese      78,301 kbps                    
Presentation Graphics           Spanish         77,434 kbps                    

FILES:

Name            Time In         Length          Size            Total Bitrate  
----            -------         ------          ----            -------------  
00014.M2TS      0:00:00.000     0:07:30.283     1 052 418 048   18 698         

CHAPTERS:

Number          Time In         Length          Avg Video Rate  Max 1-Sec Rate  Max 1-Sec Time  Max 5-Sec Rate  Max 5-Sec Time  Max 10Sec Rate  Max 10Sec Time  Avg Frame Size  Max Frame Size  Max Frame Time 
------          -------         ------          --------------  --------------  --------------  --------------  --------------  --------------  --------------  --------------  --------------  -------------- 
1               0:00:00.000     0:07:30.283     17 375 kbps     29 929 kbps     00:01:57.784    23 994 kbps     00:01:23.082    22 401 kbps     00:00:03.378    90 585 bytes    638 591 bytes   00:02:04.290   

STREAM DIAGNOSTICS:

File            PID             Type            Codec           Language                Seconds                 Bitrate                 Bytes           Packets        
----            ---             ----            -----           --------                --------------          --------------          -------------   -----          
00014.M2TS      4113 (0x1011)   0x02            MPEG-2                                  450,200                 17 378                  977 960 675     5 321 273      
00014.M2TS      4352 (0x1100)   0x81            AC3             eng (English)           450,200                 192                     10 807 296      70 360         
00014.M2TS      4608 (0x1200)   0x90            PGS             nld (Dutch)             450,200                 80                      4 505 690       25 321         
00014.M2TS      4609 (0x1201)   0x90            PGS             por (Portuguese)        450,200                 78                      4 407 218       24 792         
00014.M2TS      4610 (0x1202)   0x90            PGS             spa (Spanish)           450,200                 77                      4 358 384       24 491         

[/code]
<---- END FORUMS PASTE ---->

QUICK SUMMARY:

Disc Title: Pursuit of Happyness, The (2006)
Disc Size: 49 141 081 284 bytes
Protection: AACS
BD-Java: No
Playlist: 00013.MPLS
Size: 1 052 418 048 bytes
Length: 0:07:30
Total Bitrate: 18,70 Mbps
Video: MPEG-2 Video / 17375 kbps / 1080p / 23,976 fps / 16:9
Audio: English / Dolby Digital Audio / 2.0 / 48 kHz / 192 kbps / DN -5dB
Subtitle: Dutch / 80,051 kbps
Subtitle: Portuguese / 78,301 kbps
Subtitle: Spanish / 77,434 kbps


********************
PLAYLIST: 00015.MPLS
********************

<--- BEGIN FORUMS PASTE --->
[code]
                                                                                                                Total   Video                                            
Title                                                           Codec   Length  Movie Size      Disc Size       Bitrate Bitrate Main Audio Track                          Secondary Audio Track
-----                                                           ------  ------- --------------  --------------  ------- ------- ------------------                        ---------------------
00015.MPLS                                                      MPEG-2  0:06:44 954 783 744     49 141 081 284  18,87   17,52   DD AC3 2.0 192Kbps                       
[/code]

[code]

DISC INFO:

Disc Title:     Pursuit of Happyness, The (2006)
Disc Size:      49 141 081 284 bytes
Protection:     AACS
BD-Java:        No
BDInfo:         0.5.6

PLAYLIST REPORT:

Name:                   00015.MPLS
Length:                 0:06:44 (h:m:s)
Size:                   954 783 744 bytes
Total Bitrate:          18,87 Mbps

VIDEO:

Codec                   Bitrate             Description    
-----                   -------             -----------    
MPEG-2 Video            17521 kbps          1080p / 23,976 fps / 16:9

AUDIO:

Codec                           Language        Bitrate         Description    
-----                           --------        -------         -----------    
Dolby Digital Audio             English         192 kbps        2.0 / 48 kHz / 192 kbps / DN -5dB

SUBTITLES:

Codec                           Language        Bitrate         Description    
-----                           --------        -------         -----------    
Presentation Graphics           Dutch           86,710 kbps                    
Presentation Graphics           Portuguese      85,652 kbps                    
Presentation Graphics           Spanish         86,508 kbps                    

FILES:

Name            Time In         Length          Size            Total Bitrate  
----            -------         ------          ----            -------------  
00016.M2TS      0:00:00.000     0:06:44.695     954 783 744     18 874         

CHAPTERS:

Number          Time In         Length          Avg Video Rate  Max 1-Sec Rate  Max 1-Sec Time  Max 5-Sec Rate  Max 5-Sec Time  Max 10Sec Rate  Max 10Sec Time  Avg Frame Size  Max Frame Size  Max Frame Time 
------          -------         ------          --------------  --------------  --------------  --------------  --------------  --------------  --------------  --------------  --------------  -------------- 
1               0:00:00.000     0:06:44.695     17 521 kbps     30 463 kbps     00:01:32.967    25 682 kbps     00:01:46.481    22 862 kbps     00:04:53.668    91 348 bytes    505 183 bytes   00:00:00.417   

STREAM DIAGNOSTICS:

File            PID             Type            Codec           Language                Seconds                 Bitrate                 Bytes           Packets        
----            ---             ----            -----           --------                --------------          --------------          -------------   -----          
00016.M2TS      4113 (0x1011)   0x02            MPEG-2                                  404,529                 17 529                  886 351 226     4 822 896      
00016.M2TS      4352 (0x1100)   0x81            AC3             eng (English)           404,529                 192                     9 712 896       63 235         
00016.M2TS      4608 (0x1200)   0x90            PGS             nld (Dutch)             404,529                 87                      4 386 401       24 460         
00016.M2TS      4609 (0x1201)   0x90            PGS             por (Portuguese)        404,529                 86                      4 332 855       24 219         
00016.M2TS      4610 (0x1202)   0x90            PGS             spa (Spanish)           404,529                 87                      4 376 156       24 454         

[/code]
<---- END FORUMS PASTE ---->

QUICK SUMMARY:

Disc Title: Pursuit of Happyness, The (2006)
Disc Size: 49 141 081 284 bytes
Protection: AACS
BD-Java: No
Playlist: 00015.MPLS
Size: 954 783 744 bytes
Length: 0:06:44
Total Bitrate: 18,87 Mbps
Video: MPEG-2 Video / 17521 kbps / 1080p / 23,976 fps / 16:9
Audio: English / Dolby Digital Audio / 2.0 / 48 kHz / 192 kbps / DN -5dB
Subtitle: Dutch / 86,710 kbps
Subtitle: Portuguese / 85,652 kbps
Subtitle: Spanish / 86,508 kbps


********************
PLAYLIST: 00074.MPLS
********************

<--- BEGIN FORUMS PASTE --->
[code]
                                                                                                                Total   Video                                            
Title                                                           Codec   Length  Movie Size      Disc Size       Bitrate Bitrate Main Audio Track                          Secondary Audio Track
-----                                                           ------  ------- --------------  --------------  ------- ------- ------------------                        ---------------------
00074.MPLS                                                      MPEG-2  0:05:10 12 525 888      49 141 081 284  0,32    0,01    DD AC3 2.0 192Kbps                       
[/code]

[code]

DISC INFO:

Disc Title:     Pursuit of Happyness, The (2006)
Disc Size:      49 141 081 284 bytes
Protection:     AACS
BD-Java:        No
BDInfo:         0.5.6

PLAYLIST REPORT:

Name:                   00074.MPLS
Length:                 0:05:10 (h:m:s)
Size:                   12 525 888 bytes
Total Bitrate:          0,32 Mbps

VIDEO:

Codec                   Bitrate             Description    
-----                   -------             -----------    
MPEG-2 Video            15 kbps             1080p / 23,976 fps / 16:9

AUDIO:

Codec                           Language        Bitrate         Description    
-----                           --------        -------         -----------    
Dolby Digital Audio             English         192 kbps        2.0 / 48 kHz / 192 kbps / DN -4dB

FILES:

Name            Time In         Length          Size            Total Bitrate  
----            -------         ------          ----            -------------  
00072.M2TS      0:00:00.000     0:00:00.166     307 200         8 418          
00072.M2TS      0:00:00.166     0:05:10.101     11 907 072      154            
00072.M2TS      0:05:10.268     0:00:00.041     311 616         59 767         

CHAPTERS:

Number          Time In         Length          Avg Video Rate  Max 1-Sec Rate  Max 1-Sec Time  Max 5-Sec Rate  Max 5-Sec Time  Max 10Sec Rate  Max 10Sec Time  Avg Frame Size  Max Frame Size  Max Frame Time 
------          -------         ------          --------------  --------------  --------------  --------------  --------------  --------------  --------------  --------------  --------------  -------------- 
1               0:00:00.000     0:05:10.309     45 kbps         15 kbps         00:00:00.125    15 kbps         00:00:00.125    15 kbps         00:00:00.125    289 140 bytes   289 140 bytes   00:00:00.125   

STREAM DIAGNOSTICS:

File            PID             Type            Codec           Language                Seconds                 Bitrate                 Bytes           Packets        
----            ---             ----            -----           --------                --------------          --------------          -------------   -----          
00072.M2TS      4113 (0x1011)   0x02            MPEG-2                                  310,101                 22                      867 420         4 716          
00072.M2TS      4352 (0x1100)   0x81            AC3             eng (English)           310,101                 192                     7 448 064       48 490         

[/code]
<---- END FORUMS PASTE ---->

QUICK SUMMARY:

Disc Title: Pursuit of Happyness, The (2006)
Disc Size: 49 141 081 284 bytes
Protection: AACS
BD-Java: No
Playlist: 00074.MPLS
Size: 12 525 888 bytes
Length: 0:05:10
Total Bitrate: 0,32 Mbps
Video: MPEG-2 Video / 15 kbps / 1080p / 23,976 fps / 16:9
Audio: English / Dolby Digital Audio / 2.0 / 48 kHz / 192 kbps / DN -4dB


********************
PLAYLIST: 00075.MPLS
********************

<--- BEGIN FORUMS PASTE --->
[code]
                                                                                                                Total   Video                                            
Title                                                           Codec   Length  Movie Size      Disc Size       Bitrate Bitrate Main Audio Track                          Secondary Audio Track
-----                                                           ------  ------- --------------  --------------  ------- ------- ------------------                        ---------------------
00075.MPLS                                                      MPEG-2  0:05:10 12 534 720      49 141 081 284  0,32    0,01    DD AC3 2.0 192Kbps                       
[/code]

[code]

DISC INFO:

Disc Title:     Pursuit of Happyness, The (2006)
Disc Size:      49 141 081 284 bytes
Protection:     AACS
BD-Java:        No
BDInfo:         0.5.6

PLAYLIST REPORT:

Name:                   00075.MPLS
Length:                 0:05:10 (h:m:s)
Size:                   12 534 720 bytes
Total Bitrate:          0,32 Mbps

VIDEO:

Codec                   Bitrate             Description    
-----                   -------             -----------    
MPEG-2 Video            15 kbps             1080p / 23,976 fps / 16:9

AUDIO:

Codec                           Language        Bitrate         Description    
-----                           --------        -------         -----------    
Dolby Digital Audio             English         192 kbps        2.0 / 48 kHz / 192 kbps / DN -4dB

FILES:

Name            Time In         Length          Size            Total Bitrate  
----            -------         ------          ----            -------------  
00073.M2TS      0:00:00.000     0:00:00.166     308 928         8 465          
00073.M2TS      0:00:00.166     0:05:10.101     11 911 488      154            
00073.M2TS      0:05:10.268     0:00:00.041     314 304         60 282         

CHAPTERS:

Number          Time In         Length          Avg Video Rate  Max 1-Sec Rate  Max 1-Sec Time  Max 5-Sec Rate  Max 5-Sec Time  Max 10Sec Rate  Max 10Sec Time  Avg Frame Size  Max Frame Size  Max Frame Time 
------          -------         ------          --------------  --------------  --------------  --------------  --------------  --------------  --------------  --------------  --------------  -------------- 
1               0:00:00.000     0:05:10.309     45 kbps         15 kbps         00:00:00.125    15 kbps         00:00:00.125    15 kbps         00:00:00.125    290 788 bytes   290 788 bytes   00:00:00.125   

STREAM DIAGNOSTICS:

File            PID             Type            Codec           Language                Seconds                 Bitrate                 Bytes           Packets        
----            ---             ----            -----           --------                --------------          --------------          -------------   -----          
00073.M2TS      4113 (0x1011)   0x02            MPEG-2                                  310,101                 23                      872 364         4 743          
00073.M2TS      4352 (0x1100)   0x81            AC3             eng (English)           310,101                 192                     7 448 064       48 490         

[/code]
<---- END FORUMS PASTE ---->

QUICK SUMMARY:

Disc Title: Pursuit of Happyness, The (2006)
Disc Size: 49 141 081 284 bytes
Protection: AACS
BD-Java: No
Playlist: 00075.MPLS
Size: 12 534 720 bytes
Length: 0:05:10
Total Bitrate: 0,32 Mbps
Video: MPEG-2 Video / 15 kbps / 1080p / 23,976 fps / 16:9
Audio: English / Dolby Digital Audio / 2.0 / 48 kHz / 192 kbps / DN -4dB


********************
PLAYLIST: 00031.MPLS
********************

<--- BEGIN FORUMS PASTE --->
[code]
                                                                                                                Total   Video                                            
Title                                                           Codec   Length  Movie Size      Disc Size       Bitrate Bitrate Main Audio Track                          Secondary Audio Track
-----                                                           ------  ------- --------------  --------------  ------- ------- ------------------                        ---------------------
00031.MPLS                                                      MPEG-2  0:02:34 364 296 192     49 141 081 284  18,91   17,24   DD AC3 5.1 640Kbps                       
[/code]

[code]

DISC INFO:

Disc Title:     Pursuit of Happyness, The (2006)
Disc Size:      49 141 081 284 bytes
Protection:     AACS
BD-Java:        No
BDInfo:         0.5.6

PLAYLIST REPORT:

Name:                   00031.MPLS
Length:                 0:02:34 (h:m:s)
Size:                   364 296 192 bytes
Total Bitrate:          18,91 Mbps

VIDEO:

Codec                   Bitrate             Description    
-----                   -------             -----------    
MPEG-2 Video            17242 kbps          1080p / 23,976 fps / 16:9

AUDIO:

Codec                           Language        Bitrate         Description    
-----                           --------        -------         -----------    
Dolby Digital Audio             English         640 kbps        5.1 / 48 kHz / 640 kbps / DN -3dB

SUBTITLES:

Codec                           Language        Bitrate         Description    
-----                           --------        -------         -----------    
Presentation Graphics           Dutch           54,490 kbps                    
Presentation Graphics           Spanish         57,680 kbps                    

FILES:

Name            Time In         Length          Size            Total Bitrate  
----            -------         ------          ----            -------------  
00031.M2TS      0:00:00.000     0:02:34.154     364 296 192     18 906         

CHAPTERS:

Number          Time In         Length          Avg Video Rate  Max 1-Sec Rate  Max 1-Sec Time  Max 5-Sec Rate  Max 5-Sec Time  Max 10Sec Rate  Max 10Sec Time  Avg Frame Size  Max Frame Size  Max Frame Time 
------          -------         ------          --------------  --------------  --------------  --------------  --------------  --------------  --------------  --------------  --------------  -------------- 
1               0:00:00.000     0:02:34.154     17 242 kbps     29 684 kbps     00:02:16.678    23 255 kbps     00:02:14.926    21 631 kbps     00:02:11.339    89 889 bytes    576 030 bytes   00:00:36.953   

STREAM DIAGNOSTICS:

File            PID             Type            Codec           Language                Seconds                 Bitrate                 Bytes           Packets        
----            ---             ----            -----           --------                --------------          --------------          -------------   -----          
00031.M2TS      4113 (0x1011)   0x02            MPEG-2                                  154,029                 17 256                  332 230 819     1 807 742      
00031.M2TS      4352 (0x1100)   0x81            AC3             eng (English)           154,029                 641                     12 334 080      72 270         
00031.M2TS      4608 (0x1200)   0x90            PGS             nld (Dutch)             154,029                 55                      1 049 977       5 905          
00031.M2TS      4609 (0x1201)   0x90            PGS             spa (Spanish)           154,029                 58                      1 111 459       6 250          

[/code]
<---- END FORUMS PASTE ---->

QUICK SUMMARY:

Disc Title: Pursuit of Happyness, The (2006)
Disc Size: 49 141 081 284 bytes
Protection: AACS
BD-Java: No
Playlist: 00031.MPLS
Size: 364 296 192 bytes
Length: 0:02:34
Total Bitrate: 18,91 Mbps
Video: MPEG-2 Video / 17242 kbps / 1080p / 23,976 fps / 16:9
Audio: English / Dolby Digital Audio / 5.1 / 48 kHz / 640 kbps / DN -3dB
Subtitle: Dutch / 54,490 kbps
Subtitle: Spanish / 57,680 kbps


********************
PLAYLIST: 00029.MPLS
********************

<--- BEGIN FORUMS PASTE --->
[code]
                                                                                                                Total   Video                                            
Title                                                           Codec   Length  Movie Size      Disc Size       Bitrate Bitrate Main Audio Track                          Secondary Audio Track
-----                                                           ------  ------- --------------  --------------  ------- ------- ------------------                        ---------------------
00029.MPLS                                                      MPEG-2  0:02:32 443 983 872     49 141 081 284  23,26   21,61   DD AC3 5.1 448Kbps                       
[/code]

[code]

DISC INFO:

Disc Title:     Pursuit of Happyness, The (2006)
Disc Size:      49 141 081 284 bytes
Protection:     AACS
BD-Java:        No
BDInfo:         0.5.6

PLAYLIST REPORT:

Name:                   00029.MPLS
Length:                 0:02:32 (h:m:s)
Size:                   443 983 872 bytes
Total Bitrate:          23,26 Mbps

VIDEO:

Codec                   Bitrate             Description    
-----                   -------             -----------    
MPEG-2 Video            21610 kbps          1080p / 23,976 fps / 16:9

AUDIO:

Codec                           Language        Bitrate         Description    
-----                           --------        -------         -----------    
Dolby Digital Audio             English         448 kbps        5.1 / 48 kHz / 448 kbps / DN -2dB

SUBTITLES:

Codec                           Language        Bitrate         Description    
-----                           --------        -------         -----------    
Presentation Graphics           Dutch           71,547 kbps                    
Presentation Graphics           Spanish         74,539 kbps                    

FILES:

Name            Time In         Length          Size            Total Bitrate  
----            -------         ------          ----            -------------  
00029.M2TS      0:00:00.000     0:02:32.694     443 983 872     23 261         

CHAPTERS:

Number          Time In         Length          Avg Video Rate  Max 1-Sec Rate  Max 1-Sec Time  Max 5-Sec Rate  Max 5-Sec Time  Max 10Sec Rate  Max 10Sec Time  Avg Frame Size  Max Frame Size  Max Frame Time 
------          -------         ------          --------------  --------------  --------------  --------------  --------------  --------------  --------------  --------------  --------------  -------------- 
1               0:00:00.000     0:02:32.694     21 611 kbps     33 153 kbps     00:01:15.075    28 778 kbps     00:02:12.006    26 964 kbps     00:02:07.001    112 667 bytes   657 476 bytes   00:00:00.417   

STREAM DIAGNOSTICS:

File            PID             Type            Codec           Language                Seconds                 Bitrate                 Bytes           Packets        
----            ---             ----            -----           --------                --------------          --------------          -------------   -----          
00029.M2TS      4113 (0x1011)   0x02            MPEG-2                                  152,527                 21 634                  412 474 756     2 243 838      
00029.M2TS      4352 (0x1100)   0x81            AC3             eng (English)           152,527                 449                     8 551 424       47 720         
00029.M2TS      4608 (0x1200)   0x90            PGS             nld (Dutch)             152,527                 72                      1 365 606       7 687          
00029.M2TS      4609 (0x1201)   0x90            PGS             spa (Spanish)           152,527                 75                      1 422 701       8 005          

[/code]
<---- END FORUMS PASTE ---->

QUICK SUMMARY:

Disc Title: Pursuit of Happyness, The (2006)
Disc Size: 49 141 081 284 bytes
Protection: AACS
BD-Java: No
Playlist: 00029.MPLS
Size: 443 983 872 bytes
Length: 0:02:32
Total Bitrate: 23,26 Mbps
Video: MPEG-2 Video / 21610 kbps / 1080p / 23,976 fps / 16:9
Audio: English / Dolby Digital Audio / 5.1 / 48 kHz / 448 kbps / DN -2dB
Subtitle: Dutch / 71,547 kbps
Subtitle: Spanish / 74,539 kbps


********************
PLAYLIST: 00028.MPLS
********************

<--- BEGIN FORUMS PASTE --->
[code]
                                                                                                                Total   Video                                            
Title                                                           Codec   Length  Movie Size      Disc Size       Bitrate Bitrate Main Audio Track                          Secondary Audio Track
-----                                                           ------  ------- --------------  --------------  ------- ------- ------------------                        ---------------------
00028.MPLS                                                      MPEG-2  0:02:32 422 375 424     49 141 081 284  22,15   20,34   DD AC3 5.1 640Kbps                       
[/code]

[code]

DISC INFO:

Disc Title:     Pursuit of Happyness, The (2006)
Disc Size:      49 141 081 284 bytes
Protection:     AACS
BD-Java:        No
BDInfo:         0.5.6

PLAYLIST REPORT:

Name:                   00028.MPLS
Length:                 0:02:32 (h:m:s)
Size:                   422 375 424 bytes
Total Bitrate:          22,15 Mbps

VIDEO:

Codec                   Bitrate             Description    
-----                   -------             -----------    
MPEG-2 Video            20339 kbps          1080p / 23,976 fps / 16:9

AUDIO:

Codec                           Language        Bitrate         Description    
-----                           --------        -------         -----------    
Dolby Digital Audio             English         640 kbps        5.1 / 48 kHz / 640 kbps / DN -3dB

SUBTITLES:

Codec                           Language        Bitrate         Description    
-----                           --------        -------         -----------    
Presentation Graphics           Dutch           60,386 kbps                    
Presentation Graphics           Spanish         60,632 kbps                    

FILES:

Name            Time In         Length          Size            Total Bitrate  
----            -------         ------          ----            -------------  
00028.M2TS      0:00:00.000     0:02:32.569     422 375 424     22 147         

CHAPTERS:

Number          Time In         Length          Avg Video Rate  Max 1-Sec Rate  Max 1-Sec Time  Max 5-Sec Rate  Max 5-Sec Time  Max 10Sec Rate  Max 10Sec Time  Avg Frame Size  Max Frame Size  Max Frame Time 
------          -------         ------          --------------  --------------  --------------  --------------  --------------  --------------  --------------  --------------  --------------  -------------- 
1               0:00:00.000     0:02:32.569     20 339 kbps     31 886 kbps     00:00:44.169    29 284 kbps     00:00:40.165    26 349 kbps     00:00:40.039    106 038 bytes   657 478 bytes   00:00:08.925   

STREAM DIAGNOSTICS:

File            PID             Type            Codec           Language                Seconds                 Bitrate                 Bytes           Packets        
----            ---             ----            -----           --------                --------------          --------------          -------------   -----          
00028.M2TS      4113 (0x1011)   0x02            MPEG-2                                  152,402                 20 361                  387 885 206     2 110 225      
00028.M2TS      4352 (0x1100)   0x81            AC3             eng (English)           152,402                 641                     12 206 080      71 520         
00028.M2TS      4608 (0x1200)   0x90            PGS             nld (Dutch)             152,402                 60                      1 151 621       6 465          
00028.M2TS      4609 (0x1201)   0x90            PGS             spa (Spanish)           152,402                 61                      1 156 314       6 500          

[/code]
<---- END FORUMS PASTE ---->

QUICK SUMMARY:

Disc Title: Pursuit of Happyness, The (2006)
Disc Size: 49 141 081 284 bytes
Protection: AACS
BD-Java: No
Playlist: 00028.MPLS
Size: 422 375 424 bytes
Length: 0:02:32
Total Bitrate: 22,15 Mbps
Video: MPEG-2 Video / 20339 kbps / 1080p / 23,976 fps / 16:9
Audio: English / Dolby Digital Audio / 5.1 / 48 kHz / 640 kbps / DN -3dB
Subtitle: Dutch / 60,386 kbps
Subtitle: Spanish / 60,632 kbps


********************
PLAYLIST: 00032.MPLS
********************

<--- BEGIN FORUMS PASTE --->
[code]
                                                                                                                Total   Video                                            
Title                                                           Codec   Length  Movie Size      Disc Size       Bitrate Bitrate Main Audio Track                          Secondary Audio Track
-----                                                           ------  ------- --------------  --------------  ------- ------- ------------------                        ---------------------
00032.MPLS                                                      MPEG-2  0:02:32 359 178 240     49 141 081 284  18,87   17,14   DD AC3 5.1 640Kbps                       
[/code]

[code]

DISC INFO:

Disc Title:     Pursuit of Happyness, The (2006)
Disc Size:      49 141 081 284 bytes
Protection:     AACS
BD-Java:        No
BDInfo:         0.5.6

PLAYLIST REPORT:

Name:                   00032.MPLS
Length:                 0:02:32 (h:m:s)
Size:                   359 178 240 bytes
Total Bitrate:          18,87 Mbps

VIDEO:

Codec                   Bitrate             Description    
-----                   -------             -----------    
MPEG-2 Video            17135 kbps          1080p / 23,976 fps / 16:9

AUDIO:

Codec                           Language        Bitrate         Description    
-----                           --------        -------         -----------    
Dolby Digital Audio             English         640 kbps        5.1 / 48 kHz / 640 kbps / DN -5dB

SUBTITLES:

Codec                           Language        Bitrate         Description    
-----                           --------        -------         -----------    
Presentation Graphics           Dutch           89,299 kbps                    
Presentation Graphics           Spanish         97,569 kbps                    

FILES:

Name            Time In         Length          Size            Total Bitrate  
----            -------         ------          ----            -------------  
00032.M2TS      0:00:00.000     0:02:32.235     359 178 240     18 875         

CHAPTERS:

Number          Time In         Length          Avg Video Rate  Max 1-Sec Rate  Max 1-Sec Time  Max 5-Sec Rate  Max 5-Sec Time  Max 10Sec Rate  Max 10Sec Time  Avg Frame Size  Max Frame Size  Max Frame Time 
------          -------         ------          --------------  --------------  --------------  --------------  --------------  --------------  --------------  --------------  --------------  -------------- 
1               0:00:00.000     0:02:32.235     17 135 kbps     30 453 kbps     00:00:11.386    22 460 kbps     00:02:17.762    20 847 kbps     00:02:12.674    89 336 bytes    544 488 bytes   00:02:08.044   

STREAM DIAGNOSTICS:

File            PID             Type            Codec           Language                Seconds                 Bitrate                 Bytes           Packets        
----            ---             ----            -----           --------                --------------          --------------          -------------   -----          
00032.M2TS      4113 (0x1011)   0x02            MPEG-2                                  152,152                 17 145                  326 076 253     1 774 291      
00032.M2TS      4352 (0x1100)   0x81            AC3             eng (English)           152,152                 640                     12 180 480      71 370         
00032.M2TS      4608 (0x1200)   0x90            PGS             nld (Dutch)             152,152                 89                      1 699 303       9 524          
00032.M2TS      4609 (0x1201)   0x90            PGS             spa (Spanish)           152,152                 98                      1 856 681       10 389         

[/code]
<---- END FORUMS PASTE ---->

QUICK SUMMARY:

Disc Title: Pursuit of Happyness, The (2006)
Disc Size: 49 141 081 284 bytes
Protection: AACS
BD-Java: No
Playlist: 00032.MPLS
Size: 359 178 240 bytes
Length: 0:02:32
Total Bitrate: 18,87 Mbps
Video: MPEG-2 Video / 17135 kbps / 1080p / 23,976 fps / 16:9
Audio: English / Dolby Digital Audio / 5.1 / 48 kHz / 640 kbps / DN -5dB
Subtitle: Dutch / 89,299 kbps
Subtitle: Spanish / 97,569 kbps


********************
PLAYLIST: 00033.MPLS
********************

<--- BEGIN FORUMS PASTE --->
[code]
                                                                                                                Total   Video                                            
Title                                                           Codec   Length  Movie Size      Disc Size       Bitrate Bitrate Main Audio Track                          Secondary Audio Track
-----                                                           ------  ------- --------------  --------------  ------- ------- ------------------                        ---------------------
00033.MPLS                                                      MPEG-2  0:02:32 344 039 424     49 141 081 284  18,08   16,43   DD AC3 5.1 640Kbps                       
[/code]

[code]

DISC INFO:

Disc Title:     Pursuit of Happyness, The (2006)
Disc Size:      49 141 081 284 bytes
Protection:     AACS
BD-Java:        No
BDInfo:         0.5.6

PLAYLIST REPORT:

Name:                   00033.MPLS
Length:                 0:02:32 (h:m:s)
Size:                   344 039 424 bytes
Total Bitrate:          18,08 Mbps

VIDEO:

Codec                   Bitrate             Description    
-----                   -------             -----------    
MPEG-2 Video            16434 kbps          1080p / 23,976 fps / 16:9

AUDIO:

Codec                           Language        Bitrate         Description    
-----                           --------        -------         -----------    
Dolby Digital Audio             English         640 kbps        5.1 / 48 kHz / 640 kbps / DN -4dB

SUBTITLES:

Codec                           Language        Bitrate         Description    
-----                           --------        -------         -----------    
Presentation Graphics           Dutch           60,544 kbps                    
Presentation Graphics           Spanish         65,598 kbps                    

FILES:

Name            Time In         Length          Size            Total Bitrate  
----            -------         ------          ----            -------------  
00033.M2TS      0:00:00.000     0:02:32.235     344 039 424     18 079         

CHAPTERS:

Number          Time In         Length          Avg Video Rate  Max 1-Sec Rate  Max 1-Sec Time  Max 5-Sec Rate  Max 5-Sec Time  Max 10Sec Rate  Max 10Sec Time  Avg Frame Size  Max Frame Size  Max Frame Time 
------          -------         ------          --------------  --------------  --------------  --------------  --------------  --------------  --------------  --------------  --------------  -------------- 
1               0:00:00.000     0:02:32.235     16 434 kbps     31 330 kbps     00:00:58.433    23 360 kbps     00:00:10.677    21 963 kbps     00:00:07.632    85 681 bytes    544 832 bytes   00:01:25.126   

STREAM DIAGNOSTICS:

File            PID             Type            Codec           Language                Seconds                 Bitrate                 Bytes           Packets        
----            ---             ----            -----           --------                --------------          --------------          -------------   -----          
00033.M2TS      4113 (0x1011)   0x02            MPEG-2                                  152,152                 16 443                  312 736 333     1 701 779      
00033.M2TS      4352 (0x1100)   0x81            AC3             eng (English)           152,152                 640                     12 180 480      71 370         
00033.M2TS      4608 (0x1200)   0x90            PGS             nld (Dutch)             152,152                 61                      1 152 119       6 521          
00033.M2TS      4609 (0x1201)   0x90            PGS             spa (Spanish)           152,152                 66                      1 248 297       7 050          

[/code]
<---- END FORUMS PASTE ---->

QUICK SUMMARY:

Disc Title: Pursuit of Happyness, The (2006)
Disc Size: 49 141 081 284 bytes
Protection: AACS
BD-Java: No
Playlist: 00033.MPLS
Size: 344 039 424 bytes
Length: 0:02:32
Total Bitrate: 18,08 Mbps
Video: MPEG-2 Video / 16434 kbps / 1080p / 23,976 fps / 16:9
Audio: English / Dolby Digital Audio / 5.1 / 48 kHz / 640 kbps / DN -4dB
Subtitle: Dutch / 60,544 kbps
Subtitle: Spanish / 65,598 kbps


********************
PLAYLIST: 00030.MPLS
********************

<--- BEGIN FORUMS PASTE --->
[code]
                                                                                                                Total   Video                                            
Title                                                           Codec   Length  Movie Size      Disc Size       Bitrate Bitrate Main Audio Track                          Secondary Audio Track
-----                                                           ------  ------- --------------  --------------  ------- ------- ------------------                        ---------------------
00030.MPLS                                                      MPEG-2  0:02:19 456 357 888     49 141 081 284  26,22   24,25   DD AC3 5.1 640Kbps                       
[/code]

[code]

DISC INFO:

Disc Title:     Pursuit of Happyness, The (2006)
Disc Size:      49 141 081 284 bytes
Protection:     AACS
BD-Java:        No
BDInfo:         0.5.6

PLAYLIST REPORT:

Name:                   00030.MPLS
Length:                 0:02:19 (h:m:s)
Size:                   456 357 888 bytes
Total Bitrate:          26,22 Mbps

VIDEO:

Codec                   Bitrate             Description    
-----                   -------             -----------    
MPEG-2 Video            24251 kbps          1080p / 23,976 fps / 16:9

AUDIO:

Codec                           Language        Bitrate         Description    
-----                           --------        -------         -----------    
Dolby Digital Audio             English         640 kbps        5.1 / 48 kHz / 640 kbps / DN -3dB

SUBTITLES:

Codec                           Language        Bitrate         Description    
-----                           --------        -------         -----------    
Presentation Graphics           Dutch           40,255 kbps                    
Presentation Graphics           Spanish         74,089 kbps                    

FILES:

Name            Time In         Length          Size            Total Bitrate  
----            -------         ------          ----            -------------  
00030.M2TS      0:00:00.000     0:02:19.222     456 357 888     26 223         

CHAPTERS:

Number          Time In         Length          Avg Video Rate  Max 1-Sec Rate  Max 1-Sec Time  Max 5-Sec Rate  Max 5-Sec Time  Max 10Sec Rate  Max 10Sec Time  Avg Frame Size  Max Frame Size  Max Frame Time 
------          -------         ------          --------------  --------------  --------------  --------------  --------------  --------------  --------------  --------------  --------------  -------------- 
1               0:00:00.000     0:02:19.222     24 251 kbps     33 507 kbps     00:01:00.727    29 860 kbps     00:00:56.681    29 130 kbps     00:00:51.676    126 435 bytes   657 476 bytes   00:00:06.423   

STREAM DIAGNOSTICS:

File            PID             Type            Codec           Language                Seconds                 Bitrate                 Bytes           Packets        
----            ---             ----            -----           --------                --------------          --------------          -------------   -----          
00030.M2TS      4113 (0x1011)   0x02            MPEG-2                                  139,139                 24 266                  422 040 147     2 295 646      
00030.M2TS      4352 (0x1100)   0x81            AC3             eng (English)           139,139                 640                     11 138 560      65 265         
00030.M2TS      4608 (0x1200)   0x90            PGS             nld (Dutch)             139,139                 40                      700 554         4 020          
00030.M2TS      4609 (0x1201)   0x90            PGS             spa (Spanish)           139,139                 74                      1 289 356       7 219          

[/code]
<---- END FORUMS PASTE ---->

QUICK SUMMARY:

Disc Title: Pursuit of Happyness, The (2006)
Disc Size: 49 141 081 284 bytes
Protection: AACS
BD-Java: No
Playlist: 00030.MPLS
Size: 456 357 888 bytes
Length: 0:02:19
Total Bitrate: 26,22 Mbps
Video: MPEG-2 Video / 24251 kbps / 1080p / 23,976 fps / 16:9
Audio: English / Dolby Digital Audio / 5.1 / 48 kHz / 640 kbps / DN -3dB
Subtitle: Dutch / 40,255 kbps
Subtitle: Spanish / 74,089 kbps


********************
PLAYLIST: 00034.MPLS
********************

<--- BEGIN FORUMS PASTE --->
[code]
                                                                                                                Total   Video                                            
Title                                                           Codec   Length  Movie Size      Disc Size       Bitrate Bitrate Main Audio Track                          Secondary Audio Track
-----                                                           ------  ------- --------------  --------------  ------- ------- ------------------                        ---------------------
00034.MPLS                                                      MPEG-2  0:02:14 317 337 600     49 141 081 284  18,84   17,16   DD AC3 5.1 640Kbps                       
[/code]

[code]

DISC INFO:

Disc Title:     Pursuit of Happyness, The (2006)
Disc Size:      49 141 081 284 bytes
Protection:     AACS
BD-Java:        No
BDInfo:         0.5.6

PLAYLIST REPORT:

Name:                   00034.MPLS
Length:                 0:02:14 (h:m:s)
Size:                   317 337 600 bytes
Total Bitrate:          18,84 Mbps

VIDEO:

Codec                   Bitrate             Description    
-----                   -------             -----------    
MPEG-2 Video            17155 kbps          1080p / 23,976 fps / 16:9

AUDIO:

Codec                           Language        Bitrate         Description    
-----                           --------        -------         -----------    
Dolby Digital Audio             English         640 kbps        5.1 / 48 kHz / 640 kbps / DN -9dB

SUBTITLES:

Codec                           Language        Bitrate         Description    
-----                           --------        -------         -----------    
Presentation Graphics           Dutch           63,445 kbps                    
Presentation Graphics           Spanish         68,963 kbps                    

FILES:

Name            Time In         Length          Size            Total Bitrate  
----            -------         ------          ----            -------------  
00034.M2TS      0:00:00.000     0:02:14.759     317 337 600     18 839         

CHAPTERS:

Number          Time In         Length          Avg Video Rate  Max 1-Sec Rate  Max 1-Sec Time  Max 5-Sec Rate  Max 5-Sec Time  Max 10Sec Rate  Max 10Sec Time  Avg Frame Size  Max Frame Size  Max Frame Time 
------          -------         ------          --------------  --------------  --------------  --------------  --------------  --------------  --------------  --------------  --------------  -------------- 
1               0:00:00.000     0:02:14.759     17 155 kbps     35 378 kbps     00:00:09.759    25 738 kbps     00:00:09.759    22 544 kbps     00:01:57.700    89 439 bytes    757 655 bytes   00:02:00.036   

STREAM DIAGNOSTICS:

File            PID             Type            Codec           Language                Seconds                 Bitrate                 Bytes           Packets        
----            ---             ----            -----           --------                --------------          --------------          -------------   -----          
00034.M2TS      4113 (0x1011)   0x02            MPEG-2                                  134,635                 17 171                  288 978 680     1 572 421      
00034.M2TS      4352 (0x1100)   0x81            AC3             eng (English)           134,635                 641                     10 782 720      63 180         
00034.M2TS      4608 (0x1200)   0x90            PGS             nld (Dutch)             134,635                 64                      1 068 722       6 059          
00034.M2TS      4609 (0x1201)   0x90            PGS             spa (Spanish)           134,635                 69                      1 161 680       6 568          

[/code]
<---- END FORUMS PASTE ---->

QUICK SUMMARY:

Disc Title: Pursuit of Happyness, The (2006)
Disc Size: 49 141 081 284 bytes
Protection: AACS
BD-Java: No
Playlist: 00034.MPLS
Size: 317 337 600 bytes
Length: 0:02:14
Total Bitrate: 18,84 Mbps
Video: MPEG-2 Video / 17155 kbps / 1080p / 23,976 fps / 16:9
Audio: English / Dolby Digital Audio / 5.1 / 48 kHz / 640 kbps / DN -9dB
Subtitle: Dutch / 63,445 kbps
Subtitle: Spanish / 68,963 kbps


********************
PLAYLIST: 00076.MPLS
********************

<--- BEGIN FORUMS PASTE --->
[code]
                                                                                                                Total   Video                                            
Title                                                           Codec   Length  Movie Size      Disc Size       Bitrate Bitrate Main Audio Track                          Secondary Audio Track
-----                                                           ------  ------- --------------  --------------  ------- ------- ------------------                        ---------------------
00076.MPLS                                                      MPEG-2  0:00:30 1 926 720       49 141 081 284  0,51    0,22                                             
[/code]

[code]

DISC INFO:

Disc Title:     Pursuit of Happyness, The (2006)
Disc Size:      49 141 081 284 bytes
Protection:     AACS
BD-Java:        No
BDInfo:         0.5.6

PLAYLIST REPORT:

Name:                   00076.MPLS
Length:                 0:00:30 (h:m:s)
Size:                   1 926 720 bytes
Total Bitrate:          0,51 Mbps

VIDEO:

Codec                   Bitrate             Description    
-----                   -------             -----------    
MPEG-2 Video            221 kbps            1080p / 23,976 fps / 16:9

FILES:

Name            Time In         Length          Size            Total Bitrate  
----            -------         ------          ----            -------------  
00074.M2TS      0:00:00.000     0:00:06.005     256 704         172            
00074.M2TS      0:00:06.005     0:00:06.005     256 512         171            
00074.M2TS      0:00:12.011     0:00:06.006     441 600         295            
00074.M2TS      0:00:18.018     0:00:06.005     278 016         186            
00074.M2TS      0:00:24.024     0:00:06.005     475 200         318            
00074.M2TS      0:00:30.029     0:00:00.041     218 688         41 943         

CHAPTERS:

Number          Time In         Length          Avg Video Rate  Max 1-Sec Rate  Max 1-Sec Time  Max 5-Sec Rate  Max 5-Sec Time  Max 10Sec Rate  Max 10Sec Time  Avg Frame Size  Max Frame Size  Max Frame Time 
------          -------         ------          --------------  --------------  --------------  --------------  --------------  --------------  --------------  --------------  --------------  -------------- 
1               0:00:00.000     0:00:06.005     556 kbps        278 kbps        00:00:05.964    278 kbps        00:00:05.964    0 kbps          00:00:00.000    208 546 bytes   208 546 bytes   00:00:05.964   
2               0:00:06.005     0:00:06.005     514 kbps        514 kbps        00:00:11.970    514 kbps        00:00:11.970    0 kbps          00:00:00.000    385 836 bytes   385 836 bytes   00:00:17.976   
3               0:00:12.011     0:00:06.006     306 kbps        306 kbps        00:00:17.976    306 kbps        00:00:17.976    0 kbps          00:00:00.000    229 478 bytes   229 478 bytes   00:00:23.982   
4               0:00:18.018     0:00:06.005     278 kbps        278 kbps        00:00:23.982    278 kbps        00:00:23.982    0 kbps          00:00:00.000    208 546 bytes   208 546 bytes   00:00:29.988   
5               0:00:24.024     0:00:06.047     4 966 kbps      786 kbps        00:00:11.928    786 kbps        00:00:11.928    547 kbps        00:00:11.928    234 632 bytes   385 836 bytes   00:00:17.976   

STREAM DIAGNOSTICS:

File            PID             Type            Codec           Language                Seconds                 Bitrate                 Bytes           Packets        
----            ---             ----            -----           --------                --------------          --------------          -------------   -----          
00074.M2TS      4113 (0x1011)   0x02            MPEG-2                                  24,024                  483                     1 449 498       7 882          

[/code]
<---- END FORUMS PASTE ---->

QUICK SUMMARY:

Disc Title: Pursuit of Happyness, The (2006)
Disc Size: 49 141 081 284 bytes
Protection: AACS
BD-Java: No
Playlist: 00076.MPLS
Size: 1 926 720 bytes
Length: 0:00:30
Total Bitrate: 0,51 Mbps
Video: MPEG-2 Video / 221 kbps / 1080p / 23,976 fps / 16:9