CopyPastehas never been so tasty!

A Prophet / Un Prophete (2009)

by jasses

  • 0
  • 0
  • 0
620 views

Общее

Уникальный идентификатор : 180392308275634530164793113604269588823 (0x87B64B799E9DF962938F45B00E54C157)
Полное имя : A.prophet.2009.BDRip.1080p.x264-jasses .mkv
Формат : Matroska
Версия формата : Version 2
Размер файла : 21,7 Гбайт
Продолжительность : 2 ч. 35 м.
Общий поток : 20,0 Мбит/сек
Название фильма : = hdtracker.org = jasses =
Дата кодирования : UTC 2011-06-10 20:14:21
Программа кодирования : mkvmerge v4.3.0 ('Escape from the Island') сборка от Sep 5 2010 10:30:51
Библиотека кодирования : libebml v1.0.0 + libmatroska v1.0.0

 

Видео

Идентификатор : 1
Формат : AVC
Формат/Информация : Advanced Video Codec
Профиль формата : High@L4.1
Параметр CABAC формата : Да
Параметр ReFrames формата : 4 кадра
Идентификатор кодека : V_MPEG4/ISO/AVC
Продолжительность : 2 ч. 35 м.
Битрейт : 17,3 Мбит/сек
Ширина : 1920 пикселей
Высота : 1036 пикселей
Соотношение сторон : 1,853
Частота кадров : 24,000 кадра/сек
Цветовое пространство : YUV
Субдискретизация насыщенности : 4:2:0
Битовая глубина : 8 бит
Тип развёртки : Прогрессивная
Бит/(Пиксели*Кадры) : 0.362
Размер потока : 18,3 Гбайт (84%)
Библиотека кодирования : x264 core 115 r1936 7a9e08d
Настройки программы : cabac=1 / ref=4 / deblock=1:-2:-1 / analyse=0x3:0x113 / me=umh / subme=10 / psy=1 / psy_rd=1.00:0.10 / mixed_ref=1 / me_range=32 / chroma_me=1 / trellis=2 / 8x8dct=1 / cqm=0 / deadzone=21,11 / fast_pskip=0 / chroma_qp_offset=-3 / threads=12 / sliced_threads=0 / nr=0 / decimate=0 / interlaced=0 / bluray_compat=0 / constrained_intra=0 / bframes=6 / b_pyramid=2 / b_adapt=2 / b_bias=0 / direct=3 / weightb=1 / open_gop=0 / weightp=2 / keyint=240 / keyint_min=24 / scenecut=40 / intra_refresh=0 / rc_lookahead=60 / rc=2pass / mbtree=1 / bitrate=17300 / ratetol=1.0 / qcomp=0.70 / qpmin=0 / qpmax=69 / qpstep=4 / cplxblur=20.0 / qblur=0.5 / vbv_maxrate=50000 / vbv_bufsize=50000 / nal_hrd=none / ip_ratio=1.40 / aq=1:1.00

 

Аудио #1

Идентификатор : 2
Формат : DTS
Формат/Информация : Digital Theater Systems
Идентификатор кодека : A_DTS
Продолжительность : 2 ч. 35 м.
Вид битрейта : Постоянный
Битрейт : 755 Кбит/сек
Каналы : 6 каналов
Расположение каналов : Front: L C R, Side: L R, LFE
Частота : 48,0 КГц
Битовая глубина : 24 бит
Метод сжатия : С потерями
Размер потока : 837 Мбайт (4%)
Заголовок : DTS DUB
Язык : Russian

 

Аудио #2

Идентификатор : 3
Формат : AC-3
Формат/Информация : Audio Coding 3
Расширение режима : CM (complete main)
Идентификатор кодека : A_AC3
Продолжительность : 2 ч. 35 м.
Вид битрейта : Постоянный
Битрейт : 448 Кбит/сек
Каналы : 6 каналов
Расположение каналов : Front: L C R, Side: L R, LFE
Частота : 48,0 КГц
Битовая глубина : 16 бит
Метод сжатия : С потерями
Размер потока : 497 Мбайт (2%)
Заголовок : AC3 MVO
Язык : Russian

 

Аудио #3

Идентификатор : 4
Формат : DTS
Формат/Информация : Digital Theater Systems
Идентификатор кодека : A_DTS
Продолжительность : 2 ч. 35 м.
Вид битрейта : Постоянный
Битрейт : 1510 Кбит/сек
Каналы : 6 каналов
Расположение каналов : Front: L C R, Side: L R, LFE
Частота : 48,0 КГц
Битовая глубина : 24 бит
Метод сжатия : С потерями
Размер потока : 1,64 Гбайт (8%)
Заголовок : DTS
Язык : French

 

Текст #1

Идентификатор : 5
Формат : UTF-8
Идентификатор кодека : S_TEXT/UTF8
Идентификатор кодека/Информация : UTF-8 Plain Text
Заголовок : Russian
Язык : Russian

 

Текст #2

Идентификатор : 6
Формат : UTF-8
Идентификатор кодека : S_TEXT/UTF8
Идентификатор кодека/Информация : UTF-8 Plain Text
Заголовок : English
Язык : English

---------------------------------------------------------------------------------------------------------

x264 [info]: frame I:1181  Avg QP:18.02  size:174242
x264 [info]: frame P:49564 Avg QP:19.46  size:110563
x264 [info]: frame B:172551 Avg QP:20.98  size: 83637

Add A Comment: