CopyPastehas never been so tasty!

Limitless.2011.BDRip.1080p

by anonymous

  • 0
  • 0
  • 0
390 views

General
Complete name                    : Limitless.2011.BDRip.1080p.x264-jasses.mkv
Format                           : Matroska
File size                        : 11.2 GiB
Duration                         : 1h 44mn
Overall bit rate                 : 15.3 Mbps
Movie name                       : = hdtracker.org = jasses =
Encoded date                     : UTC 2011-07-06 20:47:46
Writing application              : mkvmerge v4.3.0 ('Escape from the Island') сборка от Sep  5 2010 10:30:51
Writing library                  : libebml v1.0.0 + libmatroska v1.0.0

Video
ID                               : 1
Format                           : AVC
Format/Info                      : Advanced Video Codec
Format profile                   : High@L4.1
Format settings, CABAC           : Yes
Format settings, ReFrames        : 5 frames
Codec ID                         : V_MPEG4/ISO/AVC
Duration                         : 1h 44mn
Bit rate                         : 12.0 Mbps
Width                            : 1 920 pixels
Height                           : 800 pixels
Display aspect ratio             : 2.40:1
Frame rate                       : 23.976 fps
Color space                      : YUV
Chroma subsampling               : 4:2:0
Bit depth                        : 8 bits
Scan type                        : Progressive
Bits/(Pixel*Frame)               : 0.325
Stream size                      : 8.77 GiB (78%)
Writing library                  : x264 core 115 r1936 7a9e08d
Encoding settings                : cabac=1 / ref=5 / deblock=1:-3:-3 / analyse=0x3:0x113 / me=umh / subme=10 / psy=1 / psy_rd=1.00:0.20 / mixed_ref=1 / me_range=32 / chroma_me=1 / trellis=2 / 8x8dct=1 / cqm=0 / deadzone=21,11 / fast_pskip=0 / chroma_qp_offset=-3 / threads=12 / sliced_threads=0 / nr=0 / decimate=1 / interlaced=0 / bluray_compat=0 / constrained_intra=0 / bframes=8 / b_pyramid=2 / b_adapt=2 / b_bias=0 / direct=3 / weightb=1 / open_gop=0 / weightp=2 / keyint=250 / keyint_min=24 / scenecut=40 / intra_refresh=0 / rc_lookahead=60 / rc=crf / mbtree=1 / crf=19.0 / qcomp=0.80 / qpmin=0 / qpmax=69 / qpstep=4 / vbv_maxrate=50000 / vbv_bufsize=50000 / crf_max=0.0 / nal_hrd=none / ip_ratio=1.40 / aq=1:1.00

Audio #1
ID                               : 2
Format                           : DTS
Format/Info                      : Digital Theater Systems
Codec ID                         : A_DTS
Duration                         : 1h 44mn
Bit rate mode                    : Constant
Bit rate                         : 1 510 Kbps
Channel(s)                       : 6 channels
Channel positions                : Front: L C R, Side: L R, LFE
Sampling rate                    : 48.0 KHz
Bit depth                        : 24 bits
Compression mode                 : Lossy
Stream size                      : 1.10 GiB (10%)
Title                            : DTS 5.1
Language                         : Russian

Audio #2
ID                               : 3
Format                           : DTS
Format/Info                      : Digital Theater Systems
Codec ID                         : A_DTS
Duration                         : 1h 44mn
Bit rate mode                    : Constant
Bit rate                         : 1 510 Kbps
Channel(s)                       : 6 channels
Channel positions                : Front: L C R, Side: L R, LFE
Sampling rate                    : 48.0 KHz
Bit depth                        : 24 bits
Compression mode                 : Lossy
Stream size                      : 1.10 GiB (10%)
Title                            : DTS 5.1
Language                         : English

Text #1
ID                               : 4
Format                           : UTF-8
Codec ID                         : S_TEXT/UTF8
Codec ID/Info                    : UTF-8 Plain Text
Language                         : Russian

Text #2
ID                               : 5
Format                           : UTF-8
Codec ID                         : S_TEXT/UTF8
Codec ID/Info                    : UTF-8 Plain Text
Language                         : English

Menu
00:00:00.000                     : en:Chapter 01
00:03:49.102                     : en:Chapter 02
00:06:52.620                     : en:Chapter 03
00:11:02.410                     : en:Chapter 04
00:16:24.108                     : en:Chapter 05
00:20:36.484                     : en:Chapter 06
00:24:16.246                     : en:Chapter 07
00:28:51.771                     : en:Chapter 08
00:34:04.208                     : en:Chapter 09
00:38:12.081                     : en:Chapter 10
00:42:17.534                     : en:Chapter 11
00:46:43.967                     : en:Chapter 12
00:51:04.393                     : en:Chapter 13
00:54:25.678                     : en:Chapter 14
00:59:17.512                     : en:Chapter 15
01:05:38.684                     : en:Chapter 16
01:08:36.570                     : en:Chapter 17
01:11:40.045                     : en:Chapter 18
01:14:40.183                     : en:Chapter 19
01:18:20.445                     : en:Chapter 20
01:21:46.943                     : en:Chapter 21
01:27:14.770                     : en:Chapter 22
01:31:43.164                     : en:Chapter 23
01:38:14.054                     : en:Chapter 24

 -------------------------------------------------------------------------------------------------

x264 [info]: frame I:1129  Avg QP:14.84  size:232562
x264 [info]: frame P:31765 Avg QP:18.00  size: 86001
x264 [info]: frame B:117826 Avg QP:19.08  size: 56526

 

Add A Comment: