CopyPastehas never been so tasty!

Tucke.&.Dale.vs.Evil.Remux.1080p.x264.DTS.mkv

by anonymous

  • 0
  • 0
  • 0
86 views
General
Полное имя : Tucke.&.Dale.vs.Evil.Remux.1080p.x264.DTS.mkv
Формат : Matroska
Размер файла : 16.7 GiB
Продолжительность : 1h 28mn
Общий поток : 27.0 Mbps
Фильм : = hdtracker.org = jasses =
Дата кодирования : UTC 2011-07-03 12:01:33
Программа кодирования : mkvmerge v4.3.0 ('Escape from the Island') сборка от Sep 5 2010 10:30:51
Библиотека кодирования : libebml v1.0.0 + libmatroska v1.0.0

 

Video
Идентификатор : 1
Формат : AVC
Формат/Информация : Advanced Video Codec
Профайл формата : High@L4.1
Параметры CABAC формата : Yes
Параметры ReFrames формата : 4 frames
Режим смешивания : Container profile=Unknown@4.1
Идентификатор кодека : V_MPEG4/ISO/AVC
Продолжительность : 1h 28mn
Битрейт : 23.4 Mbps
Ширина : 1 920 pixels
Высота : 1 080 pixels
Соотношение кадра : 16:9
Частота кадров : 23.976 fps
Разрешение : 8 bits
Колориметрия : 4:2:0
Тип развёртки : Progressive
Бит/(Пиксели*Кадры) : 0.471
Размер потока : 14.5 GiB (87%)
Color primaries : BT.709-5, BT.1361, IEC 61966-2-4, SMPTE RP177
Transfer characteristics : BT.709-5, BT.1361
Matrix coefficients : BT.709-5, BT.1361, IEC 61966-2-4 709, SMPTE RP177

 

Audio #1
Идентификатор : 2
Формат : DTS
Формат/Информация : Digital Theater Systems
Идентификатор кодека : A_DTS
Продолжительность : 1h 28mn
Вид битрейта : Constant
Битрейт : 1 510 Kbps
Канал(ы) : 6 channels
Расположение каналов : Front: L C R, Surround: L R, LFE
Частота : 48.0 KHz
Разрешение : 24 bits
Размер потока : 957 MiB (6%)
Заголовок : DTS 5.1 Дубляж
Язык : Russian

 

Audio #2
Идентификатор : 3
Формат : DTS
Формат/Информация : Digital Theater Systems
Идентификатор кодека : A_DTS
Продолжительность : 1h 28mn
Вид битрейта : Constant
Битрейт : 1 510 Kbps
Канал(ы) : 6 channels
Расположение каналов : Front: L C R, Surround: L R, LFE
Частота : 48.0 KHz
Разрешение : 16 bits
Размер потока : 957 MiB (6%)
Заголовок : DTS 5.1

 

Menu
00:00:00.000 : :(безымянный)
00:10:48.438 : :(безымянный)
00:18:57.845 : :(безымянный)
00:30:29.410 : :(безымянный)
00:37:55.731 : :(безымянный)
00:45:39.902 : :(безымянный)
00:54:46.407 : :(безымянный)
01:02:39.338 : :(безымянный)
01:10:58.127 : :(безымянный)
01:23:00.182 : :(безымянный)

 

Add A Comment: