CopyPastehas never been so tasty!

Pulp Fiction (1994)

by anonymous

  • 0
  • 0
368 views

Disc Title:     MOVIE BD
Disc Size:      48 466 734 346 bytes
Protection:     AACS
BD-Java:        No
BDInfo:         0.5.6

Notes:         

BDINFO HOME:
  Cinema Squid
    http://www.cinemasquid.com/blu-ray/tools/bdinfo

INCLUDES FORUMS REPORT FOR:
  AVS Forum Blu-ray Audio and Video Specifications Thread
    http://www.avsforum.com/avs-vb/showthread.php?t=1155731


********************
PLAYLIST: 00001.MPLS
********************

<--- BEGIN FORUMS PASTE --->
[code]
                                                                                                                Total   Video                                            
Title                                                           Codec   Length  Movie Size      Disc Size       Bitrate Bitrate Main Audio Track                          Secondary Audio Track
-----                                                           ------  ------- --------------  --------------  ------- ------- ------------------                        ---------------------
00001.MPLS                                                      AVC     2:34:24 46 758 082 560  48 466 734 346  40,38   32,38   DTS-HD Master 5.1 4370Kbps (48kHz/24-bit)
[/code]

[code]

DISC INFO:

Disc Title:     MOVIE BD
Disc Size:      48 466 734 346 bytes
Protection:     AACS
BD-Java:        No
BDInfo:         0.5.6

PLAYLIST REPORT:

Name:                   00001.MPLS
Length:                 2:34:24 (h:m:s)
Size:                   46 758 082 560 bytes
Total Bitrate:          40,38 Mbps

VIDEO:

Codec                   Bitrate             Description    
-----                   -------             -----------    
MPEG-4 AVC Video        32376 kbps          1080p / 23,976 fps / 16:9 / High Profile 4.1

AUDIO:

Codec                           Language        Bitrate         Description    
-----                           --------        -------         -----------    
DTS-HD Master Audio             English         4370 kbps       5.1 / 48 kHz / 4370 kbps / 24-bit (DTS Core: 5.1 / 48 kHz / 1509 kbps / 24-bit / DN -5dB)
DTS Audio                       Russian         768 kbps        5.1 / 48 kHz / 768 kbps / 24-bit
Dolby Digital Audio             Russian         384 kbps        5.1 / 48 kHz / 384 kbps
Dolby Digital Audio             Russian         256 kbps        2.0 / 48 kHz / 256 kbps

SUBTITLES:

Codec                           Language        Bitrate         Description    
-----                           --------        -------         -----------    
Presentation Graphics           English         44,558 kbps                    
Presentation Graphics           Russian         40,119 kbps                    
Presentation Graphics           Russian         40,402 kbps                    
Presentation Graphics           Russian         0,348 kbps                     

FILES:

Name            Time In         Length          Size            Total Bitrate  
----            -------         ------          ----            -------------  
00003.M2TS      0:00:00.000     2:34:24.088     46 758 082 560  40 378         

CHAPTERS:

Number          Time In         Length          Avg Video Rate  Max 1-Sec Rate  Max 1-Sec Time  Max 5-Sec Rate  Max 5-Sec Time  Max 10Sec Rate  Max 10Sec Time  Avg Frame Size  Max Frame Size  Max Frame Time 
------          -------         ------          --------------  --------------  --------------  --------------  --------------  --------------  --------------  --------------  --------------  -------------- 
1               0:00:00.000     0:12:39.008     25 999 kbps     49 224 kbps     00:09:12.385    43 780 kbps     00:07:57.268    41 911 kbps     00:07:55.433    135 540 bytes   389 035 bytes   00:09:08.297   
2               0:12:39.008     0:11:37.780     31 753 kbps     45 493 kbps     00:18:55.759    39 166 kbps     00:17:54.198    37 871 kbps     00:18:52.548    165 545 bytes   423 340 bytes   00:23:41.503   
3               0:24:16.788     0:10:16.907     30 401 kbps     50 035 kbps     00:25:59.432    43 118 kbps     00:25:57.389    40 334 kbps     00:25:57.555    158 496 bytes   451 931 bytes   00:27:17.344   
4               0:34:33.696     0:13:13.000     34 542 kbps     51 562 kbps     00:35:15.446    43 923 kbps     00:35:14.278    40 710 kbps     00:35:11.818    180 085 bytes   414 904 bytes   00:47:36.520   
5               0:47:46.697     0:12:30.124     34 954 kbps     49 163 kbps     00:55:06.928    45 287 kbps     00:48:31.199    41 863 kbps     00:48:30.449    182 236 bytes   417 348 bytes   00:47:54.538   
6               1:00:16.821     0:14:33.956     34 237 kbps     47 884 kbps     01:07:14.530    41 853 kbps     01:10:39.526    41 076 kbps     01:03:31.057    178 496 bytes   421 280 bytes   01:11:08.722   
7               1:14:50.777     0:13:23.844     34 213 kbps     49 908 kbps     01:26:30.727    42 213 kbps     01:26:04.450    40 421 kbps     01:18:03.011    178 370 bytes   428 168 bytes   01:15:56.134   
8               1:28:14.622     0:07:09.470     33 603 kbps     50 797 kbps     01:33:28.060    43 960 kbps     01:33:28.060    42 466 kbps     01:33:23.347    175 190 bytes   463 074 bytes   01:33:26.475   
9               1:35:24.093     0:13:49.286     34 275 kbps     49 269 kbps     01:35:45.656    41 587 kbps     01:35:42.236    40 913 kbps     01:36:05.176    178 696 bytes   438 333 bytes   01:42:55.252   
10              1:49:13.380     0:12:56.984     32 378 kbps     50 569 kbps     01:56:51.212    43 270 kbps     01:56:49.085    41 054 kbps     01:56:49.127    168 804 bytes   388 864 bytes   01:57:27.373   
11              2:02:10.364     0:17:05.315     33 289 kbps     48 336 kbps     02:18:00.855    43 680 kbps     02:18:00.689    42 246 kbps     02:18:00.230    173 555 bytes   456 483 bytes   02:10:48.423   
12              2:19:15.680     0:15:08.407     28 745 kbps     46 247 kbps     02:25:38.271    41 390 kbps     02:29:29.001    41 133 kbps     02:29:25.247    149 872 bytes   464 694 bytes   02:29:02.058   

STREAM DIAGNOSTICS:

File            PID             Type            Codec           Language                Seconds                 Bitrate                 Bytes           Packets        
----            ---             ----            -----           --------                --------------          --------------          -------------   -----          
00003.M2TS      4113 (0x1011)   0x1B            AVC                                     9264,005                32 377                  37 492 141 767  203 890 896    
00003.M2TS      4352 (0x1100)   0x86            DTS-HD MA       eng (English)           9264,005                4 370                   5 060 928 332   28 950 580     
00003.M2TS      4353 (0x1101)   0x81            AC3             rus (Russian)           9264,005                384                     444 552 192     2 604 798      
00003.M2TS      4354 (0x1102)   0x82            DTS             rus (Russian)           9264,005                755                     873 719 048     5 211 048      
00003.M2TS      4355 (0x1103)   0x81            AC3             rus (Russian)           9264,005                256                     296 451 072     1 737 018      
00003.M2TS      4608 (0x1200)   0x90            PGS             eng (English)           9264,005                45                      51 598 478      290 779        
00003.M2TS      4609 (0x1201)   0x90            PGS             rus (Russian)           9264,005                40                      46 458 618      266 134        
00003.M2TS      4610 (0x1202)   0x90            PGS             rus (Russian)           9264,005                40                      46 785 997      267 687        
00003.M2TS      4611 (0x1203)   0x90            PGS             rus (Russian)           9264,005                0                       402 783         2 349          

[/code]
<---- END FORUMS PASTE ---->

QUICK SUMMARY:

Disc Title: MOVIE BD
Disc Size: 48 466 734 346 bytes
Protection: AACS
BD-Java: No
Playlist: 00001.MPLS
Size: 46 758 082 560 bytes
Length: 2:34:24
Total Bitrate: 40,38 Mbps
Video: MPEG-4 AVC Video / 32376 kbps / 1080p / 23,976 fps / 16:9 / High Profile 4.1
Audio: English / DTS-HD Master Audio / 5.1 / 48 kHz / 4370 kbps / 24-bit (DTS Core: 5.1 / 48 kHz / 1509 kbps / 24-bit / DN -5dB)
Audio: Russian / DTS Audio / 5.1 / 48 kHz / 768 kbps / 24-bit
Audio: Russian / Dolby Digital Audio / 5.1 / 48 kHz / 384 kbps
Audio: Russian / Dolby Digital Audio / 2.0 / 48 kHz / 256 kbps
Subtitle: English / 44,558 kbps
Subtitle: Russian / 40,119 kbps
Subtitle: Russian / 40,402 kbps
Subtitle: Russian / 0,348 kbps


********************
PLAYLIST: 00004.MPLS
********************

<--- BEGIN FORUMS PASTE --->
[code]
                                                                                                                Total   Video                                            
Title                                                           Codec   Length  Movie Size      Disc Size       Bitrate Bitrate Main Audio Track                          Secondary Audio Track
-----                                                           ------  ------- --------------  --------------  ------- ------- ------------------                        ---------------------
00004.MPLS                                                      AVC     0:05:53 1 143 207 936   48 466 734 346  25,87   21,96   DD AC3 5.1 640Kbps                       
[/code]

[code]

DISC INFO:

Disc Title:     MOVIE BD
Disc Size:      48 466 734 346 bytes
Protection:     AACS
BD-Java:        No
BDInfo:         0.5.6

PLAYLIST REPORT:

Name:                   00004.MPLS
Length:                 0:05:53 (h:m:s)
Size:                   1 143 207 936 bytes
Total Bitrate:          25,87 Mbps

VIDEO:

Codec                   Bitrate             Description    
-----                   -------             -----------    
MPEG-4 AVC Video        21964 kbps          1080p / 23,976 fps / 16:9 / High Profile 4.1

AUDIO:

Codec                           Language        Bitrate         Description    
-----                           --------        -------         -----------    
Dolby Digital Audio             English         640 kbps        5.1 / 48 kHz / 640 kbps
Dolby Digital Audio             Russian         640 kbps        5.1 / 48 kHz / 640 kbps
Dolby Digital Audio             Russian         640 kbps        5.1 / 48 kHz / 640 kbps
Dolby Digital Audio             Russian         640 kbps        5.1 / 48 kHz / 640 kbps

SUBTITLES:

Codec                           Language        Bitrate         Description    
-----                           --------        -------         -----------    
Presentation Graphics           English         0,177 kbps                     
Presentation Graphics           Russian         0,177 kbps                     
Presentation Graphics           Russian         0,177 kbps                     
Presentation Graphics           Russian         0,177 kbps                     

FILES:

Name            Time In         Length          Size            Total Bitrate  
----            -------         ------          ----            -------------  
00007.M2TS      0:00:00.000     0:05:53.478     1 143 207 936   25 873         

CHAPTERS:

Number          Time In         Length          Avg Video Rate  Max 1-Sec Rate  Max 1-Sec Time  Max 5-Sec Rate  Max 5-Sec Time  Max 10Sec Rate  Max 10Sec Time  Avg Frame Size  Max Frame Size  Max Frame Time 
------          -------         ------          --------------  --------------  --------------  --------------  --------------  --------------  --------------  --------------  --------------  -------------- 
1               0:00:00.000     0:05:53.478     21 964 kbps     26 193 kbps     00:01:55.865    22 516 kbps     00:02:00.495    22 381 kbps     00:02:00.370    114 511 bytes   345 485 bytes   00:03:54.234   

STREAM DIAGNOSTICS:

File            PID             Type            Codec           Language                Seconds                 Bitrate                 Bytes           Packets        
----            ---             ----            -----           --------                --------------          --------------          -------------   -----          
00007.M2TS      4113 (0x1011)   0x1B            AVC                                     353,353                 21 972                  970 479 158     5 279 292      
00007.M2TS      4352 (0x1100)   0x81            AC3             eng (English)           353,353                 640                     28 280 320      165 705        
00007.M2TS      4353 (0x1101)   0x81            AC3             rus (Russian)           353,353                 640                     28 280 320      165 705        
00007.M2TS      4354 (0x1102)   0x81            AC3             rus (Russian)           353,353                 640                     28 280 320      165 705        
00007.M2TS      4355 (0x1103)   0x81            AC3             rus (Russian)           353,353                 640                     28 280 320      165 705        
00007.M2TS      4608 (0x1200)   0x90            PGS             rus (Russian)           353,353                 0                       7 842           50             
00007.M2TS      4609 (0x1201)   0x90            PGS             eng (English)           353,353                 0                       7 842           50             
00007.M2TS      4610 (0x1202)   0x90            PGS             rus (Russian)           353,353                 0                       7 842           50             
00007.M2TS      4611 (0x1203)   0x90            PGS             rus (Russian)           353,353                 0                       7 842           50             

[/code]
<---- END FORUMS PASTE ---->

QUICK SUMMARY:

Disc Title: MOVIE BD
Disc Size: 48 466 734 346 bytes
Protection: AACS
BD-Java: No
Playlist: 00004.MPLS
Size: 1 143 207 936 bytes
Length: 0:05:53
Total Bitrate: 25,87 Mbps
Video: MPEG-4 AVC Video / 21964 kbps / 1080p / 23,976 fps / 16:9 / High Profile 4.1
Audio: English / Dolby Digital Audio / 5.1 / 48 kHz / 640 kbps
Audio: Russian / Dolby Digital Audio / 5.1 / 48 kHz / 640 kbps
Audio: Russian / Dolby Digital Audio / 5.1 / 48 kHz / 640 kbps
Audio: Russian / Dolby Digital Audio / 5.1 / 48 kHz / 640 kbps
Subtitle: English / 0,177 kbps
Subtitle: Russian / 0,177 kbps
Subtitle: Russian / 0,177 kbps
Subtitle: Russian / 0,177 kbps


********************
PLAYLIST: 00005.MPLS
********************

<--- BEGIN FORUMS PASTE --->
[code]
                                                                                                                Total   Video                                            
Title                                                           Codec   Length  Movie Size      Disc Size       Bitrate Bitrate Main Audio Track                          Secondary Audio Track
-----                                                           ------  ------- --------------  --------------  ------- ------- ------------------                        ---------------------
00005.MPLS                                                      MPEG-2  0:05:16 156 579 840     48 466 734 346  3,96    2,80    DD AC3 2.0 192Kbps                       
[/code]

[code]

DISC INFO:

Disc Title:     MOVIE BD
Disc Size:      48 466 734 346 bytes
Protection:     AACS
BD-Java:        No
BDInfo:         0.5.6

PLAYLIST REPORT:

Name:                   00005.MPLS
Length:                 0:05:16 (h:m:s)
Size:                   156 579 840 bytes
Total Bitrate:          3,96 Mbps

VIDEO:

Codec                   Bitrate             Description    
-----                   -------             -----------    
MPEG-2 Video            2804 kbps           576i / 25 fps / 4:3

AUDIO:

Codec                           Language        Bitrate         Description    
-----                           --------        -------         -----------    
Dolby Digital Audio             English         192 kbps        2.0 / 48 kHz / 192 kbps / DN -4dB
Dolby Digital Audio             Russian         192 kbps        2.0 / 48 kHz / 192 kbps / DN -4dB
Dolby Digital Audio             Russian         192 kbps        2.0 / 48 kHz / 192 kbps / DN -4dB
Dolby Digital Audio             Russian         192 kbps        2.0 / 48 kHz / 192 kbps / DN -4dB

SUBTITLES:

Codec                           Language        Bitrate         Description    
-----                           --------        -------         -----------    
Presentation Graphics           English         0,387 kbps                     
Presentation Graphics           Russian         0,387 kbps                     
Presentation Graphics           Russian         0,387 kbps                     
Presentation Graphics           Russian         0,387 kbps                     

FILES:

Name            Time In         Length          Size            Total Bitrate  
----            -------         ------          ----            -------------  
00008.M2TS      0:00:00.000     0:05:16.240     156 579 840     3 961          

CHAPTERS:

Number          Time In         Length          Avg Video Rate  Max 1-Sec Rate  Max 1-Sec Time  Max 5-Sec Rate  Max 5-Sec Time  Max 10Sec Rate  Max 10Sec Time  Avg Frame Size  Max Frame Size  Max Frame Time 
------          -------         ------          --------------  --------------  --------------  --------------  --------------  --------------  --------------  --------------  --------------  -------------- 
1               0:00:00.000     0:05:16.240     2 804 kbps      7 943 kbps      00:04:04.799    5 659 kbps      00:04:03.200    5 157 kbps      00:04:03.960    14 018 bytes    74 192 bytes    00:04:08.200   

STREAM DIAGNOSTICS:

File            PID             Type            Codec           Language                Seconds                 Bitrate                 Bytes           Packets        
----            ---             ----            -----           --------                --------------          --------------          -------------   -----          
00008.M2TS      4113 (0x1011)   0x02            MPEG-2                                  316,080                 2 805                   110 827 651     606 919        
00008.M2TS      4352 (0x1100)   0x81            AC3             eng (English)           316,080                 192                     7 588 608       49 405         
00008.M2TS      4353 (0x1101)   0x81            AC3             rus (Russian)           316,080                 192                     7 588 608       49 405         
00008.M2TS      4354 (0x1102)   0x81            AC3             rus (Russian)           316,080                 192                     7 588 608       49 405         
00008.M2TS      4355 (0x1103)   0x81            AC3             rus (Russian)           316,080                 192                     7 588 608       49 405         
00008.M2TS      4608 (0x1200)   0x90            PGS             rus (Russian)           316,080                 0                       15 303          90             
00008.M2TS      4609 (0x1201)   0x90            PGS             eng (English)           316,080                 0                       15 303          90             
00008.M2TS      4610 (0x1202)   0x90            PGS             rus (Russian)           316,080                 0                       15 303          90             
00008.M2TS      4611 (0x1203)   0x90            PGS             rus (Russian)           316,080                 0                       15 303          90             

[/code]
<---- END FORUMS PASTE ---->

QUICK SUMMARY:

Disc Title: MOVIE BD
Disc Size: 48 466 734 346 bytes
Protection: AACS
BD-Java: No
Playlist: 00005.MPLS
Size: 156 579 840 bytes
Length: 0:05:16
Total Bitrate: 3,96 Mbps
Video: MPEG-2 Video / 2804 kbps / 576i / 25 fps / 4:3
Audio: English / Dolby Digital Audio / 2.0 / 48 kHz / 192 kbps / DN -4dB
Audio: Russian / Dolby Digital Audio / 2.0 / 48 kHz / 192 kbps / DN -4dB
Audio: Russian / Dolby Digital Audio / 2.0 / 48 kHz / 192 kbps / DN -4dB
Audio: Russian / Dolby Digital Audio / 2.0 / 48 kHz / 192 kbps / DN -4dB
Subtitle: English / 0,387 kbps
Subtitle: Russian / 0,387 kbps
Subtitle: Russian / 0,387 kbps
Subtitle: Russian / 0,387 kbps