CopyPastehas never been so tasty!

hd

by anonymous

  • 0
  • 0
  • 0
391 views

Общее

Уникальный идентификатор : 209327055691963556862046828068723768223 (0x9D7AECAA3F2027418AE1420323043B9F)
Полное имя : Star.Wars.Episode.II.2002.BDRip.1080p.x264-jasses.mkv
Формат : Matroska
Версия формата : Version 2
Размер файла : 10,7 Гбайт
Продолжительность : 2 ч. 22 м.
Общий поток : 10,7 Мбит/сек
Название фильма : = hdtracker.org = jasses =
Дата кодирования : UTC 2011-09-17 21:07:51
Программа кодирования : mkvmerge v4.9.1 ('Ich will') сборка от Jul 11 2011 23:53:15
Библиотека кодирования : libebml v1.2.1 + libmatroska v1.1.1

 

Видео

Идентификатор : 1
Формат : AVC
Формат/Информация : Advanced Video Codec
Профиль формата : High@L4.1
Параметр CABAC формата : Да
Параметр ReFrames формата : 5 кадров
Идентификатор кодека : V_MPEG4/ISO/AVC
Продолжительность : 2 ч. 22 м.
Битрейт : 8000 Кбит/сек
Ширина : 1920 пикселей
Высота : 816 пикселей
Соотношение сторон : 2,35:1
Частота кадров : 23,976 кадра/сек
Цветовое пространство : YUV
Субдискретизация насыщенности : 4:2:0
Битовая глубина : 8 бит
Тип развёртки : Прогрессивная
Бит/(Пиксели*Кадры) : 0.213
Размер потока : 7,76 Гбайт (73%)
Библиотека кодирования : x264 core 116 r2074 2641b9e
Настройки программы : cabac=1 / ref=5 / deblock=1:-3:-3 / analyse=0x3:0x113 / me=umh / subme=11 / psy=1 / psy_rd=1.00:0.00 / mixed_ref=1 / me_range=32 / chroma_me=1 / trellis=2 / 8x8dct=1 / cqm=0 / deadzone=21,11 / fast_pskip=0 / chroma_qp_offset=-2 / threads=12 / sliced_threads=0 / nr=0 / decimate=1 / interlaced=0 / bluray_compat=0 / constrained_intra=0 / bframes=8 / b_pyramid=2 / b_adapt=2 / b_bias=0 / direct=3 / weightb=1 / open_gop=0 / weightp=2 / keyint=250 / keyint_min=23 / scenecut=40 / intra_refresh=0 / rc_lookahead=60 / rc=2pass / mbtree=1 / bitrate=8000 / ratetol=1.0 / qcomp=0.70 / qpmin=0 / qpmax=69 / qpstep=4 / cplxblur=20.0 / qblur=0.5 / vbv_maxrate=50000 / vbv_bufsize=50000 / nal_hrd=none / ip_ratio=1.40 / aq=1:1.00

 

Аудио #1

Идентификатор : 2
Формат : DTS
Формат/Информация : Digital Theater Systems
Идентификатор кодека : A_DTS
Продолжительность : 2 ч. 22 м.
Вид битрейта : Постоянный
Битрейт : 755 Кбит/сек
Каналы : 6 каналов
Расположение каналов : Front: L C R, Side: L R, LFE
Частота : 48,0 КГц
Битовая глубина : 24 бит
Метод сжатия : С потерями
Размер потока : 769 Мбайт (7%)
Заголовок : DTS "Дубляж"
Язык : Russian

 

Аудио #2

Идентификатор : 3
Формат : AC-3
Формат/Информация : Audio Coding 3
Расширение режима : CM (complete main)
Идентификатор кодека : A_AC3
Продолжительность : 2 ч. 22 м.
Вид битрейта : Постоянный
Битрейт : 448 Кбит/сек
Каналы : 6 каналов
Расположение каналов : Front: L C R, Side: L R, LFE
Частота : 48,0 КГц
Битовая глубина : 16 бит
Метод сжатия : С потерями
Задержка видео : 1 с. 37 мс.
Размер потока : 457 Мбайт (4%)
Заголовок : AC3 "Tycoon"
Язык : Russian

 

Аудио #3

Идентификатор : 4
Формат : DTS
Формат/Информация : Digital Theater Systems
Профиль формата : ES
Идентификатор кодека : A_DTS
Продолжительность : 2 ч. 22 м.
Вид битрейта : Постоянный
Битрейт : 1510 Кбит/сек
Каналы : 7 каналов / 6 каналов
Расположение каналов : Front: L C R, Side: L R, Back: C, LFE / Front: L C R, Side: L R, LFE
Частота : 48,0 КГц
Битовая глубина : 24 бит
Метод сжатия : С потерями
Размер потока : 1,50 Гбайт (14%)
Язык : English

 

Текст #1

Идентификатор : 5
Формат : UTF-8
Идентификатор кодека : S_TEXT/UTF8
Идентификатор кодека/Информация : UTF-8 Plain Text
Заголовок : Force
Язык : Russian

 

Текст #2

Идентификатор : 6
Формат : UTF-8
Идентификатор кодека : S_TEXT/UTF8
Идентификатор кодека/Информация : UTF-8 Plain Text
Язык : Russian

 

Текст #3

Идентификатор : 7
Формат : UTF-8
Идентификатор кодека : S_TEXT/UTF8
Идентификатор кодека/Информация : UTF-8 Plain Text
Язык : English

 

Меню

00:00:00.000 : :1. Opening Logos
00:00:23.440 : :2. Attack of the Clones
00:01:50.527 : :3. Return to Coruscant
00:04:22.095 : :4. Chancellor's Meeting
00:07:00.003 : :5. Old Friends
00:10:28.962 : :6. Assassins
00:14:19.901 : :7. Speeder Chase
00:21:35.294 : :8. Into the Club
00:24:48.237 : :9. New Assignments
00:29:45.867 : :10. Traveling Incognito
00:31:33.475 : :11. Dex's Diner
00:33:48.526 : :12. Jedi Archives
00:34:50.505 : :13. "Encouraged to Love"
00:36:05.121 : :14. Yoda and the Younglings
00:38:25.929 : :15. Return to Naboo
00:39:25.363 : :16. Audience With the Queen
00:40:56.371 : :17. Kamino Arrival
00:42:12.780 : :18. Meeting Lama Su
00:44:02.014 : :19. Stolen Kiss
00:45:50.414 : :20. Inspecting the Clones
00:47:50.076 : :21. Teasing a Senator
00:50:21.018 : :22. Jango's Apartment
00:53:01.428 : :23. Forbidden Love
00:56:44.818 : :24. Obi-Wan's Report
00:58:56.700 : :25. Nightmare
01:00:46.059 : :26. Obi-Wan vs. Jango
01:03:41.192 : :27. Back to Tatooine
01:06:24.355 : :28. Asteroid Chase
01:11:18.774 : :29. Lars' Homestead
01:14:01.354 : :30. Anakin's Search
01:15:23.477 : :31. Dooku's Separatist Plot
01:17:48.873 : :32. Tusken Camp
01:21:40.354 : :33. Out of Range
01:23:46.897 : :34. "You're Not All-Powerful"
01:28:10.160 : :35. Enemies Revealed
01:30:52.906 : :36. Obi-Wan Captive
01:33:38.488 : :37. Emergency Powers
01:35:27.847 : :38. Droid Factory
01:42:44.867 : :39. Love Pledge
01:45:14.016 : :40. The Arena
01:49:53.629 : :41. "This Party Is Over"
01:56:22.475 : :42. Yoda's Cavalry
01:57:47.602 : :43. Clone War
02:00:29.180 : :44. War Room
02:04:48.981 : :45. Duel With Dooku
02:07:41.946 : :46. Master Yoda
02:11:23.667 : :47. "Well Done Lord Tyranus"
02:12:54.884 : :48. "Begun, the Clone War Has"
02:14:49.248 : :49. Secret Union
02:15:54.938 : :50. End Credits

---------------------------------------------------------------------------------------------------------

x264 [info]: frame I:1621  Avg QP:11.57  size:189034
x264 [info]: frame P:63609 Avg QP:13.03  size: 73515
x264 [info]: frame B:139713 Avg QP:14.97  size: 25511

 

Add A Comment: