CopyPastehas never been so tasty!

Into the Universe with Stephen Hawking [Season 1] (2010)

by anonymous

  • 0
  • 1
382 views

Disc Title:     Into the Universe with Stephen Hawking (2010)
Disc Size:      20 846 555 948 bytes
Protection:     AACS
BD-Java:        Yes
BDInfo:         0.5.6

Notes:         

BDINFO HOME:
  Cinema Squid
    http://www.cinemasquid.com/blu-ray/tools/bdinfo

INCLUDES FORUMS REPORT FOR:
  AVS Forum Blu-ray Audio and Video Specifications Thread
    http://www.avsforum.com/avs-vb/showthread.php?t=1155731


********************
PLAYLIST: 00004.MPLS
********************

<--- BEGIN FORUMS PASTE --->
[code]
                                                                                                                Total   Video                                            
Title                                                           Codec   Length  Movie Size      Disc Size       Bitrate Bitrate Main Audio Track                          Secondary Audio Track
-----                                                           ------  ------- --------------  --------------  ------- ------- ------------------                        ---------------------
00004.MPLS                                                      AVC     1:26:34 9 573 212 160   20 846 555 948  14,74   13,00   DD AC3 5.1 224Kbps                       
[/code]

[code]

DISC INFO:

Disc Title:     Into the Universe with Stephen Hawking (2010)
Disc Size:      20 846 555 948 bytes
Protection:     AACS
BD-Java:        Yes
BDInfo:         0.5.6

PLAYLIST REPORT:

Name:                   00004.MPLS
Length:                 1:26:34 (h:m:s)
Size:                   9 573 212 160 bytes
Total Bitrate:          14,74 Mbps

VIDEO:

Codec                   Bitrate             Description    
-----                   -------             -----------    
MPEG-4 AVC Video        12999 kbps          1080i / 25 fps / 16:9 / High Profile 4.1

AUDIO:

Codec                           Language        Bitrate         Description    
-----                           --------        -------         -----------    
Dolby Digital Audio             Russian         224 kbps        5.1 / 48 kHz / 224 kbps / DN -4dB
Dolby Digital Audio             English         256 kbps        2.0 / 48 kHz / 256 kbps / Dolby Surround
Dolby Digital Audio             German          224 kbps        2.0 / 48 kHz / 224 kbps
Dolby Digital Audio             Spanish         256 kbps        2.0 / 48 kHz / 256 kbps / Dolby Surround

SUBTITLES:

Codec                           Language        Bitrate         Description    
-----                           --------        -------         -----------    
Presentation Graphics           English         13,915 kbps                    
Presentation Graphics           Dutch           13,159 kbps                    
Presentation Graphics           Spanish         14,287 kbps                    

FILES:

Name            Time In         Length          Size            Total Bitrate  
----            -------         ------          ----            -------------  
00004.M2TS      0:00:00.000     1:26:34.920     9 573 212 160   14 742         

CHAPTERS:

Number          Time In         Length          Avg Video Rate  Max 1-Sec Rate  Max 1-Sec Time  Max 5-Sec Rate  Max 5-Sec Time  Max 10Sec Rate  Max 10Sec Time  Avg Frame Size  Max Frame Size  Max Frame Time 
------          -------         ------          --------------  --------------  --------------  --------------  --------------  --------------  --------------  --------------  --------------  -------------- 
1               0:00:00.000     0:08:36.360     12 496 kbps     38 845 kbps     00:06:08.320    30 321 kbps     00:05:42.080    27 098 kbps     00:05:42.200    62 476 bytes    375 642 bytes   00:05:47.880   
2               0:08:36.360     0:12:18.560     15 055 kbps     47 270 kbps     00:14:35.760    30 543 kbps     00:19:56.720    27 469 kbps     00:19:56.640    75 275 bytes    527 601 bytes   00:16:47.320   
3               0:20:54.920     0:17:13.960     13 699 kbps     53 329 kbps     00:25:27.560    30 804 kbps     00:28:28.640    27 629 kbps     00:32:35.480    68 497 bytes    409 601 bytes   00:23:36.240   
4               0:38:08.880     0:10:47.960     10 930 kbps     50 593 kbps     00:45:32.920    30 885 kbps     00:41:35.640    27 383 kbps     00:48:12.440    54 650 bytes    411 935 bytes   00:45:32.960   
5               0:48:56.840     0:13:02.960     11 819 kbps     44 423 kbps     00:53:21.760    30 176 kbps     00:53:20.800    27 209 kbps     00:56:02.520    59 094 bytes    544 763 bytes   00:53:22.280   
6               1:01:59.800     0:09:04.840     11 478 kbps     43 823 kbps     01:02:21.000    30 826 kbps     01:07:18.400    27 127 kbps     01:07:17.840    57 392 bytes    427 599 bytes   01:02:21.840   
7               1:11:04.640     0:07:45.239     15 487 kbps     38 313 kbps     01:15:43.000    30 856 kbps     01:17:26.760    27 681 kbps     01:12:02.000    77 433 bytes    372 203 bytes   01:15:44.000   
8               1:18:49.880     0:07:45.040     12 901 kbps     47 255 kbps     01:18:58.440    30 722 kbps     01:25:42.040    27 018 kbps     01:22:08.080    64 509 bytes    389 737 bytes   01:25:43.040   

STREAM DIAGNOSTICS:

File            PID             Type            Codec           Language                Seconds                 Bitrate                 Bytes           Packets        
----            ---             ----            -----           --------                --------------          --------------          -------------   -----          
00004.M2TS      4113 (0x1011)   0x1B            AVC                                     5194,840                12 999                  8 441 276 326   45 952 939     
00004.M2TS      4352 (0x1100)   0x81            AC3             eng (English)           5194,840                256                     166 238 208     974 052        
00004.M2TS      4353 (0x1101)   0x81            AC3             spa (Spanish)           5194,840                256                     166 238 208     974 052        
00004.M2TS      4354 (0x1102)   0x81            AC3             deu (German)            5194,840                224                     145 459 328     811 715        
00004.M2TS      4355 (0x1103)   0x81            AC3             rus (Russian)           5194,840                224                     145 458 432     811 710        
00004.M2TS      4608 (0x1200)   0x90            PGS             eng (English)           5194,840                14                      9 035 724       54 205         
00004.M2TS      4609 (0x1201)   0x90            PGS             spa (Spanish)           5194,840                14                      9 277 785       55 806         
00004.M2TS      4610 (0x1202)   0x90            PGS             nld (Dutch)             5194,840                13                      8 544 787       51 514         

[/code]
<---- END FORUMS PASTE ---->

QUICK SUMMARY:

Disc Title: Into the Universe with Stephen Hawking (2010)
Disc Size: 20 846 555 948 bytes
Protection: AACS
BD-Java: Yes
Playlist: 00004.MPLS
Size: 9 573 212 160 bytes
Length: 1:26:34
Total Bitrate: 14,74 Mbps
Video: MPEG-4 AVC Video / 12999 kbps / 1080i / 25 fps / 16:9 / High Profile 4.1
Audio: Russian / Dolby Digital Audio / 5.1 / 48 kHz / 224 kbps / DN -4dB
Audio: English / Dolby Digital Audio / 2.0 / 48 kHz / 256 kbps / Dolby Surround
Audio: German / Dolby Digital Audio / 2.0 / 48 kHz / 224 kbps
Audio: Spanish / Dolby Digital Audio / 2.0 / 48 kHz / 256 kbps / Dolby Surround
Subtitle: English / 13,915 kbps
Subtitle: Dutch / 13,159 kbps
Subtitle: Spanish / 14,287 kbps


********************
PLAYLIST: 01004.MPLS
********************

<--- BEGIN FORUMS PASTE --->
[code]
                                                                                                                Total   Video                                            
Title                                                           Codec   Length  Movie Size      Disc Size       Bitrate Bitrate Main Audio Track                          Secondary Audio Track
-----                                                           ------  ------- --------------  --------------  ------- ------- ------------------                        ---------------------
01004.MPLS                                                      AVC     1:26:34 9 573 212 160   20 846 555 948  14,74   13,00   DD AC3 5.1 224Kbps                       
[/code]

[code]

DISC INFO:

Disc Title:     Into the Universe with Stephen Hawking (2010)
Disc Size:      20 846 555 948 bytes
Protection:     AACS
BD-Java:        Yes
BDInfo:         0.5.6

PLAYLIST REPORT:

Name:                   01004.MPLS
Length:                 1:26:34 (h:m:s)
Size:                   9 573 212 160 bytes
Total Bitrate:          14,74 Mbps

VIDEO:

Codec                   Bitrate             Description    
-----                   -------             -----------    
MPEG-4 AVC Video        12999 kbps          1080i / 25 fps / 16:9 / High Profile 4.1

AUDIO:

Codec                           Language        Bitrate         Description    
-----                           --------        -------         -----------    
Dolby Digital Audio             Russian         224 kbps        5.1 / 48 kHz / 224 kbps / DN -4dB
Dolby Digital Audio             English         256 kbps        2.0 / 48 kHz / 256 kbps / Dolby Surround
Dolby Digital Audio             German          224 kbps        2.0 / 48 kHz / 224 kbps
Dolby Digital Audio             Spanish         256 kbps        2.0 / 48 kHz / 256 kbps / Dolby Surround

SUBTITLES:

Codec                           Language        Bitrate         Description    
-----                           --------        -------         -----------    
Presentation Graphics           English         13,915 kbps                    
Presentation Graphics           Dutch           13,159 kbps                    
Presentation Graphics           Spanish         14,287 kbps                    

FILES:

Name            Time In         Length          Size            Total Bitrate  
----            -------         ------          ----            -------------  
00004.M2TS      0:00:00.000     1:26:34.920     9 573 212 160   14 742         

CHAPTERS:

Number          Time In         Length          Avg Video Rate  Max 1-Sec Rate  Max 1-Sec Time  Max 5-Sec Rate  Max 5-Sec Time  Max 10Sec Rate  Max 10Sec Time  Avg Frame Size  Max Frame Size  Max Frame Time 
------          -------         ------          --------------  --------------  --------------  --------------  --------------  --------------  --------------  --------------  --------------  -------------- 
1               0:00:00.000     0:08:36.360     12 496 kbps     38 845 kbps     00:06:08.320    30 321 kbps     00:05:42.080    27 098 kbps     00:05:42.200    62 476 bytes    375 642 bytes   00:05:47.880   
2               0:08:36.360     0:12:18.560     15 055 kbps     47 270 kbps     00:14:35.760    30 543 kbps     00:19:56.720    27 469 kbps     00:19:56.640    75 275 bytes    527 601 bytes   00:16:47.320   
3               0:20:54.920     0:17:13.960     13 699 kbps     53 329 kbps     00:25:27.560    30 804 kbps     00:28:28.640    27 629 kbps     00:32:35.480    68 497 bytes    409 601 bytes   00:23:36.240   
4               0:38:08.880     0:10:47.960     10 930 kbps     50 593 kbps     00:45:32.920    30 885 kbps     00:41:35.640    27 383 kbps     00:48:12.440    54 650 bytes    411 935 bytes   00:45:32.960   
5               0:48:56.840     0:13:02.960     11 819 kbps     44 423 kbps     00:53:21.760    30 176 kbps     00:53:20.800    27 209 kbps     00:56:02.520    59 094 bytes    544 763 bytes   00:53:22.280   
6               1:01:59.800     0:09:04.840     11 478 kbps     43 823 kbps     01:02:21.000    30 826 kbps     01:07:18.400    27 127 kbps     01:07:17.840    57 392 bytes    427 599 bytes   01:02:21.840   
7               1:11:04.640     0:07:45.239     15 487 kbps     38 313 kbps     01:15:43.000    30 856 kbps     01:17:26.760    27 681 kbps     01:12:02.000    77 433 bytes    372 203 bytes   01:15:44.000   
8               1:18:49.880     0:07:45.040     12 901 kbps     47 255 kbps     01:18:58.440    30 722 kbps     01:25:42.040    27 018 kbps     01:22:08.080    64 509 bytes    389 737 bytes   01:25:43.040   

STREAM DIAGNOSTICS:

File            PID             Type            Codec           Language                Seconds                 Bitrate                 Bytes           Packets        
----            ---             ----            -----           --------                --------------          --------------          -------------   -----          
00004.M2TS      4113 (0x1011)   0x1B            AVC                                     5194,840                12 999                  8 441 276 326   45 952 939     
00004.M2TS      4352 (0x1100)   0x81            AC3             eng (English)           5194,840                256                     166 238 208     974 052        
00004.M2TS      4353 (0x1101)   0x81            AC3             spa (Spanish)           5194,840                256                     166 238 208     974 052        
00004.M2TS      4354 (0x1102)   0x81            AC3             deu (German)            5194,840                224                     145 459 328     811 715        
00004.M2TS      4355 (0x1103)   0x81            AC3             rus (Russian)           5194,840                224                     145 458 432     811 710        
00004.M2TS      4608 (0x1200)   0x90            PGS             eng (English)           5194,840                14                      9 035 724       54 205         
00004.M2TS      4609 (0x1201)   0x90            PGS             spa (Spanish)           5194,840                14                      9 277 785       55 806         
00004.M2TS      4610 (0x1202)   0x90            PGS             nld (Dutch)             5194,840                13                      8 544 787       51 514         

[/code]
<---- END FORUMS PASTE ---->

QUICK SUMMARY:

Disc Title: Into the Universe with Stephen Hawking (2010)
Disc Size: 20 846 555 948 bytes
Protection: AACS
BD-Java: Yes
Playlist: 01004.MPLS
Size: 9 573 212 160 bytes
Length: 1:26:34
Total Bitrate: 14,74 Mbps
Video: MPEG-4 AVC Video / 12999 kbps / 1080i / 25 fps / 16:9 / High Profile 4.1
Audio: Russian / Dolby Digital Audio / 5.1 / 48 kHz / 224 kbps / DN -4dB
Audio: English / Dolby Digital Audio / 2.0 / 48 kHz / 256 kbps / Dolby Surround
Audio: German / Dolby Digital Audio / 2.0 / 48 kHz / 224 kbps
Audio: Spanish / Dolby Digital Audio / 2.0 / 48 kHz / 256 kbps / Dolby Surround
Subtitle: English / 13,915 kbps
Subtitle: Dutch / 13,159 kbps
Subtitle: Spanish / 14,287 kbps


********************
PLAYLIST: 00002.MPLS
********************

<--- BEGIN FORUMS PASTE --->
[code]
                                                                                                                Total   Video                                            
Title                                                           Codec   Length  Movie Size      Disc Size       Bitrate Bitrate Main Audio Track                          Secondary Audio Track
-----                                                           ------  ------- --------------  --------------  ------- ------- ------------------                        ---------------------
00002.MPLS                                                      AVC     0:43:29 4 868 911 104   20 846 555 948  14,93   13,00   DD AC3 5.1 384Kbps                       
[/code]

[code]

DISC INFO:

Disc Title:     Into the Universe with Stephen Hawking (2010)
Disc Size:      20 846 555 948 bytes
Protection:     AACS
BD-Java:        Yes
BDInfo:         0.5.6

PLAYLIST REPORT:

Name:                   00002.MPLS
Length:                 0:43:29 (h:m:s)
Size:                   4 868 911 104 bytes
Total Bitrate:          14,93 Mbps

VIDEO:

Codec                   Bitrate             Description    
-----                   -------             -----------    
MPEG-4 AVC Video        13001 kbps          1080i / 25 fps / 16:9 / High Profile 4.1

AUDIO:

Codec                           Language        Bitrate         Description    
-----                           --------        -------         -----------    
Dolby Digital Audio             Russian         384 kbps        5.1 / 48 kHz / 384 kbps / DN -4dB
Dolby Digital Audio             English         256 kbps        2.0 / 48 kHz / 256 kbps / Dolby Surround
Dolby Digital Audio             German          224 kbps        2.0 / 48 kHz / 224 kbps
Dolby Digital Audio             Spanish         256 kbps        2.0 / 48 kHz / 256 kbps / Dolby Surround

SUBTITLES:

Codec                           Language        Bitrate         Description    
-----                           --------        -------         -----------    
Presentation Graphics           English         12,010 kbps                    
Presentation Graphics           Dutch           11,173 kbps                    
Presentation Graphics           Spanish         12,668 kbps                    

FILES:

Name            Time In         Length          Size            Total Bitrate  
----            -------         ------          ----            -------------  
00002.M2TS      0:00:00.000     0:43:29.080     4 868 911 104   14 929         

CHAPTERS:

Number          Time In         Length          Avg Video Rate  Max 1-Sec Rate  Max 1-Sec Time  Max 5-Sec Rate  Max 5-Sec Time  Max 10Sec Rate  Max 10Sec Time  Avg Frame Size  Max Frame Size  Max Frame Time 
------          -------         ------          --------------  --------------  --------------  --------------  --------------  --------------  --------------  --------------  --------------  -------------- 
1               0:00:00.000     0:11:22.960     13 473 kbps     41 656 kbps     00:09:33.439    30 798 kbps     00:02:34.440    27 768 kbps     00:02:34.280    67 359 bytes    428 226 bytes   00:09:34.280   
2               0:11:22.960     0:12:49.440     12 016 kbps     50 481 kbps     00:12:50.080    30 442 kbps     00:22:42.200    27 166 kbps     00:22:37.320    60 082 bytes    614 023 bytes   00:12:50.000   
3               0:24:12.400     0:12:33.760     13 484 kbps     43 152 kbps     00:29:48.760    30 745 kbps     00:29:47.800    27 591 kbps     00:25:12.400    67 421 bytes    451 892 bytes   00:32:57.720   
4               0:36:46.160     0:06:42.920     13 176 kbps     45 564 kbps     00:37:41.240    29 219 kbps     00:40:04.560    26 896 kbps     00:36:46.160    65 884 bytes    400 885 bytes   00:40:05.640   

STREAM DIAGNOSTICS:

File            PID             Type            Codec           Language                Seconds                 Bitrate                 Bytes           Packets        
----            ---             ----            -----           --------                --------------          --------------          -------------   -----          
00002.M2TS      4113 (0x1011)   0x1B            AVC                                     2609,000                13 001                  4 239 957 193   23 081 552     
00002.M2TS      4352 (0x1100)   0x81            AC3             eng (English)           2609,000                256                     83 490 816      489 204        
00002.M2TS      4353 (0x1101)   0x81            AC3             spa (Spanish)           2609,000                256                     83 490 816      489 204        
00002.M2TS      4354 (0x1102)   0x81            AC3             deu (German)            2609,000                224                     73 055 360      407 675        
00002.M2TS      4355 (0x1103)   0x81            AC3             rus (Russian)           2609,000                384                     125 233 152     733 788        
00002.M2TS      4608 (0x1200)   0x90            PGS             eng (English)           2609,000                12                      3 916 820       23 397         
00002.M2TS      4609 (0x1201)   0x90            PGS             spa (Spanish)           2609,000                13                      4 131 341       24 586         
00002.M2TS      4610 (0x1202)   0x90            PGS             nld (Dutch)             2609,000                11                      3 643 821       21 875         

[/code]
<---- END FORUMS PASTE ---->

QUICK SUMMARY:

Disc Title: Into the Universe with Stephen Hawking (2010)
Disc Size: 20 846 555 948 bytes
Protection: AACS
BD-Java: Yes
Playlist: 00002.MPLS
Size: 4 868 911 104 bytes
Length: 0:43:29
Total Bitrate: 14,93 Mbps
Video: MPEG-4 AVC Video / 13001 kbps / 1080i / 25 fps / 16:9 / High Profile 4.1
Audio: Russian / Dolby Digital Audio / 5.1 / 48 kHz / 384 kbps / DN -4dB
Audio: English / Dolby Digital Audio / 2.0 / 48 kHz / 256 kbps / Dolby Surround
Audio: German / Dolby Digital Audio / 2.0 / 48 kHz / 224 kbps
Audio: Spanish / Dolby Digital Audio / 2.0 / 48 kHz / 256 kbps / Dolby Surround
Subtitle: English / 12,010 kbps
Subtitle: Dutch / 11,173 kbps
Subtitle: Spanish / 12,668 kbps


********************
PLAYLIST: 01002.MPLS
********************

<--- BEGIN FORUMS PASTE --->
[code]
                                                                                                                Total   Video                                            
Title                                                           Codec   Length  Movie Size      Disc Size       Bitrate Bitrate Main Audio Track                          Secondary Audio Track
-----                                                           ------  ------- --------------  --------------  ------- ------- ------------------                        ---------------------
01002.MPLS                                                      AVC     0:43:29 4 868 911 104   20 846 555 948  14,93   13,00   DD AC3 5.1 384Kbps                       
[/code]

[code]

DISC INFO:

Disc Title:     Into the Universe with Stephen Hawking (2010)
Disc Size:      20 846 555 948 bytes
Protection:     AACS
BD-Java:        Yes
BDInfo:         0.5.6

PLAYLIST REPORT:

Name:                   01002.MPLS
Length:                 0:43:29 (h:m:s)
Size:                   4 868 911 104 bytes
Total Bitrate:          14,93 Mbps

VIDEO:

Codec                   Bitrate             Description    
-----                   -------             -----------    
MPEG-4 AVC Video        13001 kbps          1080i / 25 fps / 16:9 / High Profile 4.1

AUDIO:

Codec                           Language        Bitrate         Description    
-----                           --------        -------         -----------    
Dolby Digital Audio             Russian         384 kbps        5.1 / 48 kHz / 384 kbps / DN -4dB
Dolby Digital Audio             English         256 kbps        2.0 / 48 kHz / 256 kbps / Dolby Surround
Dolby Digital Audio             German          224 kbps        2.0 / 48 kHz / 224 kbps
Dolby Digital Audio             Spanish         256 kbps        2.0 / 48 kHz / 256 kbps / Dolby Surround

SUBTITLES:

Codec                           Language        Bitrate         Description    
-----                           --------        -------         -----------    
Presentation Graphics           English         12,010 kbps                    
Presentation Graphics           Dutch           11,173 kbps                    
Presentation Graphics           Spanish         12,668 kbps                    

FILES:

Name            Time In         Length          Size            Total Bitrate  
----            -------         ------          ----            -------------  
00002.M2TS      0:00:00.000     0:43:29.080     4 868 911 104   14 929         

CHAPTERS:

Number          Time In         Length          Avg Video Rate  Max 1-Sec Rate  Max 1-Sec Time  Max 5-Sec Rate  Max 5-Sec Time  Max 10Sec Rate  Max 10Sec Time  Avg Frame Size  Max Frame Size  Max Frame Time 
------          -------         ------          --------------  --------------  --------------  --------------  --------------  --------------  --------------  --------------  --------------  -------------- 
1               0:00:00.000     0:11:22.960     13 473 kbps     41 656 kbps     00:09:33.439    30 798 kbps     00:02:34.440    27 768 kbps     00:02:34.280    67 359 bytes    428 226 bytes   00:09:34.280   
2               0:11:22.960     0:12:49.440     12 016 kbps     50 481 kbps     00:12:50.080    30 442 kbps     00:22:42.200    27 166 kbps     00:22:37.320    60 082 bytes    614 023 bytes   00:12:50.000   
3               0:24:12.400     0:12:33.760     13 484 kbps     43 152 kbps     00:29:48.760    30 745 kbps     00:29:47.800    27 591 kbps     00:25:12.400    67 421 bytes    451 892 bytes   00:32:57.720   
4               0:36:46.160     0:06:42.920     13 176 kbps     45 564 kbps     00:37:41.240    29 219 kbps     00:40:04.560    26 896 kbps     00:36:46.160    65 884 bytes    400 885 bytes   00:40:05.640   

STREAM DIAGNOSTICS:

File            PID             Type            Codec           Language                Seconds                 Bitrate                 Bytes           Packets        
----            ---             ----            -----           --------                --------------          --------------          -------------   -----          
00002.M2TS      4113 (0x1011)   0x1B            AVC                                     2609,000                13 001                  4 239 957 193   23 081 552     
00002.M2TS      4352 (0x1100)   0x81            AC3             eng (English)           2609,000                256                     83 490 816      489 204        
00002.M2TS      4353 (0x1101)   0x81            AC3             spa (Spanish)           2609,000                256                     83 490 816      489 204        
00002.M2TS      4354 (0x1102)   0x81            AC3             deu (German)            2609,000                224                     73 055 360      407 675        
00002.M2TS      4355 (0x1103)   0x81            AC3             rus (Russian)           2609,000                384                     125 233 152     733 788        
00002.M2TS      4608 (0x1200)   0x90            PGS             eng (English)           2609,000                12                      3 916 820       23 397         
00002.M2TS      4609 (0x1201)   0x90            PGS             spa (Spanish)           2609,000                13                      4 131 341       24 586         
00002.M2TS      4610 (0x1202)   0x90            PGS             nld (Dutch)             2609,000                11                      3 643 821       21 875         

[/code]
<---- END FORUMS PASTE ---->

QUICK SUMMARY:

Disc Title: Into the Universe with Stephen Hawking (2010)
Disc Size: 20 846 555 948 bytes
Protection: AACS
BD-Java: Yes
Playlist: 01002.MPLS
Size: 4 868 911 104 bytes
Length: 0:43:29
Total Bitrate: 14,93 Mbps
Video: MPEG-4 AVC Video / 13001 kbps / 1080i / 25 fps / 16:9 / High Profile 4.1
Audio: Russian / Dolby Digital Audio / 5.1 / 48 kHz / 384 kbps / DN -4dB
Audio: English / Dolby Digital Audio / 2.0 / 48 kHz / 256 kbps / Dolby Surround
Audio: German / Dolby Digital Audio / 2.0 / 48 kHz / 224 kbps
Audio: Spanish / Dolby Digital Audio / 2.0 / 48 kHz / 256 kbps / Dolby Surround
Subtitle: English / 12,010 kbps
Subtitle: Dutch / 11,173 kbps
Subtitle: Spanish / 12,668 kbps


********************
PLAYLIST: 00003.MPLS
********************

<--- BEGIN FORUMS PASTE --->
[code]
                                                                                                                Total   Video                                            
Title                                                           Codec   Length  Movie Size      Disc Size       Bitrate Bitrate Main Audio Track                          Secondary Audio Track
-----                                                           ------  ------- --------------  --------------  ------- ------- ------------------                        ---------------------
00003.MPLS                                                      AVC     0:43:26 4 864 229 376   20 846 555 948  14,93   13,00   DD AC3 5.1 384Kbps                       
[/code]

[code]

DISC INFO:

Disc Title:     Into the Universe with Stephen Hawking (2010)
Disc Size:      20 846 555 948 bytes
Protection:     AACS
BD-Java:        Yes
BDInfo:         0.5.6

PLAYLIST REPORT:

Name:                   00003.MPLS
Length:                 0:43:26 (h:m:s)
Size:                   4 864 229 376 bytes
Total Bitrate:          14,93 Mbps

VIDEO:

Codec                   Bitrate             Description    
-----                   -------             -----------    
MPEG-4 AVC Video        13000 kbps          1080i / 25 fps / 16:9 / High Profile 4.1

AUDIO:

Codec                           Language        Bitrate         Description    
-----                           --------        -------         -----------    
Dolby Digital Audio             Russian         384 kbps        5.1 / 48 kHz / 384 kbps / DN -4dB
Dolby Digital Audio             English         256 kbps        2.0 / 48 kHz / 256 kbps / Dolby Surround
Dolby Digital Audio             German          224 kbps        2.0 / 48 kHz / 224 kbps
Dolby Digital Audio             Spanish         256 kbps        2.0 / 48 kHz / 256 kbps / Dolby Surround

SUBTITLES:

Codec                           Language        Bitrate         Description    
-----                           --------        -------         -----------    
Presentation Graphics           English         12,709 kbps                    
Presentation Graphics           Dutch           12,910 kbps                    
Presentation Graphics           Spanish         12,900 kbps                    

FILES:

Name            Time In         Length          Size            Total Bitrate  
----            -------         ------          ----            -------------  
00003.M2TS      0:00:00.000     0:43:26.200     4 864 229 376   14 931         

CHAPTERS:

Number          Time In         Length          Avg Video Rate  Max 1-Sec Rate  Max 1-Sec Time  Max 5-Sec Rate  Max 5-Sec Time  Max 10Sec Rate  Max 10Sec Time  Avg Frame Size  Max Frame Size  Max Frame Time 
------          -------         ------          --------------  --------------  --------------  --------------  --------------  --------------  --------------  --------------  --------------  -------------- 
1               0:00:00.000     0:12:49.319     14 735 kbps     51 117 kbps     00:00:35.080    30 270 kbps     00:08:20.400    27 684 kbps     00:08:19.360    73 669 bytes    421 181 bytes   00:01:31.680   
2               0:12:49.319     0:06:25.320     12 703 kbps     38 677 kbps     00:19:03.800    29 942 kbps     00:18:05.879    27 774 kbps     00:18:03.000    63 514 bytes    339 770 bytes   00:19:04.359   
3               0:19:14.640     0:19:34.920     10 905 kbps     37 826 kbps     00:34:31.720    28 213 kbps     00:36:53.840    26 100 kbps     00:29:28.120    54 524 bytes    416 921 bytes   00:26:54.359   
4               0:38:49.560     0:04:36.639     17 485 kbps     36 653 kbps     00:42:26.880    27 750 kbps     00:43:09.520    26 204 kbps     00:39:35.840    87 435 bytes    352 969 bytes   00:42:41.000   

STREAM DIAGNOSTICS:

File            PID             Type            Codec           Language                Seconds                 Bitrate                 Bytes           Packets        
----            ---             ----            -----           --------                --------------          --------------          -------------   -----          
00003.M2TS      4113 (0x1011)   0x1B            AVC                                     2606,120                13 000                  4 234 928 019   23 054 204     
00003.M2TS      4352 (0x1100)   0x81            AC3             eng (English)           2606,120                256                     83 398 656      488 664        
00003.M2TS      4353 (0x1101)   0x81            AC3             spa (Spanish)           2606,120                256                     83 398 656      488 664        
00003.M2TS      4354 (0x1102)   0x81            AC3             deu (German)            2606,120                224                     72 974 720      407 225        
00003.M2TS      4355 (0x1103)   0x81            AC3             rus (Russian)           2606,120                384                     125 082 624     732 906        
00003.M2TS      4608 (0x1200)   0x90            PGS             eng (English)           2606,120                13                      4 140 221       24 860         
00003.M2TS      4609 (0x1201)   0x90            PGS             spa (Spanish)           2606,120                13                      4 202 383       25 306         
00003.M2TS      4610 (0x1202)   0x90            PGS             nld (Dutch)             2606,120                13                      4 205 686       25 148         

[/code]
<---- END FORUMS PASTE ---->

QUICK SUMMARY:

Disc Title: Into the Universe with Stephen Hawking (2010)
Disc Size: 20 846 555 948 bytes
Protection: AACS
BD-Java: Yes
Playlist: 00003.MPLS
Size: 4 864 229 376 bytes
Length: 0:43:26
Total Bitrate: 14,93 Mbps
Video: MPEG-4 AVC Video / 13000 kbps / 1080i / 25 fps / 16:9 / High Profile 4.1
Audio: Russian / Dolby Digital Audio / 5.1 / 48 kHz / 384 kbps / DN -4dB
Audio: English / Dolby Digital Audio / 2.0 / 48 kHz / 256 kbps / Dolby Surround
Audio: German / Dolby Digital Audio / 2.0 / 48 kHz / 224 kbps
Audio: Spanish / Dolby Digital Audio / 2.0 / 48 kHz / 256 kbps / Dolby Surround
Subtitle: English / 12,709 kbps
Subtitle: Dutch / 12,910 kbps
Subtitle: Spanish / 12,900 kbps


********************
PLAYLIST: 01003.MPLS
********************

<--- BEGIN FORUMS PASTE --->
[code]
                                                                                                                Total   Video                                            
Title                                                           Codec   Length  Movie Size      Disc Size       Bitrate Bitrate Main Audio Track                          Secondary Audio Track
-----                                                           ------  ------- --------------  --------------  ------- ------- ------------------                        ---------------------
01003.MPLS                                                      AVC     0:43:26 4 864 229 376   20 846 555 948  14,93   13,00   DD AC3 5.1 384Kbps                       
[/code]

[code]

DISC INFO:

Disc Title:     Into the Universe with Stephen Hawking (2010)
Disc Size:      20 846 555 948 bytes
Protection:     AACS
BD-Java:        Yes
BDInfo:         0.5.6

PLAYLIST REPORT:

Name:                   01003.MPLS
Length:                 0:43:26 (h:m:s)
Size:                   4 864 229 376 bytes
Total Bitrate:          14,93 Mbps

VIDEO:

Codec                   Bitrate             Description    
-----                   -------             -----------    
MPEG-4 AVC Video        13000 kbps          1080i / 25 fps / 16:9 / High Profile 4.1

AUDIO:

Codec                           Language        Bitrate         Description    
-----                           --------        -------         -----------    
Dolby Digital Audio             Russian         384 kbps        5.1 / 48 kHz / 384 kbps / DN -4dB
Dolby Digital Audio             English         256 kbps        2.0 / 48 kHz / 256 kbps / Dolby Surround
Dolby Digital Audio             German          224 kbps        2.0 / 48 kHz / 224 kbps
Dolby Digital Audio             Spanish         256 kbps        2.0 / 48 kHz / 256 kbps / Dolby Surround

SUBTITLES:

Codec                           Language        Bitrate         Description    
-----                           --------        -------         -----------    
Presentation Graphics           English         12,709 kbps                    
Presentation Graphics           Dutch           12,910 kbps                    
Presentation Graphics           Spanish         12,900 kbps                    

FILES:

Name            Time In         Length          Size            Total Bitrate  
----            -------         ------          ----            -------------  
00003.M2TS      0:00:00.000     0:43:26.200     4 864 229 376   14 931         

CHAPTERS:

Number          Time In         Length          Avg Video Rate  Max 1-Sec Rate  Max 1-Sec Time  Max 5-Sec Rate  Max 5-Sec Time  Max 10Sec Rate  Max 10Sec Time  Avg Frame Size  Max Frame Size  Max Frame Time 
------          -------         ------          --------------  --------------  --------------  --------------  --------------  --------------  --------------  --------------  --------------  -------------- 
1               0:00:00.000     0:12:49.319     14 735 kbps     51 117 kbps     00:00:35.080    30 270 kbps     00:08:20.400    27 684 kbps     00:08:19.360    73 669 bytes    421 181 bytes   00:01:31.680   
2               0:12:49.319     0:06:25.320     12 703 kbps     38 677 kbps     00:19:03.800    29 942 kbps     00:18:05.879    27 774 kbps     00:18:03.000    63 514 bytes    339 770 bytes   00:19:04.359   
3               0:19:14.640     0:19:34.920     10 905 kbps     37 826 kbps     00:34:31.720    28 213 kbps     00:36:53.840    26 100 kbps     00:29:28.120    54 524 bytes    416 921 bytes   00:26:54.359   
4               0:38:49.560     0:04:36.639     17 485 kbps     36 653 kbps     00:42:26.880    27 750 kbps     00:43:09.520    26 204 kbps     00:39:35.840    87 435 bytes    352 969 bytes   00:42:41.000   

STREAM DIAGNOSTICS:

File            PID             Type            Codec           Language                Seconds                 Bitrate                 Bytes           Packets        
----            ---             ----            -----           --------                --------------          --------------          -------------   -----          
00003.M2TS      4113 (0x1011)   0x1B            AVC                                     2606,120                13 000                  4 234 928 019   23 054 204     
00003.M2TS      4352 (0x1100)   0x81            AC3             eng (English)           2606,120                256                     83 398 656      488 664        
00003.M2TS      4353 (0x1101)   0x81            AC3             spa (Spanish)           2606,120                256                     83 398 656      488 664        
00003.M2TS      4354 (0x1102)   0x81            AC3             deu (German)            2606,120                224                     72 974 720      407 225        
00003.M2TS      4355 (0x1103)   0x81            AC3             rus (Russian)           2606,120                384                     125 082 624     732 906        
00003.M2TS      4608 (0x1200)   0x90            PGS             eng (English)           2606,120                13                      4 140 221       24 860         
00003.M2TS      4609 (0x1201)   0x90            PGS             spa (Spanish)           2606,120                13                      4 202 383       25 306         
00003.M2TS      4610 (0x1202)   0x90            PGS             nld (Dutch)             2606,120                13                      4 205 686       25 148         

[/code]
<---- END FORUMS PASTE ---->

QUICK SUMMARY:

Disc Title: Into the Universe with Stephen Hawking (2010)
Disc Size: 20 846 555 948 bytes
Protection: AACS
BD-Java: Yes
Playlist: 01003.MPLS
Size: 4 864 229 376 bytes
Length: 0:43:26
Total Bitrate: 14,93 Mbps
Video: MPEG-4 AVC Video / 13000 kbps / 1080i / 25 fps / 16:9 / High Profile 4.1
Audio: Russian / Dolby Digital Audio / 5.1 / 48 kHz / 384 kbps / DN -4dB
Audio: English / Dolby Digital Audio / 2.0 / 48 kHz / 256 kbps / Dolby Surround
Audio: German / Dolby Digital Audio / 2.0 / 48 kHz / 224 kbps
Audio: Spanish / Dolby Digital Audio / 2.0 / 48 kHz / 256 kbps / Dolby Surround
Subtitle: English / 12,709 kbps
Subtitle: Dutch / 12,910 kbps
Subtitle: Spanish / 12,900 kbps


********************
PLAYLIST: 00011.MPLS
********************

<--- BEGIN FORUMS PASTE --->
[code]
                                                                                                                Total   Video                                            
Title                                                           Codec   Length  Movie Size      Disc Size       Bitrate Bitrate Main Audio Track                          Secondary Audio Track
-----                                                           ------  ------- --------------  --------------  ------- ------- ------------------                        ---------------------
00011.MPLS                                                      AVC     0:06:32 529 050 048     20 846 555 948  10,80   8,87    DD AC3 5.1 448Kbps                        DD AC3 5.1 448Kbps
[/code]

[code]

DISC INFO:

Disc Title:     Into the Universe with Stephen Hawking (2010)
Disc Size:      20 846 555 948 bytes
Protection:     AACS
BD-Java:        Yes
BDInfo:         0.5.6

PLAYLIST REPORT:

Name:                   00011.MPLS
Length:                 0:06:32 (h:m:s)
Size:                   529 050 048 bytes
Total Bitrate:          10,80 Mbps

VIDEO:

Codec                   Bitrate             Description    
-----                   -------             -----------    
MPEG-4 AVC Video        8875 kbps           1080i / 25 fps / 16:9 / High Profile 4.1

AUDIO:

Codec                           Language        Bitrate         Description    
-----                           --------        -------         -----------    
Dolby Digital Audio             Undetermined    448 kbps        5.1 / 48 kHz / 448 kbps
Dolby Digital Audio             Undetermined    448 kbps        5.1 / 48 kHz / 448 kbps
Dolby Digital Audio             Undetermined    448 kbps        5.1 / 48 kHz / 448 kbps

FILES:

Name            Time In         Length          Size            Total Bitrate  
----            -------         ------          ----            -------------  
00011.M2TS      0:00:00.000     0:06:32.000     529 050 048     10 796         

CHAPTERS:

Number          Time In         Length          Avg Video Rate  Max 1-Sec Rate  Max 1-Sec Time  Max 5-Sec Rate  Max 5-Sec Time  Max 10Sec Rate  Max 10Sec Time  Avg Frame Size  Max Frame Size  Max Frame Time 
------          -------         ------          --------------  --------------  --------------  --------------  --------------  --------------  --------------  --------------  --------------  -------------- 
1               0:00:00.000     0:00:22.000     10 262 kbps     35 818 kbps     00:00:20.439    14 300 kbps     00:00:02.319    11 429 kbps     00:00:00.400    51 215 bytes    658 438 bytes   00:00:00.920   
2               0:00:22.000     0:00:20.000     6 767 kbps      23 161 kbps     00:00:27.440    9 445 kbps      00:00:23.799    7 439 kbps      00:00:25.720    33 834 bytes    479 261 bytes   00:00:27.960   
3               0:00:42.000     0:00:14.000     9 998 kbps      32 768 kbps     00:00:48.440    12 431 kbps     00:00:44.800    10 722 kbps     00:00:42.000    49 988 bytes    525 593 bytes   00:00:42.440   
4               0:00:56.000     0:00:07.000     9 287 kbps      20 688 kbps     00:01:02.000    8 181 kbps      00:00:58.000    0 kbps          00:00:00.000    46 435 bytes    451 459 bytes   00:01:02.960   
5               0:01:03.000     0:00:07.000     7 825 kbps      16 302 kbps     00:01:03.000    7 067 kbps      00:01:03.000    0 kbps          00:00:00.000    39 124 bytes    452 691 bytes   00:01:09.959   
6               0:01:10.000     0:00:22.000     8 299 kbps      31 072 kbps     00:01:23.440    11 341 kbps     00:01:23.440    10 339 kbps     00:01:21.720    41 496 bytes    599 534 bytes   00:01:23.959   
7               0:01:32.000     0:00:21.000     8 360 kbps      40 704 kbps     00:01:51.440    13 699 kbps     00:01:48.000    11 795 kbps     00:01:42.960    41 800 bytes    731 732 bytes   00:01:51.960   
8               0:01:53.000     0:00:06.000     11 173 kbps     27 876 kbps     00:01:58.000    11 736 kbps     00:01:54.000    0 kbps          00:00:00.000    55 866 bytes    515 605 bytes   00:01:53.400   
9               0:01:59.000     0:00:15.000     7 285 kbps      31 020 kbps     00:02:12.440    10 117 kbps     00:02:09.000    8 775 kbps      00:02:03.880    36 425 bytes    616 905 bytes   00:02:12.960   
10              0:02:14.000     0:00:20.000     11 987 kbps     53 883 kbps     00:02:19.440    21 206 kbps     00:02:19.440    18 190 kbps     00:02:17.720    59 934 bytes    804 921 bytes   00:02:19.960   
11              0:02:34.000     0:00:21.000     4 586 kbps      16 862 kbps     00:02:54.000    6 074 kbps      00:02:36.320    5 382 kbps      00:02:34.000    22 932 bytes    514 727 bytes   00:02:54.960   
12              0:02:55.000     0:00:07.000     10 208 kbps     22 900 kbps     00:03:01.000    9 791 kbps      00:02:57.000    0 kbps          00:00:00.000    51 040 bytes    595 125 bytes   00:03:01.960   
13              0:03:02.000     0:00:22.000     10 606 kbps     39 090 kbps     00:03:15.440    13 769 kbps     00:03:14.480    13 405 kbps     00:03:08.440    53 032 bytes    638 407 bytes   00:03:15.960   
14              0:03:24.000     0:00:21.000     12 143 kbps     51 979 kbps     00:03:36.480    21 858 kbps     00:03:36.440    17 990 kbps     00:03:34.720    60 714 bytes    848 432 bytes   00:03:37.440   
15              0:03:45.000     0:00:14.000     12 842 kbps     44 575 kbps     00:03:50.480    20 378 kbps     00:03:50.320    16 587 kbps     00:03:48.720    64 210 bytes    877 432 bytes   00:03:51.440   
16              0:03:59.000     0:00:06.000     5 726 kbps      19 480 kbps     00:04:04.000    6 320 kbps      00:04:00.000    0 kbps          00:00:00.000    28 631 bytes    509 799 bytes   00:04:04.960   
17              0:04:05.000     0:00:15.000     12 586 kbps     43 626 kbps     00:04:11.440    16 228 kbps     00:04:11.440    14 621 kbps     00:04:09.880    62 928 bytes    664 458 bytes   00:04:11.960   
18              0:04:20.000     0:00:14.000     7 657 kbps      26 262 kbps     00:04:25.440    9 886 kbps      00:04:21.800    8 572 kbps      00:04:23.240    38 286 bytes    470 402 bytes   00:04:25.960   
19              0:04:34.000     0:00:20.000     5 086 kbps      21 435 kbps     00:04:39.480    8 402 kbps      00:04:39.320    7 354 kbps      00:04:37.680    25 432 bytes    367 131 bytes   00:04:53.960   
20              0:04:54.000     0:00:14.000     9 273 kbps      32 196 kbps     00:05:00.440    11 204 kbps     00:05:00.440    10 007 kbps     00:04:57.960    46 367 bytes    614 583 bytes   00:05:07.960   
21              0:05:08.000     0:00:00.000     0 kbps          0 kbps          00:00:00.000    0 kbps          00:00:00.000    0 kbps          00:00:00.000    0 bytes         0 bytes         00:00:00.000   
22              0:05:08.000     0:00:14.000     9 504 kbps      32 346 kbps     00:05:14.440    12 024 kbps     00:05:10.800    10 702 kbps     00:05:08.000    47 521 bytes    497 979 bytes   00:05:08.440   
23              0:05:22.000     0:00:14.000     5 630 kbps      18 910 kbps     00:05:28.480    7 721 kbps      00:05:28.320    6 458 kbps      00:05:25.960    28 150 bytes    445 993 bytes   00:05:35.960   
24              0:05:36.000     0:00:15.000     12 178 kbps     41 485 kbps     00:05:49.440    15 656 kbps     00:05:45.720    14 556 kbps     00:05:40.960    60 891 bytes    707 229 bytes   00:05:42.960   
25              0:05:51.000     0:00:13.000     8 787 kbps      31 112 kbps     00:05:56.440    11 268 kbps     00:05:56.320    9 741 kbps      00:05:53.960    43 936 bytes    519 882 bytes   00:05:56.960   
26              0:06:04.000     0:00:22.000     7 151 kbps      26 727 kbps     00:06:17.440    9 298 kbps      00:06:15.240    9 101 kbps      00:06:10.160    35 754 bytes    389 216 bytes   00:06:17.960   
27              0:06:26.000     0:00:06.000     3 393 kbps      6 822 kbps      00:06:30.200    4 009 kbps      00:06:26.360    0 kbps          00:00:00.000    17 194 bytes    204 798 bytes   00:06:26.400   

STREAM DIAGNOSTICS:

File            PID             Type            Codec           Language                Seconds                 Bitrate                 Bytes           Packets        
----            ---             ----            -----           --------                --------------          --------------          -------------   -----          
00011.M2TS      4113 (0x1011)   0x1B            AVC                                     391,920                 8 878                   434 913 310     2 370 139      
00011.M2TS      4352 (0x1100)   0x81            AC3             und (Undetermined)      391,920                 449                     21 975 296      122 630        
00011.M2TS      4353 (0x1101)   0x81            AC3             und (Undetermined)      391,920                 449                     21 975 296      122 630        
00011.M2TS      4354 (0x1102)   0x81            AC3             und (Undetermined)      391,920                 449                     21 975 296      122 630        

[/code]
<---- END FORUMS PASTE ---->

QUICK SUMMARY:

Disc Title: Into the Universe with Stephen Hawking (2010)
Disc Size: 20 846 555 948 bytes
Protection: AACS
BD-Java: Yes
Playlist: 00011.MPLS
Size: 529 050 048 bytes
Length: 0:06:32
Total Bitrate: 10,80 Mbps
Video: MPEG-4 AVC Video / 8875 kbps / 1080i / 25 fps / 16:9 / High Profile 4.1
Audio: Undetermined / Dolby Digital Audio / 5.1 / 48 kHz / 448 kbps
Audio: Undetermined / Dolby Digital Audio / 5.1 / 48 kHz / 448 kbps
Audio: Undetermined / Dolby Digital Audio / 5.1 / 48 kHz / 448 kbps


********************
PLAYLIST: 01011.MPLS
********************

<--- BEGIN FORUMS PASTE --->
[code]
                                                                                                                Total   Video                                            
Title                                                           Codec   Length  Movie Size      Disc Size       Bitrate Bitrate Main Audio Track                          Secondary Audio Track
-----                                                           ------  ------- --------------  --------------  ------- ------- ------------------                        ---------------------
01011.MPLS                                                      AVC     0:06:32 529 050 048     20 846 555 948  10,80   8,87    DD AC3 5.1 448Kbps                        DD AC3 5.1 448Kbps
[/code]

[code]

DISC INFO:

Disc Title:     Into the Universe with Stephen Hawking (2010)
Disc Size:      20 846 555 948 bytes
Protection:     AACS
BD-Java:        Yes
BDInfo:         0.5.6

PLAYLIST REPORT:

Name:                   01011.MPLS
Length:                 0:06:32 (h:m:s)
Size:                   529 050 048 bytes
Total Bitrate:          10,80 Mbps

VIDEO:

Codec                   Bitrate             Description    
-----                   -------             -----------    
MPEG-4 AVC Video        8875 kbps           1080i / 25 fps / 16:9 / High Profile 4.1

AUDIO:

Codec                           Language        Bitrate         Description    
-----                           --------        -------         -----------    
Dolby Digital Audio             Undetermined    448 kbps        5.1 / 48 kHz / 448 kbps
Dolby Digital Audio             Undetermined    448 kbps        5.1 / 48 kHz / 448 kbps
Dolby Digital Audio             Undetermined    448 kbps        5.1 / 48 kHz / 448 kbps

FILES:

Name            Time In         Length          Size            Total Bitrate  
----            -------         ------          ----            -------------  
00011.M2TS      0:00:00.000     0:06:32.000     529 050 048     10 796         

CHAPTERS:

Number          Time In         Length          Avg Video Rate  Max 1-Sec Rate  Max 1-Sec Time  Max 5-Sec Rate  Max 5-Sec Time  Max 10Sec Rate  Max 10Sec Time  Avg Frame Size  Max Frame Size  Max Frame Time 
------          -------         ------          --------------  --------------  --------------  --------------  --------------  --------------  --------------  --------------  --------------  -------------- 
1               0:00:00.000     0:00:22.000     10 262 kbps     35 818 kbps     00:00:20.439    14 300 kbps     00:00:02.319    11 429 kbps     00:00:00.400    51 215 bytes    658 438 bytes   00:00:00.920   
2               0:00:22.000     0:00:20.000     6 767 kbps      23 161 kbps     00:00:27.440    9 445 kbps      00:00:23.799    7 439 kbps      00:00:25.720    33 834 bytes    479 261 bytes   00:00:27.960   
3               0:00:42.000     0:00:14.000     9 998 kbps      32 768 kbps     00:00:48.440    12 431 kbps     00:00:44.800    10 722 kbps     00:00:42.000    49 988 bytes    525 593 bytes   00:00:42.440   
4               0:00:56.000     0:00:07.000     9 287 kbps      20 688 kbps     00:01:02.000    8 181 kbps      00:00:58.000    0 kbps          00:00:00.000    46 435 bytes    451 459 bytes   00:01:02.960   
5               0:01:03.000     0:00:07.000     7 825 kbps      16 302 kbps     00:01:03.000    7 067 kbps      00:01:03.000    0 kbps          00:00:00.000    39 124 bytes    452 691 bytes   00:01:09.959   
6               0:01:10.000     0:00:22.000     8 299 kbps      31 072 kbps     00:01:23.440    11 341 kbps     00:01:23.440    10 339 kbps     00:01:21.720    41 496 bytes    599 534 bytes   00:01:23.959   
7               0:01:32.000     0:00:21.000     8 360 kbps      40 704 kbps     00:01:51.440    13 699 kbps     00:01:48.000    11 795 kbps     00:01:42.960    41 800 bytes    731 732 bytes   00:01:51.960   
8               0:01:53.000     0:00:06.000     11 173 kbps     27 876 kbps     00:01:58.000    11 736 kbps     00:01:54.000    0 kbps          00:00:00.000    55 866 bytes    515 605 bytes   00:01:53.400   
9               0:01:59.000     0:00:15.000     7 285 kbps      31 020 kbps     00:02:12.440    10 117 kbps     00:02:09.000    8 775 kbps      00:02:03.880    36 425 bytes    616 905 bytes   00:02:12.960   
10              0:02:14.000     0:00:20.000     11 987 kbps     53 883 kbps     00:02:19.440    21 206 kbps     00:02:19.440    18 190 kbps     00:02:17.720    59 934 bytes    804 921 bytes   00:02:19.960   
11              0:02:34.000     0:00:21.000     4 586 kbps      16 862 kbps     00:02:54.000    6 074 kbps      00:02:36.320    5 382 kbps      00:02:34.000    22 932 bytes    514 727 bytes   00:02:54.960   
12              0:02:55.000     0:00:07.000     10 208 kbps     22 900 kbps     00:03:01.000    9 791 kbps      00:02:57.000    0 kbps          00:00:00.000    51 040 bytes    595 125 bytes   00:03:01.960   
13              0:03:02.000     0:00:22.000     10 606 kbps     39 090 kbps     00:03:15.440    13 769 kbps     00:03:14.480    13 405 kbps     00:03:08.440    53 032 bytes    638 407 bytes   00:03:15.960   
14              0:03:24.000     0:00:21.000     12 143 kbps     51 979 kbps     00:03:36.480    21 858 kbps     00:03:36.440    17 990 kbps     00:03:34.720    60 714 bytes    848 432 bytes   00:03:37.440   
15              0:03:45.000     0:00:14.000     12 842 kbps     44 575 kbps     00:03:50.480    20 378 kbps     00:03:50.320    16 587 kbps     00:03:48.720    64 210 bytes    877 432 bytes   00:03:51.440   
16              0:03:59.000     0:00:06.000     5 726 kbps      19 480 kbps     00:04:04.000    6 320 kbps      00:04:00.000    0 kbps          00:00:00.000    28 631 bytes    509 799 bytes   00:04:04.960   
17              0:04:05.000     0:00:15.000     12 586 kbps     43 626 kbps     00:04:11.440    16 228 kbps     00:04:11.440    14 621 kbps     00:04:09.880    62 928 bytes    664 458 bytes   00:04:11.960   
18              0:04:20.000     0:00:14.000     7 657 kbps      26 262 kbps     00:04:25.440    9 886 kbps      00:04:21.800    8 572 kbps      00:04:23.240    38 286 bytes    470 402 bytes   00:04:25.960   
19              0:04:34.000     0:00:20.000     5 086 kbps      21 435 kbps     00:04:39.480    8 402 kbps      00:04:39.320    7 354 kbps      00:04:37.680    25 432 bytes    367 131 bytes   00:04:53.960   
20              0:04:54.000     0:00:14.000     9 273 kbps      32 196 kbps     00:05:00.440    11 204 kbps     00:05:00.440    10 007 kbps     00:04:57.960    46 367 bytes    614 583 bytes   00:05:07.960   
21              0:05:08.000     0:00:00.000     0 kbps          0 kbps          00:00:00.000    0 kbps          00:00:00.000    0 kbps          00:00:00.000    0 bytes         0 bytes         00:00:00.000   
22              0:05:08.000     0:00:14.000     9 504 kbps      32 346 kbps     00:05:14.440    12 024 kbps     00:05:10.800    10 702 kbps     00:05:08.000    47 521 bytes    497 979 bytes   00:05:08.440   
23              0:05:22.000     0:00:14.000     5 630 kbps      18 910 kbps     00:05:28.480    7 721 kbps      00:05:28.320    6 458 kbps      00:05:25.960    28 150 bytes    445 993 bytes   00:05:35.960   
24              0:05:36.000     0:00:15.000     12 178 kbps     41 485 kbps     00:05:49.440    15 656 kbps     00:05:45.720    14 556 kbps     00:05:40.960    60 891 bytes    707 229 bytes   00:05:42.960   
25              0:05:51.000     0:00:13.000     8 787 kbps      31 112 kbps     00:05:56.440    11 268 kbps     00:05:56.320    9 741 kbps      00:05:53.960    43 936 bytes    519 882 bytes   00:05:56.960   
26              0:06:04.000     0:00:22.000     7 151 kbps      26 727 kbps     00:06:17.440    9 298 kbps      00:06:15.240    9 101 kbps      00:06:10.160    35 754 bytes    389 216 bytes   00:06:17.960   
27              0:06:26.000     0:00:06.000     3 393 kbps      6 822 kbps      00:06:30.200    4 009 kbps      00:06:26.360    0 kbps          00:00:00.000    17 194 bytes    204 798 bytes   00:06:26.400   

STREAM DIAGNOSTICS:

File            PID             Type            Codec           Language                Seconds                 Bitrate                 Bytes           Packets        
----            ---             ----            -----           --------                --------------          --------------          -------------   -----          
00011.M2TS      4113 (0x1011)   0x1B            AVC                                     391,920                 8 878                   434 913 310     2 370 139      
00011.M2TS      4352 (0x1100)   0x81            AC3             und (Undetermined)      391,920                 449                     21 975 296      122 630        
00011.M2TS      4353 (0x1101)   0x81            AC3             und (Undetermined)      391,920                 449                     21 975 296      122 630        
00011.M2TS      4354 (0x1102)   0x81            AC3             und (Undetermined)      391,920                 449                     21 975 296      122 630        

[/code]
<---- END FORUMS PASTE ---->

QUICK SUMMARY:

Disc Title: Into the Universe with Stephen Hawking (2010)
Disc Size: 20 846 555 948 bytes
Protection: AACS
BD-Java: Yes
Playlist: 01011.MPLS
Size: 529 050 048 bytes
Length: 0:06:32
Total Bitrate: 10,80 Mbps
Video: MPEG-4 AVC Video / 8875 kbps / 1080i / 25 fps / 16:9 / High Profile 4.1
Audio: Undetermined / Dolby Digital Audio / 5.1 / 48 kHz / 448 kbps
Audio: Undetermined / Dolby Digital Audio / 5.1 / 48 kHz / 448 kbps
Audio: Undetermined / Dolby Digital Audio / 5.1 / 48 kHz / 448 kbps


********************
PLAYLIST: 00014.MPLS
********************

<--- BEGIN FORUMS PASTE --->
[code]
                                                                                                                Total   Video                                            
Title                                                           Codec   Length  Movie Size      Disc Size       Bitrate Bitrate Main Audio Track                          Secondary Audio Track
-----                                                           ------  ------- --------------  --------------  ------- ------- ------------------                        ---------------------
00014.MPLS                                                      AVC     0:02:35 432 930 816     20 846 555 948  22,24   19,85   DD AC3 5.1 448Kbps                        DD AC3 5.1 448Kbps
[/code]

[code]

DISC INFO:

Disc Title:     Into the Universe with Stephen Hawking (2010)
Disc Size:      20 846 555 948 bytes
Protection:     AACS
BD-Java:        Yes
BDInfo:         0.5.6

PLAYLIST REPORT:

Name:                   00014.MPLS
Length:                 0:02:35 (h:m:s)
Size:                   432 930 816 bytes
Total Bitrate:          22,24 Mbps

VIDEO:

Codec                   Bitrate             Description    
-----                   -------             -----------    
MPEG-4 AVC Video        19847 kbps          1080i / 25 fps / 16:9 / High Profile 4.1

AUDIO:

Codec                           Language        Bitrate         Description    
-----                           --------        -------         -----------    
Dolby Digital Audio             German          448 kbps        5.1 / 48 kHz / 448 kbps / DN -4dB
Dolby Digital Audio             German          448 kbps        5.1 / 48 kHz / 448 kbps / DN -4dB
Dolby Digital Audio             German          448 kbps        5.1 / 48 kHz / 448 kbps / DN -4dB

FILES:

Name            Time In         Length          Size            Total Bitrate  
----            -------         ------          ----            -------------  
00014.M2TS      0:00:00.000     0:02:35.720     432 930 816     22 242         

CHAPTERS:

Number          Time In         Length          Avg Video Rate  Max 1-Sec Rate  Max 1-Sec Time  Max 5-Sec Rate  Max 5-Sec Time  Max 10Sec Rate  Max 10Sec Time  Avg Frame Size  Max Frame Size  Max Frame Time 
------          -------         ------          --------------  --------------  --------------  --------------  --------------  --------------  --------------  --------------  --------------  -------------- 
1               0:00:00.000     0:02:35.720     19 847 kbps     46 454 kbps     00:01:12.800    28 950 kbps     00:01:32.600    25 648 kbps     00:00:03.040    99 234 bytes    644 616 bytes   00:00:03.360   

STREAM DIAGNOSTICS:

File            PID             Type            Codec           Language                Seconds                 Bitrate                 Bytes           Packets        
----            ---             ----            -----           --------                --------------          --------------          -------------   -----          
00014.M2TS      4113 (0x1011)   0x1B            AVC                                     155,560                 19 867                  386 319 053     2 101 918      
00014.M2TS      4352 (0x1100)   0x81            AC3             deu (German)            155,560                 449                     8 721 664       48 670         
00014.M2TS      4353 (0x1101)   0x81            AC3             deu (German)            155,560                 449                     8 721 664       48 670         
00014.M2TS      4354 (0x1102)   0x81            AC3             deu (German)            155,560                 449                     8 721 664       48 670         

[/code]
<---- END FORUMS PASTE ---->

QUICK SUMMARY:

Disc Title: Into the Universe with Stephen Hawking (2010)
Disc Size: 20 846 555 948 bytes
Protection: AACS
BD-Java: Yes
Playlist: 00014.MPLS
Size: 432 930 816 bytes
Length: 0:02:35
Total Bitrate: 22,24 Mbps
Video: MPEG-4 AVC Video / 19847 kbps / 1080i / 25 fps / 16:9 / High Profile 4.1
Audio: German / Dolby Digital Audio / 5.1 / 48 kHz / 448 kbps / DN -4dB
Audio: German / Dolby Digital Audio / 5.1 / 48 kHz / 448 kbps / DN -4dB
Audio: German / Dolby Digital Audio / 5.1 / 48 kHz / 448 kbps / DN -4dB


********************
PLAYLIST: 01014.MPLS
********************

<--- BEGIN FORUMS PASTE --->
[code]
                                                                                                                Total   Video                                            
Title                                                           Codec   Length  Movie Size      Disc Size       Bitrate Bitrate Main Audio Track                          Secondary Audio Track
-----                                                           ------  ------- --------------  --------------  ------- ------- ------------------                        ---------------------
01014.MPLS                                                      AVC     0:02:35 432 930 816     20 846 555 948  22,24   19,85   DD AC3 5.1 448Kbps                        DD AC3 5.1 448Kbps
[/code]

[code]

DISC INFO:

Disc Title:     Into the Universe with Stephen Hawking (2010)
Disc Size:      20 846 555 948 bytes
Protection:     AACS
BD-Java:        Yes
BDInfo:         0.5.6

PLAYLIST REPORT:

Name:                   01014.MPLS
Length:                 0:02:35 (h:m:s)
Size:                   432 930 816 bytes
Total Bitrate:          22,24 Mbps

VIDEO:

Codec                   Bitrate             Description    
-----                   -------             -----------    
MPEG-4 AVC Video        19847 kbps          1080i / 25 fps / 16:9 / High Profile 4.1

AUDIO:

Codec                           Language        Bitrate         Description    
-----                           --------        -------         -----------    
Dolby Digital Audio             German          448 kbps        5.1 / 48 kHz / 448 kbps / DN -4dB
Dolby Digital Audio             German          448 kbps        5.1 / 48 kHz / 448 kbps / DN -4dB
Dolby Digital Audio             German          448 kbps        5.1 / 48 kHz / 448 kbps / DN -4dB

FILES:

Name            Time In         Length          Size            Total Bitrate  
----            -------         ------          ----            -------------  
00014.M2TS      0:00:00.000     0:02:35.720     432 930 816     22 242         

CHAPTERS:

Number          Time In         Length          Avg Video Rate  Max 1-Sec Rate  Max 1-Sec Time  Max 5-Sec Rate  Max 5-Sec Time  Max 10Sec Rate  Max 10Sec Time  Avg Frame Size  Max Frame Size  Max Frame Time 
------          -------         ------          --------------  --------------  --------------  --------------  --------------  --------------  --------------  --------------  --------------  -------------- 
1               0:00:00.000     0:02:35.720     19 847 kbps     46 454 kbps     00:01:12.800    28 950 kbps     00:01:32.600    25 648 kbps     00:00:03.040    99 234 bytes    644 616 bytes   00:00:03.360   

STREAM DIAGNOSTICS:

File            PID             Type            Codec           Language                Seconds                 Bitrate                 Bytes           Packets        
----            ---             ----            -----           --------                --------------          --------------          -------------   -----          
00014.M2TS      4113 (0x1011)   0x1B            AVC                                     155,560                 19 867                  386 319 053     2 101 918      
00014.M2TS      4352 (0x1100)   0x81            AC3             deu (German)            155,560                 449                     8 721 664       48 670         
00014.M2TS      4353 (0x1101)   0x81            AC3             deu (German)            155,560                 449                     8 721 664       48 670         
00014.M2TS      4354 (0x1102)   0x81            AC3             deu (German)            155,560                 449                     8 721 664       48 670         

[/code]
<---- END FORUMS PASTE ---->

QUICK SUMMARY:

Disc Title: Into the Universe with Stephen Hawking (2010)
Disc Size: 20 846 555 948 bytes
Protection: AACS
BD-Java: Yes
Playlist: 01014.MPLS
Size: 432 930 816 bytes
Length: 0:02:35
Total Bitrate: 22,24 Mbps
Video: MPEG-4 AVC Video / 19847 kbps / 1080i / 25 fps / 16:9 / High Profile 4.1
Audio: German / Dolby Digital Audio / 5.1 / 48 kHz / 448 kbps / DN -4dB
Audio: German / Dolby Digital Audio / 5.1 / 48 kHz / 448 kbps / DN -4dB
Audio: German / Dolby Digital Audio / 5.1 / 48 kHz / 448 kbps / DN -4dB


********************
PLAYLIST: 00012.MPLS
********************

<--- BEGIN FORUMS PASTE --->
[code]
                                                                                                                Total   Video                                            
Title                                                           Codec   Length  Movie Size      Disc Size       Bitrate Bitrate Main Audio Track                          Secondary Audio Track
-----                                                           ------  ------- --------------  --------------  ------- ------- ------------------                        ---------------------
00012.MPLS                                                      AVC     0:01:50 244 819 968     20 846 555 948  17,73   15,52   DD AC3 5.1 448Kbps                        DD AC3 5.1 448Kbps
[/code]

[code]

DISC INFO:

Disc Title:     Into the Universe with Stephen Hawking (2010)
Disc Size:      20 846 555 948 bytes
Protection:     AACS
BD-Java:        Yes
BDInfo:         0.5.6

PLAYLIST REPORT:

Name:                   00012.MPLS
Length:                 0:01:50 (h:m:s)
Size:                   244 819 968 bytes
Total Bitrate:          17,73 Mbps

VIDEO:

Codec                   Bitrate             Description    
-----                   -------             -----------    
MPEG-4 AVC Video        15521 kbps          1080i / 25 fps / 16:9 / High Profile 4.1

AUDIO:

Codec                           Language        Bitrate         Description    
-----                           --------        -------         -----------    
Dolby Digital Audio             German          448 kbps        5.1 / 48 kHz / 448 kbps / DN -4dB
Dolby Digital Audio             German          448 kbps        5.1 / 48 kHz / 448 kbps / DN -4dB
Dolby Digital Audio             German          448 kbps        5.1 / 48 kHz / 448 kbps / DN -4dB

FILES:

Name            Time In         Length          Size            Total Bitrate  
----            -------         ------          ----            -------------  
00012.M2TS      0:00:00.000     0:01:50.480     244 819 968     17 728         

CHAPTERS:

Number          Time In         Length          Avg Video Rate  Max 1-Sec Rate  Max 1-Sec Time  Max 5-Sec Rate  Max 5-Sec Time  Max 10Sec Rate  Max 10Sec Time  Avg Frame Size  Max Frame Size  Max Frame Time 
------          -------         ------          --------------  --------------  --------------  --------------  --------------  --------------  --------------  --------------  --------------  -------------- 
1               0:00:00.000     0:01:50.480     15 521 kbps     52 369 kbps     00:00:44.680    31 940 kbps     00:01:23.680    28 337 kbps     00:00:57.800    77 635 bytes    471 434 bytes   00:00:45.200   

STREAM DIAGNOSTICS:

File            PID             Type            Codec           Language                Seconds                 Bitrate                 Bytes           Packets        
----            ---             ----            -----           --------                --------------          --------------          -------------   -----          
00012.M2TS      4113 (0x1011)   0x1B            AVC                                     110,320                 15 544                  214 351 483     1 166 595      
00012.M2TS      4352 (0x1100)   0x81            AC3             deu (German)            110,320                 449                     6 187 776       34 530         
00012.M2TS      4353 (0x1101)   0x81            AC3             deu (German)            110,320                 449                     6 187 776       34 530         
00012.M2TS      4354 (0x1102)   0x81            AC3             deu (German)            110,320                 449                     6 187 776       34 530         

[/code]
<---- END FORUMS PASTE ---->

QUICK SUMMARY:

Disc Title: Into the Universe with Stephen Hawking (2010)
Disc Size: 20 846 555 948 bytes
Protection: AACS
BD-Java: Yes
Playlist: 00012.MPLS
Size: 244 819 968 bytes
Length: 0:01:50
Total Bitrate: 17,73 Mbps
Video: MPEG-4 AVC Video / 15521 kbps / 1080i / 25 fps / 16:9 / High Profile 4.1
Audio: German / Dolby Digital Audio / 5.1 / 48 kHz / 448 kbps / DN -4dB
Audio: German / Dolby Digital Audio / 5.1 / 48 kHz / 448 kbps / DN -4dB
Audio: German / Dolby Digital Audio / 5.1 / 48 kHz / 448 kbps / DN -4dB


********************
PLAYLIST: 01012.MPLS
********************

<--- BEGIN FORUMS PASTE --->
[code]
                                                                                                                Total   Video                                            
Title                                                           Codec   Length  Movie Size      Disc Size       Bitrate Bitrate Main Audio Track                          Secondary Audio Track
-----                                                           ------  ------- --------------  --------------  ------- ------- ------------------                        ---------------------
01012.MPLS                                                      AVC     0:01:50 244 819 968     20 846 555 948  17,73   15,52   DD AC3 5.1 448Kbps                        DD AC3 5.1 448Kbps
[/code]

[code]

DISC INFO:

Disc Title:     Into the Universe with Stephen Hawking (2010)
Disc Size:      20 846 555 948 bytes
Protection:     AACS
BD-Java:        Yes
BDInfo:         0.5.6

PLAYLIST REPORT:

Name:                   01012.MPLS
Length:                 0:01:50 (h:m:s)
Size:                   244 819 968 bytes
Total Bitrate:          17,73 Mbps

VIDEO:

Codec                   Bitrate             Description    
-----                   -------             -----------    
MPEG-4 AVC Video        15521 kbps          1080i / 25 fps / 16:9 / High Profile 4.1

AUDIO:

Codec                           Language        Bitrate         Description    
-----                           --------        -------         -----------    
Dolby Digital Audio             German          448 kbps        5.1 / 48 kHz / 448 kbps / DN -4dB
Dolby Digital Audio             German          448 kbps        5.1 / 48 kHz / 448 kbps / DN -4dB
Dolby Digital Audio             German          448 kbps        5.1 / 48 kHz / 448 kbps / DN -4dB

FILES:

Name            Time In         Length          Size            Total Bitrate  
----            -------         ------          ----            -------------  
00012.M2TS      0:00:00.000     0:01:50.480     244 819 968     17 728         

CHAPTERS:

Number          Time In         Length          Avg Video Rate  Max 1-Sec Rate  Max 1-Sec Time  Max 5-Sec Rate  Max 5-Sec Time  Max 10Sec Rate  Max 10Sec Time  Avg Frame Size  Max Frame Size  Max Frame Time 
------          -------         ------          --------------  --------------  --------------  --------------  --------------  --------------  --------------  --------------  --------------  -------------- 
1               0:00:00.000     0:01:50.480     15 521 kbps     52 369 kbps     00:00:44.680    31 940 kbps     00:01:23.680    28 337 kbps     00:00:57.800    77 635 bytes    471 434 bytes   00:00:45.200   

STREAM DIAGNOSTICS:

File            PID             Type            Codec           Language                Seconds                 Bitrate                 Bytes           Packets        
----            ---             ----            -----           --------                --------------          --------------          -------------   -----          
00012.M2TS      4113 (0x1011)   0x1B            AVC                                     110,320                 15 544                  214 351 483     1 166 595      
00012.M2TS      4352 (0x1100)   0x81            AC3             deu (German)            110,320                 449                     6 187 776       34 530         
00012.M2TS      4353 (0x1101)   0x81            AC3             deu (German)            110,320                 449                     6 187 776       34 530         
00012.M2TS      4354 (0x1102)   0x81            AC3             deu (German)            110,320                 449                     6 187 776       34 530         

[/code]
<---- END FORUMS PASTE ---->

QUICK SUMMARY:

Disc Title: Into the Universe with Stephen Hawking (2010)
Disc Size: 20 846 555 948 bytes
Protection: AACS
BD-Java: Yes
Playlist: 01012.MPLS
Size: 244 819 968 bytes
Length: 0:01:50
Total Bitrate: 17,73 Mbps
Video: MPEG-4 AVC Video / 15521 kbps / 1080i / 25 fps / 16:9 / High Profile 4.1
Audio: German / Dolby Digital Audio / 5.1 / 48 kHz / 448 kbps / DN -4dB
Audio: German / Dolby Digital Audio / 5.1 / 48 kHz / 448 kbps / DN -4dB
Audio: German / Dolby Digital Audio / 5.1 / 48 kHz / 448 kbps / DN -4dB


********************
PLAYLIST: 00013.MPLS
********************

<--- BEGIN FORUMS PASTE --->
[code]
                                                                                                                Total   Video                                            
Title                                                           Codec   Length  Movie Size      Disc Size       Bitrate Bitrate Main Audio Track                          Secondary Audio Track
-----                                                           ------  ------- --------------  --------------  ------- ------- ------------------                        ---------------------
00013.MPLS                                                      AVC     0:01:19 222 978 048     20 846 555 948  22,40   20,00   DD AC3 2.0 448Kbps                       
[/code]

[code]

DISC INFO:

Disc Title:     Into the Universe with Stephen Hawking (2010)
Disc Size:      20 846 555 948 bytes
Protection:     AACS
BD-Java:        Yes
BDInfo:         0.5.6

PLAYLIST REPORT:

Name:                   00013.MPLS
Length:                 0:01:19 (h:m:s)
Size:                   222 978 048 bytes
Total Bitrate:          22,40 Mbps

VIDEO:

Codec                   Bitrate             Description    
-----                   -------             -----------    
MPEG-4 AVC Video        19998 kbps          1080i / 25 fps / 16:9 / High Profile 4.1

AUDIO:

Codec                           Language        Bitrate         Description    
-----                           --------        -------         -----------    
Dolby Digital Audio             German          448 kbps        2.0 / 48 kHz / 448 kbps / DN -4dB
Dolby Digital Audio             German          448 kbps        2.0 / 48 kHz / 448 kbps / DN -4dB
Dolby Digital Audio             German          448 kbps        2.0 / 48 kHz / 448 kbps / DN -4dB

FILES:

Name            Time In         Length          Size            Total Bitrate  
----            -------         ------          ----            -------------  
00013.M2TS      0:00:00.000     0:01:19.640     222 978 048     22 399         

CHAPTERS:

Number          Time In         Length          Avg Video Rate  Max 1-Sec Rate  Max 1-Sec Time  Max 5-Sec Rate  Max 5-Sec Time  Max 10Sec Rate  Max 10Sec Time  Avg Frame Size  Max Frame Size  Max Frame Time 
------          -------         ------          --------------  --------------  --------------  --------------  --------------  --------------  --------------  --------------  --------------  -------------- 
1               0:00:00.000     0:01:19.640     19 998 kbps     47 787 kbps     00:00:48.920    37 178 kbps     00:00:41.759    32 697 kbps     00:00:41.360    100 039 bytes   671 329 bytes   00:00:48.960   

STREAM DIAGNOSTICS:

File            PID             Type            Codec           Language                Seconds                 Bitrate                 Bytes           Packets        
----            ---             ----            -----           --------                --------------          --------------          -------------   -----          
00013.M2TS      4113 (0x1011)   0x1B            AVC                                     79,480                  20 038                  199 076 951     1 083 116      
00013.M2TS      4352 (0x1100)   0x81            AC3             deu (German)            79,480                  449                     4 460 288       24 890         
00013.M2TS      4353 (0x1101)   0x81            AC3             deu (German)            79,480                  449                     4 460 288       24 890         
00013.M2TS      4354 (0x1102)   0x81            AC3             deu (German)            79,480                  449                     4 460 288       24 890         

[/code]
<---- END FORUMS PASTE ---->

QUICK SUMMARY:

Disc Title: Into the Universe with Stephen Hawking (2010)
Disc Size: 20 846 555 948 bytes
Protection: AACS
BD-Java: Yes
Playlist: 00013.MPLS
Size: 222 978 048 bytes
Length: 0:01:19
Total Bitrate: 22,40 Mbps
Video: MPEG-4 AVC Video / 19998 kbps / 1080i / 25 fps / 16:9 / High Profile 4.1
Audio: German / Dolby Digital Audio / 2.0 / 48 kHz / 448 kbps / DN -4dB
Audio: German / Dolby Digital Audio / 2.0 / 48 kHz / 448 kbps / DN -4dB
Audio: German / Dolby Digital Audio / 2.0 / 48 kHz / 448 kbps / DN -4dB


********************
PLAYLIST: 01013.MPLS
********************

<--- BEGIN FORUMS PASTE --->
[code]
                                                                                                                Total   Video                                            
Title                                                           Codec   Length  Movie Size      Disc Size       Bitrate Bitrate Main Audio Track                          Secondary Audio Track
-----                                                           ------  ------- --------------  --------------  ------- ------- ------------------                        ---------------------
01013.MPLS                                                      AVC     0:01:19 222 978 048     20 846 555 948  22,40   20,00   DD AC3 2.0 448Kbps                       
[/code]

[code]

DISC INFO:

Disc Title:     Into the Universe with Stephen Hawking (2010)
Disc Size:      20 846 555 948 bytes
Protection:     AACS
BD-Java:        Yes
BDInfo:         0.5.6

PLAYLIST REPORT:

Name:                   01013.MPLS
Length:                 0:01:19 (h:m:s)
Size:                   222 978 048 bytes
Total Bitrate:          22,40 Mbps

VIDEO:

Codec                   Bitrate             Description    
-----                   -------             -----------    
MPEG-4 AVC Video        19998 kbps          1080i / 25 fps / 16:9 / High Profile 4.1

AUDIO:

Codec                           Language        Bitrate         Description    
-----                           --------        -------         -----------    
Dolby Digital Audio             German          448 kbps        2.0 / 48 kHz / 448 kbps / DN -4dB
Dolby Digital Audio             German          448 kbps        2.0 / 48 kHz / 448 kbps / DN -4dB
Dolby Digital Audio             German          448 kbps        2.0 / 48 kHz / 448 kbps / DN -4dB

FILES:

Name            Time In         Length          Size            Total Bitrate  
----            -------         ------          ----            -------------  
00013.M2TS      0:00:00.000     0:01:19.640     222 978 048     22 399         

CHAPTERS:

Number          Time In         Length          Avg Video Rate  Max 1-Sec Rate  Max 1-Sec Time  Max 5-Sec Rate  Max 5-Sec Time  Max 10Sec Rate  Max 10Sec Time  Avg Frame Size  Max Frame Size  Max Frame Time 
------          -------         ------          --------------  --------------  --------------  --------------  --------------  --------------  --------------  --------------  --------------  -------------- 
1               0:00:00.000     0:01:19.640     19 998 kbps     47 787 kbps     00:00:48.920    37 178 kbps     00:00:41.759    32 697 kbps     00:00:41.360    100 039 bytes   671 329 bytes   00:00:48.960   

STREAM DIAGNOSTICS:

File            PID             Type            Codec           Language                Seconds                 Bitrate                 Bytes           Packets        
----            ---             ----            -----           --------                --------------          --------------          -------------   -----          
00013.M2TS      4113 (0x1011)   0x1B            AVC                                     79,480                  20 038                  199 076 951     1 083 116      
00013.M2TS      4352 (0x1100)   0x81            AC3             deu (German)            79,480                  449                     4 460 288       24 890         
00013.M2TS      4353 (0x1101)   0x81            AC3             deu (German)            79,480                  449                     4 460 288       24 890         
00013.M2TS      4354 (0x1102)   0x81            AC3             deu (German)            79,480                  449                     4 460 288       24 890         

[/code]
<---- END FORUMS PASTE ---->

QUICK SUMMARY:

Disc Title: Into the Universe with Stephen Hawking (2010)
Disc Size: 20 846 555 948 bytes
Protection: AACS
BD-Java: Yes
Playlist: 01013.MPLS
Size: 222 978 048 bytes
Length: 0:01:19
Total Bitrate: 22,40 Mbps
Video: MPEG-4 AVC Video / 19998 kbps / 1080i / 25 fps / 16:9 / High Profile 4.1
Audio: German / Dolby Digital Audio / 2.0 / 48 kHz / 448 kbps / DN -4dB
Audio: German / Dolby Digital Audio / 2.0 / 48 kHz / 448 kbps / DN -4dB
Audio: German / Dolby Digital Audio / 2.0 / 48 kHz / 448 kbps / DN -4dB


********************
PLAYLIST: 00009.MPLS
********************

<--- BEGIN FORUMS PASTE --->
[code]
                                                                                                                Total   Video                                            
Title                                                           Codec   Length  Movie Size      Disc Size       Bitrate Bitrate Main Audio Track                          Secondary Audio Track
-----                                                           ------  ------- --------------  --------------  ------- ------- ------------------                        ---------------------
00009.MPLS                                                      AVC     0:00:28 21 037 056      20 846 555 948  5,98    5,41    DD AC3 2.0 192Kbps                       
[/code]

[code]

DISC INFO:

Disc Title:     Into the Universe with Stephen Hawking (2010)
Disc Size:      20 846 555 948 bytes
Protection:     AACS
BD-Java:        Yes
BDInfo:         0.5.6

PLAYLIST REPORT:

Name:                   00009.MPLS
Length:                 0:00:28 (h:m:s)
Size:                   21 037 056 bytes
Total Bitrate:          5,98 Mbps

VIDEO:

Codec                   Bitrate             Description    
-----                   -------             -----------    
MPEG-4 AVC Video        5409 kbps           1080i / 25 fps / 16:9 / High Profile 4.1

AUDIO:

Codec                           Language        Bitrate         Description    
-----                           --------        -------         -----------    
Dolby Digital Audio             Undetermined    192 kbps        2.0 / 48 kHz / 192 kbps / DN -4dB

FILES:

Name            Time In         Length          Size            Total Bitrate  
----            -------         ------          ----            -------------  
00009.M2TS      0:00:00.000     0:00:28.160     21 037 056      5 976          

CHAPTERS:

Number          Time In         Length          Avg Video Rate  Max 1-Sec Rate  Max 1-Sec Time  Max 5-Sec Rate  Max 5-Sec Time  Max 10Sec Rate  Max 10Sec Time  Avg Frame Size  Max Frame Size  Max Frame Time 
------          -------         ------          --------------  --------------  --------------  --------------  --------------  --------------  --------------  --------------  --------------  -------------- 
1               0:00:00.000     0:00:28.160     5 409 kbps      31 090 kbps     00:00:21.040    12 950 kbps     00:00:19.319    7 691 kbps      00:00:17.080    27 044 bytes    282 529 bytes   00:00:08.160   

STREAM DIAGNOSTICS:

File            PID             Type            Codec           Language                Seconds                 Bitrate                 Bytes           Packets        
----            ---             ----            -----           --------                --------------          --------------          -------------   -----          
00009.M2TS      4113 (0x1011)   0x1B            AVC                                     28,080                  5 424                   19 038 950      103 910        
00009.M2TS      4352 (0x1100)   0x81            AC3             und (Undetermined)      28,080                  193                     675 840         4 400          

[/code]
<---- END FORUMS PASTE ---->

QUICK SUMMARY:

Disc Title: Into the Universe with Stephen Hawking (2010)
Disc Size: 20 846 555 948 bytes
Protection: AACS
BD-Java: Yes
Playlist: 00009.MPLS
Size: 21 037 056 bytes
Length: 0:00:28
Total Bitrate: 5,98 Mbps
Video: MPEG-4 AVC Video / 5409 kbps / 1080i / 25 fps / 16:9 / High Profile 4.1
Audio: Undetermined / Dolby Digital Audio / 2.0 / 48 kHz / 192 kbps / DN -4dB


********************
PLAYLIST: 01009.MPLS
********************

<--- BEGIN FORUMS PASTE --->
[code]
                                                                                                                Total   Video                                            
Title                                                           Codec   Length  Movie Size      Disc Size       Bitrate Bitrate Main Audio Track                          Secondary Audio Track
-----                                                           ------  ------- --------------  --------------  ------- ------- ------------------                        ---------------------
01009.MPLS                                                      AVC     0:00:28 21 037 056      20 846 555 948  5,98    5,41    DD AC3 2.0 192Kbps                       
[/code]

[code]

DISC INFO:

Disc Title:     Into the Universe with Stephen Hawking (2010)
Disc Size:      20 846 555 948 bytes
Protection:     AACS
BD-Java:        Yes
BDInfo:         0.5.6

PLAYLIST REPORT:

Name:                   01009.MPLS
Length:                 0:00:28 (h:m:s)
Size:                   21 037 056 bytes
Total Bitrate:          5,98 Mbps

VIDEO:

Codec                   Bitrate             Description    
-----                   -------             -----------    
MPEG-4 AVC Video        5409 kbps           1080i / 25 fps / 16:9 / High Profile 4.1

AUDIO:

Codec                           Language        Bitrate         Description    
-----                           --------        -------         -----------    
Dolby Digital Audio             Undetermined    192 kbps        2.0 / 48 kHz / 192 kbps / DN -4dB

FILES:

Name            Time In         Length          Size            Total Bitrate  
----            -------         ------          ----            -------------  
00009.M2TS      0:00:00.000     0:00:28.160     21 037 056      5 976          

CHAPTERS:

Number          Time In         Length          Avg Video Rate  Max 1-Sec Rate  Max 1-Sec Time  Max 5-Sec Rate  Max 5-Sec Time  Max 10Sec Rate  Max 10Sec Time  Avg Frame Size  Max Frame Size  Max Frame Time 
------          -------         ------          --------------  --------------  --------------  --------------  --------------  --------------  --------------  --------------  --------------  -------------- 
1               0:00:00.000     0:00:28.160     5 409 kbps      31 090 kbps     00:00:21.040    12 950 kbps     00:00:19.319    7 691 kbps      00:00:17.080    27 044 bytes    282 529 bytes   00:00:08.160   

STREAM DIAGNOSTICS:

File            PID             Type            Codec           Language                Seconds                 Bitrate                 Bytes           Packets        
----            ---             ----            -----           --------                --------------          --------------          -------------   -----          
00009.M2TS      4113 (0x1011)   0x1B            AVC                                     28,080                  5 424                   19 038 950      103 910        
00009.M2TS      4352 (0x1100)   0x81            AC3             und (Undetermined)      28,080                  193                     675 840         4 400          

[/code]
<---- END FORUMS PASTE ---->

QUICK SUMMARY:

Disc Title: Into the Universe with Stephen Hawking (2010)
Disc Size: 20 846 555 948 bytes
Protection: AACS
BD-Java: Yes
Playlist: 01009.MPLS
Size: 21 037 056 bytes
Length: 0:00:28
Total Bitrate: 5,98 Mbps
Video: MPEG-4 AVC Video / 5409 kbps / 1080i / 25 fps / 16:9 / High Profile 4.1
Audio: Undetermined / Dolby Digital Audio / 2.0 / 48 kHz / 192 kbps / DN -4dB


********************
PLAYLIST: 00007.MPLS
********************

<--- BEGIN FORUMS PASTE --->
[code]
                                                                                                                Total   Video                                            
Title                                                           Codec   Length  Movie Size      Disc Size       Bitrate Bitrate Main Audio Track                          Secondary Audio Track
-----                                                           ------  ------- --------------  --------------  ------- ------- ------------------                        ---------------------
00007.MPLS                                                      AVC     0:00:25 6 269 376       20 846 555 948  2,01    1,83                                             
[/code]

[code]

DISC INFO:

Disc Title:     Into the Universe with Stephen Hawking (2010)
Disc Size:      20 846 555 948 bytes
Protection:     AACS
BD-Java:        Yes
BDInfo:         0.5.6

PLAYLIST REPORT:

Name:                   00007.MPLS
Length:                 0:00:25 (h:m:s)
Size:                   6 269 376 bytes
Total Bitrate:          2,01 Mbps

VIDEO:

Codec                   Bitrate             Description    
-----                   -------             -----------    
MPEG-4 AVC Video        1826 kbps           1080i / 25 fps / 16:9 / High Profile 4.1

FILES:

Name            Time In         Length          Size            Total Bitrate  
----            -------         ------          ----            -------------  
00007.M2TS      0:00:00.000     0:00:25.000     6 269 376       2 003          

CHAPTERS:

Number          Time In         Length          Avg Video Rate  Max 1-Sec Rate  Max 1-Sec Time  Max 5-Sec Rate  Max 5-Sec Time  Max 10Sec Rate  Max 10Sec Time  Avg Frame Size  Max Frame Size  Max Frame Time 
------          -------         ------          --------------  --------------  --------------  --------------  --------------  --------------  --------------  --------------  --------------  -------------- 
1               0:00:00.000     0:00:25.000     1 829 kbps      4 646 kbps      00:00:00.399    2 553 kbps      00:00:07.879    2 457 kbps      00:00:07.600    9 158 bytes     146 039 bytes   00:00:08.960   

STREAM DIAGNOSTICS:

File            PID             Type            Codec           Language                Seconds                 Bitrate                 Bytes           Packets        
----            ---             ----            -----           --------                --------------          --------------          -------------   -----          
00007.M2TS      4113 (0x1011)   0x1B            AVC                                     24,920                  1 835                   5 716 740       31 567         

[/code]
<---- END FORUMS PASTE ---->

QUICK SUMMARY:

Disc Title: Into the Universe with Stephen Hawking (2010)
Disc Size: 20 846 555 948 bytes
Protection: AACS
BD-Java: Yes
Playlist: 00007.MPLS
Size: 6 269 376 bytes
Length: 0:00:25
Total Bitrate: 2,01 Mbps
Video: MPEG-4 AVC Video / 1826 kbps / 1080i / 25 fps / 16:9 / High Profile 4.1


********************
PLAYLIST: 01007.MPLS
********************

<--- BEGIN FORUMS PASTE --->
[code]
                                                                                                                Total   Video                                            
Title                                                           Codec   Length  Movie Size      Disc Size       Bitrate Bitrate Main Audio Track                          Secondary Audio Track
-----                                                           ------  ------- --------------  --------------  ------- ------- ------------------                        ---------------------
01007.MPLS                                                      AVC     0:00:25 6 269 376       20 846 555 948  2,01    1,83                                             
[/code]

[code]

DISC INFO:

Disc Title:     Into the Universe with Stephen Hawking (2010)
Disc Size:      20 846 555 948 bytes
Protection:     AACS
BD-Java:        Yes
BDInfo:         0.5.6

PLAYLIST REPORT:

Name:                   01007.MPLS
Length:                 0:00:25 (h:m:s)
Size:                   6 269 376 bytes
Total Bitrate:          2,01 Mbps

VIDEO:

Codec                   Bitrate             Description    
-----                   -------             -----------    
MPEG-4 AVC Video        1826 kbps           1080i / 25 fps / 16:9 / High Profile 4.1

FILES:

Name            Time In         Length          Size            Total Bitrate  
----            -------         ------          ----            -------------  
00007.M2TS      0:00:00.000     0:00:25.000     6 269 376       2 003          

CHAPTERS:

Number          Time In         Length          Avg Video Rate  Max 1-Sec Rate  Max 1-Sec Time  Max 5-Sec Rate  Max 5-Sec Time  Max 10Sec Rate  Max 10Sec Time  Avg Frame Size  Max Frame Size  Max Frame Time 
------          -------         ------          --------------  --------------  --------------  --------------  --------------  --------------  --------------  --------------  --------------  -------------- 
1               0:00:00.000     0:00:25.000     1 829 kbps      4 646 kbps      00:00:00.399    2 553 kbps      00:00:07.879    2 457 kbps      00:00:07.600    9 158 bytes     146 039 bytes   00:00:08.960   

STREAM DIAGNOSTICS:

File            PID             Type            Codec           Language                Seconds                 Bitrate                 Bytes           Packets        
----            ---             ----            -----           --------                --------------          --------------          -------------   -----          
00007.M2TS      4113 (0x1011)   0x1B            AVC                                     24,920                  1 835                   5 716 740       31 567         

[/code]
<---- END FORUMS PASTE ---->

QUICK SUMMARY:

Disc Title: Into the Universe with Stephen Hawking (2010)
Disc Size: 20 846 555 948 bytes
Protection: AACS
BD-Java: Yes
Playlist: 01007.MPLS
Size: 6 269 376 bytes
Length: 0:00:25
Total Bitrate: 2,01 Mbps
Video: MPEG-4 AVC Video / 1826 kbps / 1080i / 25 fps / 16:9 / High Profile 4.1