CopyPastehas never been so tasty!

The Patriot (2000)

by anonymous

  • 0
  • 0
263 views

Disc Title:     The Patriot (2000)
Disc Size:      47 300 313 933 bytes
Protection:     AACS
BD-Java:        No
BDInfo:         0.5.6

Notes:         

BDINFO HOME:
  Cinema Squid
    http://www.cinemasquid.com/blu-ray/tools/bdinfo

INCLUDES FORUMS REPORT FOR:
  AVS Forum Blu-ray Audio and Video Specifications Thread
    http://www.avsforum.com/avs-vb/showthread.php?t=1155731


********************
PLAYLIST: 00011.MPLS
********************

<--- BEGIN FORUMS PASTE --->
[code]
                                                                                                                Total   Video                                            
Title                                                           Codec   Length  Movie Size      Disc Size       Bitrate Bitrate Main Audio Track                          Secondary Audio Track
-----                                                           ------  ------- --------------  --------------  ------- ------- ------------------                        ---------------------
00011.MPLS                                                      AVC     2:44:46 44 632 215 552  47 300 313 933  36,11   25,98   Dolby TrueHD 5.1 1604Kbps (48kHz/16-bit) 
[/code]

[code]

DISC INFO:

Disc Title:     The Patriot (2000)
Disc Size:      47 300 313 933 bytes
Protection:     AACS
BD-Java:        No
BDInfo:         0.5.6

PLAYLIST REPORT:

Name:                   00011.MPLS
Length:                 2:44:46 (h:m:s)
Size:                   44 632 215 552 bytes
Total Bitrate:          36,11 Mbps

VIDEO:

Codec                   Bitrate             Description    
-----                   -------             -----------    
MPEG-4 AVC Video        25977 kbps          1080p / 23,976 fps / 16:9 / High Profile 4.1

AUDIO:

Codec                           Language        Bitrate         Description    
-----                           --------        -------         -----------    
Dolby TrueHD Audio              English         1604 kbps       5.1 / 48 kHz / 1604 kbps / 16-bit (AC3 Embedded: 5.1 / 48 kHz / 640 kbps / DN -3dB)
Dolby TrueHD Audio              Portuguese      1621 kbps       5.1 / 48 kHz / 1621 kbps / 16-bit (AC3 Embedded: 5.1 / 48 kHz / 640 kbps / DN -1dB)
Dolby Digital Audio             Russian         448 kbps        5.1 / 48 kHz / 448 kbps / DN -10dB
Dolby Digital Audio             Russian         640 kbps        5.1 / 48 kHz / 640 kbps / DN -3dB
Dolby Digital Audio             Spanish         640 kbps        5.1 / 48 kHz / 640 kbps / DN -2dB
Dolby Digital Audio             English         192 kbps        2.0 / 48 kHz / 192 kbps

SUBTITLES:

Codec                           Language        Bitrate         Description    
-----                           --------        -------         -----------    
Presentation Graphics           English         19,006 kbps                    
Presentation Graphics           Chinese         17,096 kbps                    
Presentation Graphics           Chinese         16,215 kbps                    
Presentation Graphics           Indonesian      22,467 kbps                    
Presentation Graphics           Portuguese      18,406 kbps                    
Presentation Graphics           Russian         23,864 kbps                    
Presentation Graphics           Russian         0,001 kbps                     
Presentation Graphics           Spanish         18,941 kbps                    
Presentation Graphics           Thai            15,919 kbps                    

FILES:

Name            Time In         Length          Size            Total Bitrate  
----            -------         ------          ----            -------------  
00011.M2TS      0:00:00.000     2:44:46.877     44 632 215 552  36 114         

CHAPTERS:

Number          Time In         Length          Avg Video Rate  Max 1-Sec Rate  Max 1-Sec Time  Max 5-Sec Rate  Max 5-Sec Time  Max 10Sec Rate  Max 10Sec Time  Avg Frame Size  Max Frame Size  Max Frame Time 
------          -------         ------          --------------  --------------  --------------  --------------  --------------  --------------  --------------  --------------  --------------  -------------- 
1               0:00:00.000     0:10:59.784     26 420 kbps     54 595 kbps     00:00:56.598    33 535 kbps     00:02:20.682    32 331 kbps     00:02:58.094    137 733 bytes   766 420 bytes   00:00:57.056   
2               0:10:59.784     0:11:28.604     26 379 kbps     42 591 kbps     00:18:33.821    33 706 kbps     00:18:25.729    32 362 kbps     00:18:25.896    137 529 bytes   594 404 bytes   00:19:21.618   
3               0:22:28.388     0:07:37.165     25 400 kbps     45 222 kbps     00:25:27.067    34 131 kbps     00:26:05.981    32 942 kbps     00:26:01.851    132 423 bytes   628 832 bytes   00:26:35.427   
4               0:30:05.553     0:06:36.604     26 418 kbps     38 521 kbps     00:34:30.985    31 981 kbps     00:36:13.671    30 310 kbps     00:34:30.985    137 730 bytes   693 441 bytes   00:34:31.027   
5               0:36:42.158     0:12:10.730     25 831 kbps     45 745 kbps     00:38:07.368    34 469 kbps     00:39:19.607    33 311 kbps     00:38:06.659    134 669 bytes   658 570 bytes   00:40:57.413   
6               0:48:52.888     0:08:41.270     27 180 kbps     40 488 kbps     00:49:27.965    35 151 kbps     00:50:54.718    33 538 kbps     00:49:35.639    141 704 bytes   587 918 bytes   00:50:37.784   
7               0:57:34.159     0:09:58.306     25 118 kbps     36 341 kbps     01:06:57.847    31 806 kbps     01:06:46.669    29 859 kbps     01:06:43.165    130 953 bytes   663 146 bytes   01:07:08.983   
8               1:07:32.465     0:12:06.559     25 913 kbps     39 174 kbps     01:07:38.888    32 340 kbps     01:07:57.615    32 040 kbps     01:07:52.860    135 100 bytes   650 912 bytes   01:19:39.024   
9               1:19:39.024     0:08:21.292     25 945 kbps     42 325 kbps     01:21:54.034    33 209 kbps     01:21:50.155    31 013 kbps     01:21:16.496    135 266 bytes   669 895 bytes   01:20:10.430   
10              1:28:00.316     0:10:02.393     26 535 kbps     35 108 kbps     01:34:35.086    31 144 kbps     01:34:27.870    30 146 kbps     01:34:26.202    138 339 bytes   621 237 bytes   01:34:34.335   
11              1:38:02.710     0:12:49.310     25 867 kbps     52 833 kbps     01:43:23.280    33 935 kbps     01:45:57.309    32 477 kbps     01:45:52.763    134 860 bytes   662 123 bytes   01:46:40.560   
12              1:50:52.020     0:06:57.667     25 331 kbps     37 505 kbps     01:57:11.149    31 353 kbps     01:51:31.976    29 716 kbps     01:55:03.896    132 066 bytes   548 723 bytes   01:55:24.959   
13              1:57:49.687     0:06:59.043     26 749 kbps     43 641 kbps     02:04:35.009    33 015 kbps     02:04:32.673    32 433 kbps     02:04:35.009    139 459 bytes   589 480 bytes   02:04:43.350   
14              2:04:48.731     0:16:17.559     25 126 kbps     42 037 kbps     02:05:35.694    33 190 kbps     02:05:32.650    30 841 kbps     02:05:32.733    130 996 bytes   722 802 bytes   02:09:08.490   
15              2:21:06.291     0:07:29.740     27 080 kbps     40 224 kbps     02:25:23.506    33 555 kbps     02:25:27.301    32 708 kbps     02:25:21.379    141 184 bytes   547 594 bytes   02:23:10.373   
16              2:28:36.032     0:16:09.843     25 599 kbps     38 811 kbps     02:32:02.238    31 951 kbps     02:29:54.276    31 406 kbps     02:29:52.525    133 461 bytes   641 383 bytes   02:37:31.900   
17              2:44:45.876     0:00:01.001     32 kbps         0 kbps          00:00:00.000    0 kbps          00:00:00.000    0 kbps          00:00:00.000    180 bytes       964 bytes       02:44:46.543   

STREAM DIAGNOSTICS:

File            PID             Type            Codec           Language                Seconds                 Bitrate                 Bytes           Packets        
----            ---             ----            -----           --------                --------------          --------------          -------------   -----          
00011.M2TS      4113 (0x1011)   0x1B            AVC                                     9886,794                25 977                  32 104 065 851  174 618 072    
00011.M2TS      4352 (0x1100)   0x83            TrueHD          eng (English)           9886,794                2 244                   2 772 814 168   20 999 491     
00011.M2TS      4353 (0x1101)   0x83            TrueHD          por (Portuguese)        9886,794                2 261                   2 794 357 218   21 412 574     
00011.M2TS      4354 (0x1102)   0x81            AC3             spa (Spanish)           9886,794                640                     790 950 400     4 634 475      
00011.M2TS      4355 (0x1103)   0x81            AC3             rus (Russian)           9886,794                448                     553 665 280     3 089 650      
00011.M2TS      4356 (0x1104)   0x81            AC3             rus (Russian)           9886,794                640                     790 950 400     4 634 475      
00011.M2TS      4357 (0x1105)   0x81            AC3             eng (English)           9886,794                192                     237 285 120     1 544 825      
00011.M2TS      4608 (0x1200)   0x90            PGS             eng (English)           9886,794                19                      23 488 782      136 262        
00011.M2TS      4609 (0x1201)   0x90            PGS             por (Portuguese)        9886,794                18                      22 747 118      132 179        
00011.M2TS      4610 (0x1202)   0x90            PGS             spa (Spanish)           9886,794                19                      23 408 549      135 691        
00011.M2TS      4611 (0x1203)   0x90            PGS             zho (Chinese)           9886,794                17                      21 127 966      123 401        
00011.M2TS      4612 (0x1204)   0x90            PGS             zho (Chinese)           9886,794                16                      20 039 434      117 454        
00011.M2TS      4613 (0x1205)   0x90            PGS             rus (Russian)           9886,794                24                      29 493 108      169 787        
00011.M2TS      4614 (0x1206)   0x90            PGS             ind (Indonesian)        9886,794                22                      27 765 614      159 217        
00011.M2TS      4615 (0x1207)   0x90            PGS             tha (Thai)              9886,794                16                      19 673 258      115 474        
00011.M2TS      4616 (0x1208)   0x90            PGS             rus (Russian)           9886,794                0                       1 462           15             

[/code]
<---- END FORUMS PASTE ---->

QUICK SUMMARY:

Disc Title: The Patriot (2000)
Disc Size: 47 300 313 933 bytes
Protection: AACS
BD-Java: No
Playlist: 00011.MPLS
Size: 44 632 215 552 bytes
Length: 2:44:46
Total Bitrate: 36,11 Mbps
Video: MPEG-4 AVC Video / 25977 kbps / 1080p / 23,976 fps / 16:9 / High Profile 4.1
Audio: English / Dolby TrueHD Audio / 5.1 / 48 kHz / 1604 kbps / 16-bit (AC3 Embedded: 5.1 / 48 kHz / 640 kbps / DN -3dB)
Audio: Portuguese / Dolby TrueHD Audio / 5.1 / 48 kHz / 1621 kbps / 16-bit (AC3 Embedded: 5.1 / 48 kHz / 640 kbps / DN -1dB)
Audio: Russian / Dolby Digital Audio / 5.1 / 48 kHz / 448 kbps / DN -10dB
Audio: Russian / Dolby Digital Audio / 5.1 / 48 kHz / 640 kbps / DN -3dB
Audio: Spanish / Dolby Digital Audio / 5.1 / 48 kHz / 640 kbps / DN -2dB
Audio: English / Dolby Digital Audio / 2.0 / 48 kHz / 192 kbps
Subtitle: English / 19,006 kbps
Subtitle: Chinese / 17,096 kbps
Subtitle: Chinese / 16,215 kbps
Subtitle: Indonesian / 22,467 kbps
Subtitle: Portuguese / 18,406 kbps
Subtitle: Russian / 23,864 kbps
Subtitle: Russian / 0,001 kbps
Subtitle: Spanish / 18,941 kbps
Subtitle: Thai / 15,919 kbps


********************
PLAYLIST: 00203.MPLS
********************

<--- BEGIN FORUMS PASTE --->
[code]
                                                                                                                Total   Video                                            
Title                                                           Codec   Length  Movie Size      Disc Size       Bitrate Bitrate Main Audio Track                          Secondary Audio Track
-----                                                           ------  ------- --------------  --------------  ------- ------- ------------------                        ---------------------
00203.MPLS                                                      MPEG-2  0:09:59 477 413 376     47 300 313 933  6,37    5,72    DD AC3 2.0 192Kbps                       
[/code]

[code]

DISC INFO:

Disc Title:     The Patriot (2000)
Disc Size:      47 300 313 933 bytes
Protection:     AACS
BD-Java:        No
BDInfo:         0.5.6

PLAYLIST REPORT:

Name:                   00203.MPLS
Length:                 0:09:59 (h:m:s)
Size:                   477 413 376 bytes
Total Bitrate:          6,37 Mbps

VIDEO:

Codec                   Bitrate             Description    
-----                   -------             -----------    
MPEG-2 Video            5716 kbps           480i / 29,970 fps / 4:3

AUDIO:

Codec                           Language        Bitrate         Description    
-----                           --------        -------         -----------    
Dolby Digital Audio             English         192 kbps        2.0 / 48 kHz / 192 kbps / DN -1dB

SUBTITLES:

Codec                           Language        Bitrate         Description    
-----                           --------        -------         -----------    
Presentation Graphics           Chinese         16,784 kbps                    
Presentation Graphics           Portuguese      17,535 kbps                    
Presentation Graphics           Spanish         17,645 kbps                    
Presentation Graphics           Thai            21,905 kbps                    

FILES:

Name            Time In         Length          Size            Total Bitrate  
----            -------         ------          ----            -------------  
00105.M2TS      0:00:00.000     0:09:59.598     477 413 376     6 370          

CHAPTERS:

Number          Time In         Length          Avg Video Rate  Max 1-Sec Rate  Max 1-Sec Time  Max 5-Sec Rate  Max 5-Sec Time  Max 10Sec Rate  Max 10Sec Time  Avg Frame Size  Max Frame Size  Max Frame Time 
------          -------         ------          --------------  --------------  --------------  --------------  --------------  --------------  --------------  --------------  --------------  -------------- 
1               0:00:00.000     0:09:59.598     5 716 kbps      15 774 kbps     00:02:17.036    11 093 kbps     00:02:21.341    10 367 kbps     00:02:16.336    23 841 bytes    172 890 bytes   00:02:17.070   

STREAM DIAGNOSTICS:

File            PID             Type            Codec           Language                Seconds                 Bitrate                 Bytes           Packets        
----            ---             ----            -----           --------                --------------          --------------          -------------   -----          
00105.M2TS      4113 (0x1011)   0x02            MPEG-2                                  599,499                 5 717                   428 420 942     2 338 854      
00105.M2TS      4352 (0x1100)   0x81            AC3             eng (English)           599,499                 192                     14 390 784      93 690         
00105.M2TS      4608 (0x1200)   0x90            PGS             por (Portuguese)        599,499                 18                      1 314 250       8 097          
00105.M2TS      4609 (0x1201)   0x90            PGS             spa (Spanish)           599,499                 18                      1 322 481       8 168          
00105.M2TS      4610 (0x1202)   0x90            PGS             zho (Chinese)           599,499                 17                      1 257 947       7 759          
00105.M2TS      4611 (0x1203)   0x90            PGS             tha (Thai)              599,499                 22                      1 641 762       9 837          

[/code]
<---- END FORUMS PASTE ---->

QUICK SUMMARY:

Disc Title: The Patriot (2000)
Disc Size: 47 300 313 933 bytes
Protection: AACS
BD-Java: No
Playlist: 00203.MPLS
Size: 477 413 376 bytes
Length: 0:09:59
Total Bitrate: 6,37 Mbps
Video: MPEG-2 Video / 5716 kbps / 480i / 29,970 fps / 4:3
Audio: English / Dolby Digital Audio / 2.0 / 48 kHz / 192 kbps / DN -1dB
Subtitle: Chinese / 16,784 kbps
Subtitle: Portuguese / 17,535 kbps
Subtitle: Spanish / 17,645 kbps
Subtitle: Thai / 21,905 kbps


********************
PLAYLIST: 00202.MPLS
********************

<--- BEGIN FORUMS PASTE --->
[code]
                                                                                                                Total   Video                                            
Title                                                           Codec   Length  Movie Size      Disc Size       Bitrate Bitrate Main Audio Track                          Secondary Audio Track
-----                                                           ------  ------- --------------  --------------  ------- ------- ------------------                        ---------------------
00202.MPLS                                                      MPEG-2  0:09:47 444 438 528     47 300 313 933  6,06    5,42    DD AC3 2.0 192Kbps                       
[/code]

[code]

DISC INFO:

Disc Title:     The Patriot (2000)
Disc Size:      47 300 313 933 bytes
Protection:     AACS
BD-Java:        No
BDInfo:         0.5.6

PLAYLIST REPORT:

Name:                   00202.MPLS
Length:                 0:09:47 (h:m:s)
Size:                   444 438 528 bytes
Total Bitrate:          6,06 Mbps

VIDEO:

Codec                   Bitrate             Description    
-----                   -------             -----------    
MPEG-2 Video            5422 kbps           480i / 29,970 fps / 4:3

AUDIO:

Codec                           Language        Bitrate         Description    
-----                           --------        -------         -----------    
Dolby Digital Audio             English         192 kbps        2.0 / 48 kHz / 192 kbps / DN -1dB

SUBTITLES:

Codec                           Language        Bitrate         Description    
-----                           --------        -------         -----------    
Presentation Graphics           Chinese         15,578 kbps                    
Presentation Graphics           Portuguese      15,696 kbps                    
Presentation Graphics           Spanish         16,083 kbps                    
Presentation Graphics           Thai            19,866 kbps                    

FILES:

Name            Time In         Length          Size            Total Bitrate  
----            -------         ------          ----            -------------  
00104.M2TS      0:00:00.000     0:09:47.086     444 438 528     6 056          

CHAPTERS:

Number          Time In         Length          Avg Video Rate  Max 1-Sec Rate  Max 1-Sec Time  Max 5-Sec Rate  Max 5-Sec Time  Max 10Sec Rate  Max 10Sec Time  Avg Frame Size  Max Frame Size  Max Frame Time 
------          -------         ------          --------------  --------------  --------------  --------------  --------------  --------------  --------------  --------------  --------------  -------------- 
1               0:00:00.000     0:09:47.086     5 422 kbps      13 713 kbps     00:00:02.102    13 152 kbps     00:00:03.570    11 717 kbps     00:00:01.000    22 616 bytes    152 470 bytes   00:00:00.433   

STREAM DIAGNOSTICS:

File            PID             Type            Codec           Language                Seconds                 Bitrate                 Bytes           Packets        
----            ---             ----            -----           --------                --------------          --------------          -------------   -----          
00104.M2TS      4113 (0x1011)   0x02            MPEG-2                                  586,986                 5 423                   397 922 299     2 172 905      
00104.M2TS      4352 (0x1100)   0x81            AC3             eng (English)           586,986                 192                     14 090 496      91 735         
00104.M2TS      4608 (0x1200)   0x90            PGS             por (Portuguese)        586,986                 16                      1 151 885       7 167          
00104.M2TS      4609 (0x1201)   0x90            PGS             spa (Spanish)           586,986                 16                      1 180 247       7 328          
00104.M2TS      4610 (0x1202)   0x90            PGS             zho (Chinese)           586,986                 16                      1 143 204       7 126          
00104.M2TS      4611 (0x1203)   0x90            PGS             tha (Thai)              586,986                 20                      1 457 910       8 839          

[/code]
<---- END FORUMS PASTE ---->

QUICK SUMMARY:

Disc Title: The Patriot (2000)
Disc Size: 47 300 313 933 bytes
Protection: AACS
BD-Java: No
Playlist: 00202.MPLS
Size: 444 438 528 bytes
Length: 0:09:47
Total Bitrate: 6,06 Mbps
Video: MPEG-2 Video / 5422 kbps / 480i / 29,970 fps / 4:3
Audio: English / Dolby Digital Audio / 2.0 / 48 kHz / 192 kbps / DN -1dB
Subtitle: Chinese / 15,578 kbps
Subtitle: Portuguese / 15,696 kbps
Subtitle: Spanish / 16,083 kbps
Subtitle: Thai / 19,866 kbps


********************
PLAYLIST: 00012.MPLS
********************

<--- BEGIN FORUMS PASTE --->
[code]
                                                                                                                Total   Video                                            
Title                                                           Codec   Length  Movie Size      Disc Size       Bitrate Bitrate Main Audio Track                          Secondary Audio Track
-----                                                           ------  ------- --------------  --------------  ------- ------- ------------------                        ---------------------
00012.MPLS                                                      MPEG-2  0:02:55 95 981 568      47 300 313 933  4,39    3,67    DD AC3 2.0 192Kbps                       
[/code]

[code]

DISC INFO:

Disc Title:     The Patriot (2000)
Disc Size:      47 300 313 933 bytes
Protection:     AACS
BD-Java:        No
BDInfo:         0.5.6

PLAYLIST REPORT:

Name:                   00012.MPLS
Length:                 0:02:55 (h:m:s)
Size:                   95 981 568 bytes
Total Bitrate:          4,39 Mbps

VIDEO:

Codec                   Bitrate             Description    
-----                   -------             -----------    
MPEG-2 Video            3674 kbps           576i / 25 fps / 4:3

AUDIO:

Codec                           Language        Bitrate         Description    
-----                           --------        -------         -----------    
Dolby Digital Audio             English         192 kbps        2.0 / 48 kHz / 192 kbps / DN -3dB / Dolby Surround
Dolby Digital Audio             English         192 kbps        2.0 / 48 kHz / 192 kbps

FILES:

Name            Time In         Length          Size            Total Bitrate  
----            -------         ------          ----            -------------  
00112.M2TS      0:00:00.000     0:02:55.000     95 981 568      4 388          

CHAPTERS:

Number          Time In         Length          Avg Video Rate  Max 1-Sec Rate  Max 1-Sec Time  Max 5-Sec Rate  Max 5-Sec Time  Max 10Sec Rate  Max 10Sec Time  Avg Frame Size  Max Frame Size  Max Frame Time 
------          -------         ------          --------------  --------------  --------------  --------------  --------------  --------------  --------------  --------------  --------------  -------------- 
1               0:00:00.000     0:02:55.000     3 674 kbps      7 687 kbps      00:01:09.320    6 302 kbps      00:01:09.440    5 096 kbps      00:01:09.040    18 371 bytes    89 425 bytes    00:01:09.600   

STREAM DIAGNOSTICS:

File            PID             Type            Codec           Language                Seconds                 Bitrate                 Bytes           Packets        
----            ---             ----            -----           --------                --------------          --------------          -------------   -----          
00112.M2TS      4113 (0x1011)   0x02            MPEG-2                                  174,920                 3 676                   80 371 631      439 340        
00112.M2TS      4352 (0x1100)   0x81            AC3             eng (English)           174,920                 192                     4 199 424       27 340         
00112.M2TS      4353 (0x1101)   0x81            AC3             eng (English)           174,920                 192                     4 199 424       27 340         

[/code]
<---- END FORUMS PASTE ---->

QUICK SUMMARY:

Disc Title: The Patriot (2000)
Disc Size: 47 300 313 933 bytes
Protection: AACS
BD-Java: No
Playlist: 00012.MPLS
Size: 95 981 568 bytes
Length: 0:02:55
Total Bitrate: 4,39 Mbps
Video: MPEG-2 Video / 3674 kbps / 576i / 25 fps / 4:3
Audio: English / Dolby Digital Audio / 2.0 / 48 kHz / 192 kbps / DN -3dB / Dolby Surround
Audio: English / Dolby Digital Audio / 2.0 / 48 kHz / 192 kbps


********************
PLAYLIST: 00002.MPLS
********************

<--- BEGIN FORUMS PASTE --->
[code]
                                                                                                                Total   Video                                            
Title                                                           Codec   Length  Movie Size      Disc Size       Bitrate Bitrate Main Audio Track                          Secondary Audio Track
-----                                                           ------  ------- --------------  --------------  ------- ------- ------------------                        ---------------------
00002.MPLS                                                      MPEG-2  0:02:51 88 197 120      47 300 313 933  4,11    3,64    DD AC3 2.0 192Kbps                       
[/code]

[code]

DISC INFO:

Disc Title:     The Patriot (2000)
Disc Size:      47 300 313 933 bytes
Protection:     AACS
BD-Java:        No
BDInfo:         0.5.6

PLAYLIST REPORT:

Name:                   00002.MPLS
Length:                 0:02:51 (h:m:s)
Size:                   88 197 120 bytes
Total Bitrate:          4,11 Mbps

VIDEO:

Codec                   Bitrate             Description    
-----                   -------             -----------    
MPEG-2 Video            3637 kbps           576i / 25 fps / 4:3

AUDIO:

Codec                           Language        Bitrate         Description    
-----                           --------        -------         -----------    
Dolby Digital Audio             English         192 kbps        2.0 / 48 kHz / 192 kbps / DN -7dB

FILES:

Name            Time In         Length          Size            Total Bitrate  
----            -------         ------          ----            -------------  
00022.M2TS      0:00:00.000     0:02:51.720     88 197 120      4 109          

CHAPTERS:

Number          Time In         Length          Avg Video Rate  Max 1-Sec Rate  Max 1-Sec Time  Max 5-Sec Rate  Max 5-Sec Time  Max 10Sec Rate  Max 10Sec Time  Avg Frame Size  Max Frame Size  Max Frame Time 
------          -------         ------          --------------  --------------  --------------  --------------  --------------  --------------  --------------  --------------  --------------  -------------- 
1               0:00:00.000     0:02:51.720     3 637 kbps      7 304 kbps      00:00:01.879    6 130 kbps      00:00:01.879    5 609 kbps      00:02:35.680    18 184 bytes    132 129 bytes   00:01:04.679   

STREAM DIAGNOSTICS:

File            PID             Type            Codec           Language                Seconds                 Bitrate                 Bytes           Packets        
----            ---             ----            -----           --------                --------------          --------------          -------------   -----          
00022.M2TS      4113 (0x1011)   0x02            MPEG-2                                  171,640                 3 639                   78 064 141      426 746        
00022.M2TS      4352 (0x1100)   0x81            AC3             eng (English)           171,640                 192                     4 121 088       26 830         

[/code]
<---- END FORUMS PASTE ---->

QUICK SUMMARY:

Disc Title: The Patriot (2000)
Disc Size: 47 300 313 933 bytes
Protection: AACS
BD-Java: No
Playlist: 00002.MPLS
Size: 88 197 120 bytes
Length: 0:02:51
Total Bitrate: 4,11 Mbps
Video: MPEG-2 Video / 3637 kbps / 576i / 25 fps / 4:3
Audio: English / Dolby Digital Audio / 2.0 / 48 kHz / 192 kbps / DN -7dB


********************
PLAYLIST: 00006.MPLS
********************

<--- BEGIN FORUMS PASTE --->
[code]
                                                                                                                Total   Video                                            
Title                                                           Codec   Length  Movie Size      Disc Size       Bitrate Bitrate Main Audio Track                          Secondary Audio Track
-----                                                           ------  ------- --------------  --------------  ------- ------- ------------------                        ---------------------
00006.MPLS                                                      MPEG-2  0:02:34 84 344 832      47 300 313 933  4,38    3,67    DD AC3 2.0 192Kbps                       
[/code]

[code]

DISC INFO:

Disc Title:     The Patriot (2000)
Disc Size:      47 300 313 933 bytes
Protection:     AACS
BD-Java:        No
BDInfo:         0.5.6

PLAYLIST REPORT:

Name:                   00006.MPLS
Length:                 0:02:34 (h:m:s)
Size:                   84 344 832 bytes
Total Bitrate:          4,38 Mbps

VIDEO:

Codec                   Bitrate             Description    
-----                   -------             -----------    
MPEG-2 Video            3668 kbps           576i / 25 fps / 4:3

AUDIO:

Codec                           Language        Bitrate         Description    
-----                           --------        -------         -----------    
Dolby Digital Audio             English         192 kbps        2.0 / 48 kHz / 192 kbps / Dolby Surround
Dolby Digital Audio             English         192 kbps        2.0 / 48 kHz / 192 kbps

FILES:

Name            Time In         Length          Size            Total Bitrate  
----            -------         ------          ----            -------------  
00111.M2TS      0:00:00.000     0:02:34.000     84 344 832      4 382          

CHAPTERS:

Number          Time In         Length          Avg Video Rate  Max 1-Sec Rate  Max 1-Sec Time  Max 5-Sec Rate  Max 5-Sec Time  Max 10Sec Rate  Max 10Sec Time  Avg Frame Size  Max Frame Size  Max Frame Time 
------          -------         ------          --------------  --------------  --------------  --------------  --------------  --------------  --------------  --------------  --------------  -------------- 
1               0:00:00.000     0:02:34.000     3 668 kbps      10 225 kbps     00:01:39.559    8 151 kbps      00:01:39.559    5 931 kbps      00:01:39.560    18 339 bytes    107 172 bytes   00:02:06.240   

STREAM DIAGNOSTICS:

File            PID             Type            Codec           Language                Seconds                 Bitrate                 Bytes           Packets        
----            ---             ----            -----           --------                --------------          --------------          -------------   -----          
00111.M2TS      4113 (0x1011)   0x02            MPEG-2                                  153,920                 3 670                   70 605 936      386 001        
00111.M2TS      4352 (0x1100)   0x81            AC3             eng (English)           153,920                 192                     3 695 616       24 060         
00111.M2TS      4353 (0x1101)   0x81            AC3             eng (English)           153,920                 192                     3 695 616       24 060         

[/code]
<---- END FORUMS PASTE ---->

QUICK SUMMARY:

Disc Title: The Patriot (2000)
Disc Size: 47 300 313 933 bytes
Protection: AACS
BD-Java: No
Playlist: 00006.MPLS
Size: 84 344 832 bytes
Length: 0:02:34
Total Bitrate: 4,38 Mbps
Video: MPEG-2 Video / 3668 kbps / 576i / 25 fps / 4:3
Audio: English / Dolby Digital Audio / 2.0 / 48 kHz / 192 kbps / Dolby Surround
Audio: English / Dolby Digital Audio / 2.0 / 48 kHz / 192 kbps


********************
PLAYLIST: 00003.MPLS
********************

<--- BEGIN FORUMS PASTE --->
[code]
                                                                                                                Total   Video                                            
Title                                                           Codec   Length  Movie Size      Disc Size       Bitrate Bitrate Main Audio Track                          Secondary Audio Track
-----                                                           ------  ------- --------------  --------------  ------- ------- ------------------                        ---------------------
00003.MPLS                                                      MPEG-2  0:02:32 83 712 000      47 300 313 933  4,39    3,67    DD AC3 2.0 192Kbps                       
[/code]

[code]

DISC INFO:

Disc Title:     The Patriot (2000)
Disc Size:      47 300 313 933 bytes
Protection:     AACS
BD-Java:        No
BDInfo:         0.5.6

PLAYLIST REPORT:

Name:                   00003.MPLS
Length:                 0:02:32 (h:m:s)
Size:                   83 712 000 bytes
Total Bitrate:          4,39 Mbps

VIDEO:

Codec                   Bitrate             Description    
-----                   -------             -----------    
MPEG-2 Video            3675 kbps           576i / 25 fps / 4:3

AUDIO:

Codec                           Language        Bitrate         Description    
-----                           --------        -------         -----------    
Dolby Digital Audio             English         192 kbps        2.0 / 48 kHz / 192 kbps / Dolby Surround
Dolby Digital Audio             English         192 kbps        2.0 / 48 kHz / 192 kbps

FILES:

Name            Time In         Length          Size            Total Bitrate  
----            -------         ------          ----            -------------  
00100.M2TS      0:00:00.000     0:02:32.600     83 712 000      4 389          

CHAPTERS:

Number          Time In         Length          Avg Video Rate  Max 1-Sec Rate  Max 1-Sec Time  Max 5-Sec Rate  Max 5-Sec Time  Max 10Sec Rate  Max 10Sec Time  Avg Frame Size  Max Frame Size  Max Frame Time 
------          -------         ------          --------------  --------------  --------------  --------------  --------------  --------------  --------------  --------------  --------------  -------------- 
1               0:00:00.000     0:02:32.600     3 675 kbps      7 825 kbps      00:01:13.880    6 734 kbps      00:01:13.399    6 339 kbps      00:01:13.400    18 373 bytes    97 958 bytes    00:00:48.000   

STREAM DIAGNOSTICS:

File            PID             Type            Codec           Language                Seconds                 Bitrate                 Bytes           Packets        
----            ---             ----            -----           --------                --------------          --------------          -------------   -----          
00100.M2TS      4113 (0x1011)   0x02            MPEG-2                                  152,480                 3 678                   70 093 901      383 170        
00100.M2TS      4352 (0x1100)   0x81            AC3             eng (English)           152,480                 192                     3 661 824       23 840         
00100.M2TS      4353 (0x1101)   0x81            AC3             eng (English)           152,480                 192                     3 661 824       23 840         

[/code]
<---- END FORUMS PASTE ---->

QUICK SUMMARY:

Disc Title: The Patriot (2000)
Disc Size: 47 300 313 933 bytes
Protection: AACS
BD-Java: No
Playlist: 00003.MPLS
Size: 83 712 000 bytes
Length: 0:02:32
Total Bitrate: 4,39 Mbps
Video: MPEG-2 Video / 3675 kbps / 576i / 25 fps / 4:3
Audio: English / Dolby Digital Audio / 2.0 / 48 kHz / 192 kbps / Dolby Surround
Audio: English / Dolby Digital Audio / 2.0 / 48 kHz / 192 kbps


********************
PLAYLIST: 00204.MPLS
********************

<--- BEGIN FORUMS PASTE --->
[code]
                                                                                                                Total   Video                                            
Title                                                           Codec   Length  Movie Size      Disc Size       Bitrate Bitrate Main Audio Track                          Secondary Audio Track
-----                                                           ------  ------- --------------  --------------  ------- ------- ------------------                        ---------------------
00204.MPLS                                                      MPEG-2  0:02:18 351 080 448     47 300 313 933  20,30   18,70   DD AC3 5.1 640Kbps                       
[/code]

[code]

DISC INFO:

Disc Title:     The Patriot (2000)
Disc Size:      47 300 313 933 bytes
Protection:     AACS
BD-Java:        No
BDInfo:         0.5.6

PLAYLIST REPORT:

Name:                   00204.MPLS
Length:                 0:02:18 (h:m:s)
Size:                   351 080 448 bytes
Total Bitrate:          20,30 Mbps

VIDEO:

Codec                   Bitrate             Description    
-----                   -------             -----------    
MPEG-2 Video            18695 kbps          1080p / 23,976 fps / 16:9

AUDIO:

Codec                           Language        Bitrate         Description    
-----                           --------        -------         -----------    
Dolby Digital Audio             English         640 kbps        5.1 / 48 kHz / 640 kbps

FILES:

Name            Time In         Length          Size            Total Bitrate  
----            -------         ------          ----            -------------  
00106.M2TS      0:00:00.000     0:02:18.346     351 080 448     20 302         

CHAPTERS:

Number          Time In         Length          Avg Video Rate  Max 1-Sec Rate  Max 1-Sec Time  Max 5-Sec Rate  Max 5-Sec Time  Max 10Sec Rate  Max 10Sec Time  Avg Frame Size  Max Frame Size  Max Frame Time 
------          -------         ------          --------------  --------------  --------------  --------------  --------------  --------------  --------------  --------------  --------------  -------------- 
1               0:00:00.000     0:02:18.346     18 695 kbps     33 529 kbps     00:01:51.486    27 015 kbps     00:01:13.573    24 607 kbps     00:01:13.573    97 468 bytes    517 034 bytes   00:01:40.141   

STREAM DIAGNOSTICS:

File            PID             Type            Codec           Language                Seconds                 Bitrate                 Bytes           Packets        
----            ---             ----            -----           --------                --------------          --------------          -------------   -----          
00106.M2TS      4113 (0x1011)   0x02            MPEG-2                                  138,263                 18 706                  323 300 625     1 759 004      
00106.M2TS      4352 (0x1100)   0x81            AC3             eng (English)           138,263                 640                     11 069 440      64 860         

[/code]
<---- END FORUMS PASTE ---->

QUICK SUMMARY:

Disc Title: The Patriot (2000)
Disc Size: 47 300 313 933 bytes
Protection: AACS
BD-Java: No
Playlist: 00204.MPLS
Size: 351 080 448 bytes
Length: 0:02:18
Total Bitrate: 20,30 Mbps
Video: MPEG-2 Video / 18695 kbps / 1080p / 23,976 fps / 16:9
Audio: English / Dolby Digital Audio / 5.1 / 48 kHz / 640 kbps


********************
PLAYLIST: 00005.MPLS
********************

<--- BEGIN FORUMS PASTE --->
[code]
                                                                                                                Total   Video                                            
Title                                                           Codec   Length  Movie Size      Disc Size       Bitrate Bitrate Main Audio Track                          Secondary Audio Track
-----                                                           ------  ------- --------------  --------------  ------- ------- ------------------                        ---------------------
00005.MPLS                                                      MPEG-2  0:01:55 63 799 296      47 300 313 933  4,41    3,69    DD AC3 2.0 192Kbps                       
[/code]

[code]

DISC INFO:

Disc Title:     The Patriot (2000)
Disc Size:      47 300 313 933 bytes
Protection:     AACS
BD-Java:        No
BDInfo:         0.5.6

PLAYLIST REPORT:

Name:                   00005.MPLS
Length:                 0:01:55 (h:m:s)
Size:                   63 799 296 bytes
Total Bitrate:          4,41 Mbps

VIDEO:

Codec                   Bitrate             Description    
-----                   -------             -----------    
MPEG-2 Video            3693 kbps           576i / 25 fps / 4:3

AUDIO:

Codec                           Language        Bitrate         Description    
-----                           --------        -------         -----------    
Dolby Digital Audio             English         192 kbps        2.0 / 48 kHz / 192 kbps / DN -3dB / Dolby Surround
Dolby Digital Audio             English         192 kbps        2.0 / 48 kHz / 192 kbps

FILES:

Name            Time In         Length          Size            Total Bitrate  
----            -------         ------          ----            -------------  
00110.M2TS      0:00:00.000     0:01:55.799     63 799 296      4 408          

CHAPTERS:

Number          Time In         Length          Avg Video Rate  Max 1-Sec Rate  Max 1-Sec Time  Max 5-Sec Rate  Max 5-Sec Time  Max 10Sec Rate  Max 10Sec Time  Avg Frame Size  Max Frame Size  Max Frame Time 
------          -------         ------          --------------  --------------  --------------  --------------  --------------  --------------  --------------  --------------  --------------  -------------- 
1               0:00:00.000     0:01:55.799     3 693 kbps      6 874 kbps      00:00:11.480    5 899 kbps      00:00:08.120    5 482 kbps      00:00:36.759    18 466 bytes    71 578 bytes    00:00:46.559   

STREAM DIAGNOSTICS:

File            PID             Type            Codec           Language                Seconds                 Bitrate                 Bytes           Packets        
----            ---             ----            -----           --------                --------------          --------------          -------------   -----          
00110.M2TS      4113 (0x1011)   0x02            MPEG-2                                  115,640                 3 698                   53 459 995      292 219        
00110.M2TS      4352 (0x1100)   0x81            AC3             eng (English)           115,640                 192                     2 777 856       18 085         
00110.M2TS      4353 (0x1101)   0x81            AC3             eng (English)           115,640                 192                     2 777 856       18 085         

[/code]
<---- END FORUMS PASTE ---->

QUICK SUMMARY:

Disc Title: The Patriot (2000)
Disc Size: 47 300 313 933 bytes
Protection: AACS
BD-Java: No
Playlist: 00005.MPLS
Size: 63 799 296 bytes
Length: 0:01:55
Total Bitrate: 4,41 Mbps
Video: MPEG-2 Video / 3693 kbps / 576i / 25 fps / 4:3
Audio: English / Dolby Digital Audio / 2.0 / 48 kHz / 192 kbps / DN -3dB / Dolby Surround
Audio: English / Dolby Digital Audio / 2.0 / 48 kHz / 192 kbps


********************
PLAYLIST: 00007.MPLS
********************

<--- BEGIN FORUMS PASTE --->
[code]
                                                                                                                Total   Video                                            
Title                                                           Codec   Length  Movie Size      Disc Size       Bitrate Bitrate Main Audio Track                          Secondary Audio Track
-----                                                           ------  ------- --------------  --------------  ------- ------- ------------------                        ---------------------
00007.MPLS                                                      MPEG-2  0:01:44 57 200 640      47 300 313 933  4,37    3,65    DD AC3 2.0 192Kbps                       
[/code]

[code]

DISC INFO:

Disc Title:     The Patriot (2000)
Disc Size:      47 300 313 933 bytes
Protection:     AACS
BD-Java:        No
BDInfo:         0.5.6

PLAYLIST REPORT:

Name:                   00007.MPLS
Length:                 0:01:44 (h:m:s)
Size:                   57 200 640 bytes
Total Bitrate:          4,37 Mbps

VIDEO:

Codec                   Bitrate             Description    
-----                   -------             -----------    
MPEG-2 Video            3653 kbps           576i / 25 fps / 4:3

AUDIO:

Codec                           Language        Bitrate         Description    
-----                           --------        -------         -----------    
Dolby Digital Audio             English         192 kbps        2.0 / 48 kHz / 192 kbps / DN -2dB / Dolby Surround
Dolby Digital Audio             English         192 kbps        2.0 / 48 kHz / 192 kbps

FILES:

Name            Time In         Length          Size            Total Bitrate  
----            -------         ------          ----            -------------  
00113.M2TS      0:00:00.000     0:01:44.799     57 200 640      4 366          

CHAPTERS:

Number          Time In         Length          Avg Video Rate  Max 1-Sec Rate  Max 1-Sec Time  Max 5-Sec Rate  Max 5-Sec Time  Max 10Sec Rate  Max 10Sec Time  Avg Frame Size  Max Frame Size  Max Frame Time 
------          -------         ------          --------------  --------------  --------------  --------------  --------------  --------------  --------------  --------------  --------------  -------------- 
1               0:00:00.000     0:01:44.799     3 653 kbps      7 359 kbps      00:00:19.639    6 710 kbps      00:00:16.240    5 739 kbps      00:00:16.480    18 267 bytes    96 172 bytes    00:01:42.720   

STREAM DIAGNOSTICS:

File            PID             Type            Codec           Language                Seconds                 Bitrate                 Bytes           Packets        
----            ---             ----            -----           --------                --------------          --------------          -------------   -----          
00113.M2TS      4113 (0x1011)   0x02            MPEG-2                                  104,720                 3 656                   47 859 548      261 650        
00113.M2TS      4352 (0x1100)   0x81            AC3             eng (English)           104,720                 192                     2 514 432       16 370         
00113.M2TS      4353 (0x1101)   0x81            AC3             eng (English)           104,720                 192                     2 514 432       16 370         

[/code]
<---- END FORUMS PASTE ---->

QUICK SUMMARY:

Disc Title: The Patriot (2000)
Disc Size: 47 300 313 933 bytes
Protection: AACS
BD-Java: No
Playlist: 00007.MPLS
Size: 57 200 640 bytes
Length: 0:01:44
Total Bitrate: 4,37 Mbps
Video: MPEG-2 Video / 3653 kbps / 576i / 25 fps / 4:3
Audio: English / Dolby Digital Audio / 2.0 / 48 kHz / 192 kbps / DN -2dB / Dolby Surround
Audio: English / Dolby Digital Audio / 2.0 / 48 kHz / 192 kbps


********************
PLAYLIST: 00004.MPLS
********************

<--- BEGIN FORUMS PASTE --->
[code]
                                                                                                                Total   Video                                            
Title                                                           Codec   Length  Movie Size      Disc Size       Bitrate Bitrate Main Audio Track                          Secondary Audio Track
-----                                                           ------  ------- --------------  --------------  ------- ------- ------------------                        ---------------------
00004.MPLS                                                      MPEG-2  0:01:14 39 874 560      47 300 313 933  4,30    3,59    DD AC3 2.0 192Kbps                       
[/code]

[code]

DISC INFO:

Disc Title:     The Patriot (2000)
Disc Size:      47 300 313 933 bytes
Protection:     AACS
BD-Java:        No
BDInfo:         0.5.6

PLAYLIST REPORT:

Name:                   00004.MPLS
Length:                 0:01:14 (h:m:s)
Size:                   39 874 560 bytes
Total Bitrate:          4,30 Mbps

VIDEO:

Codec                   Bitrate             Description    
-----                   -------             -----------    
MPEG-2 Video            3589 kbps           576i / 25 fps / 4:3

AUDIO:

Codec                           Language        Bitrate         Description    
-----                           --------        -------         -----------    
Dolby Digital Audio             English         192 kbps        2.0 / 48 kHz / 192 kbps / DN -3dB / Dolby Surround
Dolby Digital Audio             English         192 kbps        2.0 / 48 kHz / 192 kbps

FILES:

Name            Time In         Length          Size            Total Bitrate  
----            -------         ------          ----            -------------  
00109.M2TS      0:00:00.000     0:01:14.200     39 874 560      4 299          

CHAPTERS:

Number          Time In         Length          Avg Video Rate  Max 1-Sec Rate  Max 1-Sec Time  Max 5-Sec Rate  Max 5-Sec Time  Max 10Sec Rate  Max 10Sec Time  Avg Frame Size  Max Frame Size  Max Frame Time 
------          -------         ------          --------------  --------------  --------------  --------------  --------------  --------------  --------------  --------------  --------------  -------------- 
1               0:00:00.000     0:01:14.200     3 589 kbps      6 386 kbps      00:00:12.679    5 573 kbps      00:00:12.440    4 756 kbps      00:00:55.160    17 945 bytes    118 754 bytes   00:01:02.399   

STREAM DIAGNOSTICS:

File            PID             Type            Codec           Language                Seconds                 Bitrate                 Bytes           Packets        
----            ---             ----            -----           --------                --------------          --------------          -------------   -----          
00109.M2TS      4113 (0x1011)   0x02            MPEG-2                                  74,120                  3 593                   33 288 362      181 983        
00109.M2TS      4352 (0x1100)   0x81            AC3             eng (English)           74,120                  192                     1 780 224       11 590         
00109.M2TS      4353 (0x1101)   0x81            AC3             eng (English)           74,120                  192                     1 780 224       11 590         

[/code]
<---- END FORUMS PASTE ---->

QUICK SUMMARY:

Disc Title: The Patriot (2000)
Disc Size: 47 300 313 933 bytes
Protection: AACS
BD-Java: No
Playlist: 00004.MPLS
Size: 39 874 560 bytes
Length: 0:01:14
Total Bitrate: 4,30 Mbps
Video: MPEG-2 Video / 3589 kbps / 576i / 25 fps / 4:3
Audio: English / Dolby Digital Audio / 2.0 / 48 kHz / 192 kbps / DN -3dB / Dolby Surround
Audio: English / Dolby Digital Audio / 2.0 / 48 kHz / 192 kbps


********************
PLAYLIST: 00205.MPLS
********************

<--- BEGIN FORUMS PASTE --->
[code]
                                                                                                                Total   Video                                            
Title                                                           Codec   Length  Movie Size      Disc Size       Bitrate Bitrate Main Audio Track                          Secondary Audio Track
-----                                                           ------  ------- --------------  --------------  ------- ------- ------------------                        ---------------------
00205.MPLS                                                      MPEG-2  0:01:13 163 504 128     47 300 313 933  17,75   16,25   DD AC3 5.1 640Kbps                       
[/code]

[code]

DISC INFO:

Disc Title:     The Patriot (2000)
Disc Size:      47 300 313 933 bytes
Protection:     AACS
BD-Java:        No
BDInfo:         0.5.6

PLAYLIST REPORT:

Name:                   00205.MPLS
Length:                 0:01:13 (h:m:s)
Size:                   163 504 128 bytes
Total Bitrate:          17,75 Mbps

VIDEO:

Codec                   Bitrate             Description    
-----                   -------             -----------    
MPEG-2 Video            16248 kbps          1080p / 23,976 fps / 16:9

AUDIO:

Codec                           Language        Bitrate         Description    
-----                           --------        -------         -----------    
Dolby Digital Audio             English         640 kbps        5.1 / 48 kHz / 640 kbps / DN -4dB

FILES:

Name            Time In         Length          Size            Total Bitrate  
----            -------         ------          ----            -------------  
00107.M2TS      0:00:00.000     0:01:13.698     163 504 128     17 748         

CHAPTERS:

Number          Time In         Length          Avg Video Rate  Max 1-Sec Rate  Max 1-Sec Time  Max 5-Sec Rate  Max 5-Sec Time  Max 10Sec Rate  Max 10Sec Time  Avg Frame Size  Max Frame Size  Max Frame Time 
------          -------         ------          --------------  --------------  --------------  --------------  --------------  --------------  --------------  --------------  --------------  -------------- 
1               0:00:00.000     0:01:13.698     16 248 kbps     36 983 kbps     00:00:03.253    29 487 kbps     00:00:01.584    22 769 kbps     00:00:02.502    84 711 bytes    554 493 bytes   00:00:05.922   

STREAM DIAGNOSTICS:

File            PID             Type            Codec           Language                Seconds                 Bitrate                 Bytes           Packets        
----            ---             ----            -----           --------                --------------          --------------          -------------   -----          
00107.M2TS      4113 (0x1011)   0x02            MPEG-2                                  73,574                  16 276                  149 683 926     814 526        
00107.M2TS      4352 (0x1100)   0x81            AC3             eng (English)           73,574                  641                     5 898 240       34 560         

[/code]
<---- END FORUMS PASTE ---->

QUICK SUMMARY:

Disc Title: The Patriot (2000)
Disc Size: 47 300 313 933 bytes
Protection: AACS
BD-Java: No
Playlist: 00205.MPLS
Size: 163 504 128 bytes
Length: 0:01:13
Total Bitrate: 17,75 Mbps
Video: MPEG-2 Video / 16248 kbps / 1080p / 23,976 fps / 16:9
Audio: English / Dolby Digital Audio / 5.1 / 48 kHz / 640 kbps / DN -4dB


********************
PLAYLIST: 00102.MPLS
********************

<--- BEGIN FORUMS PASTE --->
[code]
                                                                                                                Total   Video                                            
Title                                                           Codec   Length  Movie Size      Disc Size       Bitrate Bitrate Main Audio Track                          Secondary Audio Track
-----                                                           ------  ------- --------------  --------------  ------- ------- ------------------                        ---------------------
00102.MPLS                                                      MPEG-2  0:01:00 118 216 704     47 300 313 933  15,75   15,01                                            
[/code]

[code]

DISC INFO:

Disc Title:     The Patriot (2000)
Disc Size:      47 300 313 933 bytes
Protection:     AACS
BD-Java:        No
BDInfo:         0.5.6

PLAYLIST REPORT:

Name:                   00102.MPLS
Length:                 0:01:00 (h:m:s)
Size:                   118 216 704 bytes
Total Bitrate:          15,75 Mbps

VIDEO:

Codec                   Bitrate             Description    
-----                   -------             -----------    
MPEG-2 Video            15013 kbps          1080p / 23,976 fps / 16:9

FILES:

Name            Time In         Length          Size            Total Bitrate  
----            -------         ------          ----            -------------  
00081.M2TS      0:00:00.000     0:01:00.059     118 216 704     15 746         

CHAPTERS:

Number          Time In         Length          Avg Video Rate  Max 1-Sec Rate  Max 1-Sec Time  Max 5-Sec Rate  Max 5-Sec Time  Max 10Sec Rate  Max 10Sec Time  Avg Frame Size  Max Frame Size  Max Frame Time 
------          -------         ------          --------------  --------------  --------------  --------------  --------------  --------------  --------------  --------------  --------------  -------------- 
1               0:00:00.000     0:00:15.014     15 272 kbps     19 624 kbps     00:00:13.930    15 925 kbps     00:00:09.926    15 462 kbps     00:00:04.921    79 401 bytes    663 627 bytes   00:00:14.931   
2               0:00:15.014     0:00:15.014     14 775 kbps     15 185 kbps     00:00:16.433    15 033 kbps     00:00:16.433    15 017 kbps     00:00:16.433    77 031 bytes    674 417 bytes   00:00:15.432   
3               0:00:30.029     0:00:15.014     15 005 kbps     15 922 kbps     00:00:43.960    15 184 kbps     00:00:39.956    15 092 kbps     00:00:34.951    78 232 bytes    253 660 bytes   00:00:44.961   
4               0:00:45.044     0:00:15.014     15 001 kbps     15 033 kbps     00:00:45.045    15 007 kbps     00:00:45.044    15 003 kbps     00:00:45.044    78 424 bytes    253 660 bytes   00:00:45.462   

STREAM DIAGNOSTICS:

File            PID             Type            Codec           Language                Seconds                 Bitrate                 Bytes           Packets        
----            ---             ----            -----           --------                --------------          --------------          -------------   -----          
00081.M2TS      4113 (0x1011)   0x02            MPEG-2                                  59,935                  15 045                  112 712 665     613 678        

[/code]
<---- END FORUMS PASTE ---->

QUICK SUMMARY:

Disc Title: The Patriot (2000)
Disc Size: 47 300 313 933 bytes
Protection: AACS
BD-Java: No
Playlist: 00102.MPLS
Size: 118 216 704 bytes
Length: 0:01:00
Total Bitrate: 15,75 Mbps
Video: MPEG-2 Video / 15013 kbps / 1080p / 23,976 fps / 16:9


********************
PLAYLIST: 00015.MPLS
********************

<--- BEGIN FORUMS PASTE --->
[code]
                                                                                                                Total   Video                                            
Title                                                           Codec   Length  Movie Size      Disc Size       Bitrate Bitrate Main Audio Track                          Secondary Audio Track
-----                                                           ------  ------- --------------  --------------  ------- ------- ------------------                        ---------------------
00015.MPLS                                                      MPEG-2  0:00:51 30 136 320      47 300 313 933  4,73    4,23    DD AC3 2.0 192Kbps                       
[/code]

[code]

DISC INFO:

Disc Title:     The Patriot (2000)
Disc Size:      47 300 313 933 bytes
Protection:     AACS
BD-Java:        No
BDInfo:         0.5.6

PLAYLIST REPORT:

Name:                   00015.MPLS
Length:                 0:00:51 (h:m:s)
Size:                   30 136 320 bytes
Total Bitrate:          4,73 Mbps

Angle 1 Length:         0:00:51 (h:m:s) / 0:00:51 (h:m:s)
Angle 1 Size:           30 769 152 bytes / 30 769 152 bytes
Angle 1 Total Bitrate:  4,83 Mbps / 4,83 Mbps

Angle 2 Length:         0:00:51 (h:m:s) / 0:00:51 (h:m:s)
Angle 2 Size:           28 876 800 bytes / 28 876 800 bytes
Angle 2 Total Bitrate:  4,53 Mbps / 4,53 Mbps

All Angles Length:      0:02:33 (h:m:s)
All Angles Size:        89 782 272 bytes
All Angles Bitrate:     4,69 Mbps

VIDEO:

Codec                   Bitrate             Description    
-----                   -------             -----------    
MPEG-2 Video            4229 kbps           576i / 25 fps / 4:3
MPEG-2 Video (1)        4324 (4324) kbps    576i / 25 fps / 4:3
MPEG-2 Video (2)        4040 (4040) kbps    576i / 25 fps / 4:3

AUDIO:

Codec                           Language        Bitrate         Description    
-----                           --------        -------         -----------    
Dolby Digital Audio             English         192 kbps        2.0 / 48 kHz / 192 kbps / DN -9dB

FILES:

Name            Time In         Length          Size            Total Bitrate  
----            -------         ------          ----            -------------  
00120.M2TS      0:00:00.000     0:00:51.000     30 136 320      4 727          
00121.M2TS (1)  0:00:00.000     0:00:51.000     30 769 152      4 827          
00122.M2TS (2)  0:00:00.000     0:00:51.000     28 876 800      4 530          

CHAPTERS:

Number          Time In         Length          Avg Video Rate  Max 1-Sec Rate  Max 1-Sec Time  Max 5-Sec Rate  Max 5-Sec Time  Max 10Sec Rate  Max 10Sec Time  Avg Frame Size  Max Frame Size  Max Frame Time 
------          -------         ------          --------------  --------------  --------------  --------------  --------------  --------------  --------------  --------------  --------------  -------------- 
1               0:00:00.000     0:00:51.000     4 229 kbps      5 021 kbps      00:00:30.320    4 486 kbps      00:00:22.480    4 392 kbps      00:00:21.160    21 144 bytes    73 403 bytes    00:00:47.639   

STREAM DIAGNOSTICS:

File            PID             Type            Codec           Language                Seconds                 Bitrate                 Bytes           Packets        
----            ---             ----            -----           --------                --------------          --------------          -------------   -----          
00120.M2TS      4113 (0x1011)   0x02            MPEG-2                                  50,920                  4 235                   26 958 450      147 262        
00120.M2TS      4352 (0x1100)   0x81            AC3             eng (English)           50,920                  192                     1 222 656       7 960          
00121.M2TS (1)  4113 (0x1011)   0x02            MPEG-2                                  50,920                  4 330                   27 562 808      150 540        
00121.M2TS (1)  4352 (0x1100)   0x81            AC3             eng (English)           50,920                  192                     1 224 960       7 975          
00122.M2TS (2)  4113 (0x1011)   0x02            MPEG-2                                  50,920                  4 047                   25 757 781      140 721        
00122.M2TS (2)  4352 (0x1100)   0x81            AC3             eng (English)           50,920                  192                     1 221 120       7 950          

[/code]
<---- END FORUMS PASTE ---->

QUICK SUMMARY:

Disc Title: The Patriot (2000)
Disc Size: 47 300 313 933 bytes
Protection: AACS
BD-Java: No
Playlist: 00015.MPLS
Size: 30 136 320 bytes
Length: 0:00:51
Total Bitrate: 4,73 Mbps
Video: MPEG-2 Video / 4229 kbps / 576i / 25 fps / 4:3
Video: MPEG-2 Video (1) / 4324 (4324) kbps / 576i / 25 fps / 4:3
Video: MPEG-2 Video (2) / 4040 (4040) kbps / 576i / 25 fps / 4:3
Audio: English / Dolby Digital Audio / 2.0 / 48 kHz / 192 kbps / DN -9dB


********************
PLAYLIST: 00013.MPLS
********************

<--- BEGIN FORUMS PASTE --->
[code]
                                                                                                                Total   Video                                            
Title                                                           Codec   Length  Movie Size      Disc Size       Bitrate Bitrate Main Audio Track                          Secondary Audio Track
-----                                                           ------  ------- --------------  --------------  ------- ------- ------------------                        ---------------------
00013.MPLS                                                      MPEG-2  0:00:47 26 351 616      47 300 313 933  4,42    3,93    DD AC3 2.0 192Kbps                       
[/code]

[code]

DISC INFO:

Disc Title:     The Patriot (2000)
Disc Size:      47 300 313 933 bytes
Protection:     AACS
BD-Java:        No
BDInfo:         0.5.6

PLAYLIST REPORT:

Name:                   00013.MPLS
Length:                 0:00:47 (h:m:s)
Size:                   26 351 616 bytes
Total Bitrate:          4,42 Mbps

Angle 1 Length:         0:00:47 (h:m:s) / 0:00:47 (h:m:s)
Angle 1 Size:           25 995 264 bytes / 25 995 264 bytes
Angle 1 Total Bitrate:  4,36 Mbps / 4,36 Mbps

Angle 2 Length:         0:00:47 (h:m:s) / 0:00:47 (h:m:s)
Angle 2 Size:           27 881 472 bytes / 27 881 472 bytes
Angle 2 Total Bitrate:  4,67 Mbps / 4,67 Mbps

All Angles Length:      0:02:23 (h:m:s)
All Angles Size:        80 228 352 bytes
All Angles Bitrate:     4,48 Mbps

VIDEO:

Codec                   Bitrate             Description    
-----                   -------             -----------    
MPEG-2 Video            3932 kbps           576i / 25 fps / 4:3
MPEG-2 Video (1)        3875 (3875) kbps    576i / 25 fps / 4:3
MPEG-2 Video (2)        4178 (4178) kbps    576i / 25 fps / 4:3

AUDIO:

Codec                           Language        Bitrate         Description    
-----                           --------        -------         -----------    
Dolby Digital Audio             English         192 kbps        2.0 / 48 kHz / 192 kbps / DN -9dB

FILES:

Name            Time In         Length          Size            Total Bitrate  
----            -------         ------          ----            -------------  
00114.M2TS      0:00:00.000     0:00:47.720     26 351 616      4 418          
00115.M2TS (1)  0:00:00.000     0:00:47.720     25 995 264      4 358          
00116.M2TS (2)  0:00:00.000     0:00:47.720     27 881 472      4 674          

CHAPTERS:

Number          Time In         Length          Avg Video Rate  Max 1-Sec Rate  Max 1-Sec Time  Max 5-Sec Rate  Max 5-Sec Time  Max 10Sec Rate  Max 10Sec Time  Avg Frame Size  Max Frame Size  Max Frame Time 
------          -------         ------          --------------  --------------  --------------  --------------  --------------  --------------  --------------  --------------  --------------  -------------- 
1               0:00:00.000     0:00:47.720     3 932 kbps      4 740 kbps      00:00:21.559    4 094 kbps      00:00:25.879    4 040 kbps      00:00:25.759    19 662 bytes    93 459 bytes    00:00:00.000   

STREAM DIAGNOSTICS:

File            PID             Type            Codec           Language                Seconds                 Bitrate                 Bytes           Packets        
----            ---             ----            -----           --------                --------------          --------------          -------------   -----          
00114.M2TS      4113 (0x1011)   0x02            MPEG-2                                  47,640                  3 939                   23 456 656      128 179        
00114.M2TS      4352 (0x1100)   0x81            AC3             eng (English)           47,640                  192                     1 143 552       7 445          
00115.M2TS (1)  4113 (0x1011)   0x02            MPEG-2                                  47,640                  3 881                   23 112 921      126 308        
00115.M2TS (1)  4352 (0x1100)   0x81            AC3             eng (English)           47,640                  192                     1 144 320       7 450          
00116.M2TS (2)  4113 (0x1011)   0x02            MPEG-2                                  47,640                  4 185                   24 922 807      136 124        
00116.M2TS (2)  4352 (0x1100)   0x81            AC3             eng (English)           47,640                  192                     1 145 856       7 460          

[/code]
<---- END FORUMS PASTE ---->

QUICK SUMMARY:

Disc Title: The Patriot (2000)
Disc Size: 47 300 313 933 bytes
Protection: AACS
BD-Java: No
Playlist: 00013.MPLS
Size: 26 351 616 bytes
Length: 0:00:47
Total Bitrate: 4,42 Mbps
Video: MPEG-2 Video / 3932 kbps / 576i / 25 fps / 4:3
Video: MPEG-2 Video (1) / 3875 (3875) kbps / 576i / 25 fps / 4:3
Video: MPEG-2 Video (2) / 4178 (4178) kbps / 576i / 25 fps / 4:3
Audio: English / Dolby Digital Audio / 2.0 / 48 kHz / 192 kbps / DN -9dB


********************
PLAYLIST: 00017.MPLS
********************

<--- BEGIN FORUMS PASTE --->
[code]
                                                                                                                Total   Video                                            
Title                                                           Codec   Length  Movie Size      Disc Size       Bitrate Bitrate Main Audio Track                          Secondary Audio Track
-----                                                           ------  ------- --------------  --------------  ------- ------- ------------------                        ---------------------
00017.MPLS                                                      MPEG-2  0:00:39 16 816 128      47 300 313 933  3,40    2,96    DD AC3 2.0 192Kbps                       
[/code]

[code]

DISC INFO:

Disc Title:     The Patriot (2000)
Disc Size:      47 300 313 933 bytes
Protection:     AACS
BD-Java:        No
BDInfo:         0.5.6

PLAYLIST REPORT:

Name:                   00017.MPLS
Length:                 0:00:39 (h:m:s)
Size:                   16 816 128 bytes
Total Bitrate:          3,40 Mbps

Angle 1 Length:         0:00:39 (h:m:s) / 0:00:39 (h:m:s)
Angle 1 Size:           16 214 016 bytes / 16 214 016 bytes
Angle 1 Total Bitrate:  3,28 Mbps / 3,28 Mbps

Angle 2 Length:         0:00:39 (h:m:s) / 0:00:39 (h:m:s)
Angle 2 Size:           17 571 840 bytes / 17 571 840 bytes
Angle 2 Total Bitrate:  3,56 Mbps / 3,56 Mbps

All Angles Length:      0:01:58 (h:m:s)
All Angles Size:        50 601 984 bytes
All Angles Bitrate:     3,41 Mbps

VIDEO:

Codec                   Bitrate             Description    
-----                   -------             -----------    
MPEG-2 Video            2961 kbps           576i / 25 fps / 4:3
MPEG-2 Video (1)        2843 (2843) kbps    576i / 25 fps / 4:3
MPEG-2 Video (2)        3108 (3108) kbps    576i / 25 fps / 4:3

AUDIO:

Codec                           Language        Bitrate         Description    
-----                           --------        -------         -----------    
Dolby Digital Audio             English         192 kbps        2.0 / 48 kHz / 192 kbps / DN -9dB

FILES:

Name            Time In         Length          Size            Total Bitrate  
----            -------         ------          ----            -------------  
00126.M2TS      0:00:00.000     0:00:39.519     16 816 128      3 404          
00127.M2TS (1)  0:00:00.000     0:00:39.519     16 214 016      3 282          
00128.M2TS (2)  0:00:00.000     0:00:39.519     17 571 840      3 557          

CHAPTERS:

Number          Time In         Length          Avg Video Rate  Max 1-Sec Rate  Max 1-Sec Time  Max 5-Sec Rate  Max 5-Sec Time  Max 10Sec Rate  Max 10Sec Time  Avg Frame Size  Max Frame Size  Max Frame Time 
------          -------         ------          --------------  --------------  --------------  --------------  --------------  --------------  --------------  --------------  --------------  -------------- 
1               0:00:00.000     0:00:39.519     2 961 kbps      3 530 kbps      00:00:35.600    3 092 kbps      00:00:13.999    3 038 kbps      00:00:06.879    14 805 bytes    56 653 bytes    00:00:37.080   

STREAM DIAGNOSTICS:

File            PID             Type            Codec           Language                Seconds                 Bitrate                 Bytes           Packets        
----            ---             ----            -----           --------                --------------          --------------          -------------   -----          
00126.M2TS      4113 (0x1011)   0x02            MPEG-2                                  39,440                  2 967                   14 627 464      80 072         
00126.M2TS      4352 (0x1100)   0x81            AC3             eng (English)           39,440                  192                     946 944         6 165          
00127.M2TS (1)  4113 (0x1011)   0x02            MPEG-2                                  39,440                  2 849                   14 044 838      76 904         
00127.M2TS (1)  4352 (0x1100)   0x81            AC3             eng (English)           39,440                  192                     948 480         6 175          
00128.M2TS (2)  4113 (0x1011)   0x02            MPEG-2                                  39,440                  3 114                   15 352 047      84 006         
00128.M2TS (2)  4352 (0x1100)   0x81            AC3             eng (English)           39,440                  192                     946 944         6 165          

[/code]
<---- END FORUMS PASTE ---->

QUICK SUMMARY:

Disc Title: The Patriot (2000)
Disc Size: 47 300 313 933 bytes
Protection: AACS
BD-Java: No
Playlist: 00017.MPLS
Size: 16 816 128 bytes
Length: 0:00:39
Total Bitrate: 3,40 Mbps
Video: MPEG-2 Video / 2961 kbps / 576i / 25 fps / 4:3
Video: MPEG-2 Video (1) / 2843 (2843) kbps / 576i / 25 fps / 4:3
Video: MPEG-2 Video (2) / 3108 (3108) kbps / 576i / 25 fps / 4:3
Audio: English / Dolby Digital Audio / 2.0 / 48 kHz / 192 kbps / DN -9dB


********************
PLAYLIST: 00014.MPLS
********************

<--- BEGIN FORUMS PASTE --->
[code]
                                                                                                                Total   Video                                            
Title                                                           Codec   Length  Movie Size      Disc Size       Bitrate Bitrate Main Audio Track                          Secondary Audio Track
-----                                                           ------  ------- --------------  --------------  ------- ------- ------------------                        ---------------------
00014.MPLS                                                      MPEG-2  0:00:35 15 697 920      47 300 313 933  3,53    3,08    DD AC3 2.0 192Kbps                       
[/code]

[code]

DISC INFO:

Disc Title:     The Patriot (2000)
Disc Size:      47 300 313 933 bytes
Protection:     AACS
BD-Java:        No
BDInfo:         0.5.6

PLAYLIST REPORT:

Name:                   00014.MPLS
Length:                 0:00:35 (h:m:s)
Size:                   15 697 920 bytes
Total Bitrate:          3,53 Mbps

Angle 1 Length:         0:00:35 (h:m:s) / 0:00:35 (h:m:s)
Angle 1 Size:           15 323 136 bytes / 15 323 136 bytes
Angle 1 Total Bitrate:  3,44 Mbps / 3,44 Mbps

Angle 2 Length:         0:00:35 (h:m:s) / 0:00:35 (h:m:s)
Angle 2 Size:           16 883 712 bytes / 16 883 712 bytes
Angle 2 Total Bitrate:  3,79 Mbps / 3,79 Mbps

All Angles Length:      0:01:46 (h:m:s)
All Angles Size:        47 904 768 bytes
All Angles Bitrate:     3,59 Mbps

VIDEO:

Codec                   Bitrate             Description    
-----                   -------             -----------    
MPEG-2 Video            3079 kbps           576i / 25 fps / 4:3
MPEG-2 Video (1)        2998 (2998) kbps    576i / 25 fps / 4:3
MPEG-2 Video (2)        3334 (3334) kbps    576i / 25 fps / 4:3

AUDIO:

Codec                           Language        Bitrate         Description    
-----                           --------        -------         -----------    
Dolby Digital Audio             English         192 kbps        2.0 / 48 kHz / 192 kbps / DN -9dB

FILES:

Name            Time In         Length          Size            Total Bitrate  
----            -------         ------          ----            -------------  
00117.M2TS      0:00:00.000     0:00:35.600     15 697 920      3 528          
00118.M2TS (1)  0:00:00.000     0:00:35.600     15 323 136      3 443          
00119.M2TS (2)  0:00:00.000     0:00:35.600     16 883 712      3 794          

CHAPTERS:

Number          Time In         Length          Avg Video Rate  Max 1-Sec Rate  Max 1-Sec Time  Max 5-Sec Rate  Max 5-Sec Time  Max 10Sec Rate  Max 10Sec Time  Avg Frame Size  Max Frame Size  Max Frame Time 
------          -------         ------          --------------  --------------  --------------  --------------  --------------  --------------  --------------  --------------  --------------  -------------- 
1               0:00:00.000     0:00:35.600     3 079 kbps      3 887 kbps      00:00:28.159    3 455 kbps      00:00:27.679    3 264 kbps      00:00:25.519    15 397 bytes    58 427 bytes    00:00:31.559   

STREAM DIAGNOSTICS:

File            PID             Type            Codec           Language                Seconds                 Bitrate                 Bytes           Packets        
----            ---             ----            -----           --------                --------------          --------------          -------------   -----          
00117.M2TS      4113 (0x1011)   0x02            MPEG-2                                  35,520                  3 086                   13 702 894      74 981         
00117.M2TS      4352 (0x1100)   0x81            AC3             eng (English)           35,520                  192                     852 480         5 550          
00118.M2TS (1)  4113 (0x1011)   0x02            MPEG-2                                  35,520                  3 005                   13 341 463      73 037         
00118.M2TS (1)  4352 (0x1100)   0x81            AC3             eng (English)           35,520                  192                     854 016         5 560          
00119.M2TS (2)  4113 (0x1011)   0x02            MPEG-2                                  35,520                  3 342                   14 837 002      81 161         
00119.M2TS (2)  4352 (0x1100)   0x81            AC3             eng (English)           35,520                  192                     854 016         5 560          

[/code]
<---- END FORUMS PASTE ---->

QUICK SUMMARY:

Disc Title: The Patriot (2000)
Disc Size: 47 300 313 933 bytes
Protection: AACS
BD-Java: No
Playlist: 00014.MPLS
Size: 15 697 920 bytes
Length: 0:00:35
Total Bitrate: 3,53 Mbps
Video: MPEG-2 Video / 3079 kbps / 576i / 25 fps / 4:3
Video: MPEG-2 Video (1) / 2998 (2998) kbps / 576i / 25 fps / 4:3
Video: MPEG-2 Video (2) / 3334 (3334) kbps / 576i / 25 fps / 4:3
Audio: English / Dolby Digital Audio / 2.0 / 48 kHz / 192 kbps / DN -9dB


********************
PLAYLIST: 00186.MPLS
********************

<--- BEGIN FORUMS PASTE --->
[code]
                                                                                                                Total   Video                                            
Title                                                           Codec   Length  Movie Size      Disc Size       Bitrate Bitrate Main Audio Track                          Secondary Audio Track
-----                                                           ------  ------- --------------  --------------  ------- ------- ------------------                        ---------------------
00186.MPLS                                                      MPEG-2  0:00:30 1 710 144       47 300 313 933  0,45    0,19                                             
[/code]

[code]

DISC INFO:

Disc Title:     The Patriot (2000)
Disc Size:      47 300 313 933 bytes
Protection:     AACS
BD-Java:        No
BDInfo:         0.5.6

PLAYLIST REPORT:

Name:                   00186.MPLS
Length:                 0:00:30 (h:m:s)
Size:                   1 710 144 bytes
Total Bitrate:          0,45 Mbps

VIDEO:

Codec                   Bitrate             Description    
-----                   -------             -----------    
MPEG-2 Video            193 kbps            1080p / 23,976 fps / 16:9

FILES:

Name            Time In         Length          Size            Total Bitrate  
----            -------         ------          ----            -------------  
00090.M2TS      0:00:00.000     0:00:06.005     269 376         180            
00090.M2TS      0:00:06.005     0:00:06.005     256 512         171            
00090.M2TS      0:00:12.011     0:00:06.006     229 248         153            
00090.M2TS      0:00:18.018     0:00:06.005     287 232         192            
00090.M2TS      0:00:24.024     0:00:06.005     475 200         318            
00090.M2TS      0:00:30.029     0:00:00.041     192 576         36 935         

CHAPTERS:

Number          Time In         Length          Avg Video Rate  Max 1-Sec Rate  Max 1-Sec Time  Max 5-Sec Rate  Max 5-Sec Time  Max 10Sec Rate  Max 10Sec Time  Avg Frame Size  Max Frame Size  Max Frame Time 
------          -------         ------          --------------  --------------  --------------  --------------  --------------  --------------  --------------  --------------  --------------  -------------- 
1               0:00:00.000     0:00:06.005     572 kbps        278 kbps        00:00:05.964    278 kbps        00:00:05.964    0 kbps          00:00:00.000    214 649 bytes   220 714 bytes   00:00:05.964   
2               0:00:06.005     0:00:06.005     243 kbps        243 kbps        00:00:11.970    243 kbps        00:00:11.970    0 kbps          00:00:00.000    182 481 bytes   182 481 bytes   00:00:17.976   
3               0:00:12.011     0:00:06.006     317 kbps        317 kbps        00:00:17.976    317 kbps        00:00:17.976    0 kbps          00:00:00.000    238 288 bytes   238 288 bytes   00:00:23.982   
4               0:00:18.018     0:00:06.005     311 kbps        311 kbps        00:00:23.982    311 kbps        00:00:23.982    0 kbps          00:00:00.000    233 513 bytes   233 513 bytes   00:00:29.988   
5               0:00:24.024     0:00:06.047     4 388 kbps      557 kbps        00:00:17.934    557 kbps        00:00:17.934    434 kbps        00:00:17.976    207 334 bytes   238 288 bytes   00:00:23.982   

STREAM DIAGNOSTICS:

File            PID             Type            Codec           Language                Seconds                 Bitrate                 Bytes           Packets        
----            ---             ----            -----           --------                --------------          --------------          -------------   -----          
00090.M2TS      4113 (0x1011)   0x02            MPEG-2                                  24,024                  422                     1 266 060       6 884          

[/code]
<---- END FORUMS PASTE ---->

QUICK SUMMARY:

Disc Title: The Patriot (2000)
Disc Size: 47 300 313 933 bytes
Protection: AACS
BD-Java: No
Playlist: 00186.MPLS
Size: 1 710 144 bytes
Length: 0:00:30
Total Bitrate: 0,45 Mbps
Video: MPEG-2 Video / 193 kbps / 1080p / 23,976 fps / 16:9


********************
PLAYLIST: 00016.MPLS
********************

<--- BEGIN FORUMS PASTE --->
[code]
                                                                                                                Total   Video                                            
Title                                                           Codec   Length  Movie Size      Disc Size       Bitrate Bitrate Main Audio Track                          Secondary Audio Track
-----                                                           ------  ------- --------------  --------------  ------- ------- ------------------                        ---------------------
00016.MPLS                                                      MPEG-2  0:00:29 17 037 312      47 300 313 933  4,67    4,18    DD AC3 2.0 192Kbps                       
[/code]

[code]

DISC INFO:

Disc Title:     The Patriot (2000)
Disc Size:      47 300 313 933 bytes
Protection:     AACS
BD-Java:        No
BDInfo:         0.5.6

PLAYLIST REPORT:

Name:                   00016.MPLS
Length:                 0:00:29 (h:m:s)
Size:                   17 037 312 bytes
Total Bitrate:          4,67 Mbps

Angle 1 Length:         0:00:29 (h:m:s) / 0:00:29 (h:m:s)
Angle 1 Size:           16 637 952 bytes / 16 637 952 bytes
Angle 1 Total Bitrate:  4,56 Mbps / 4,56 Mbps

Angle 2 Length:         0:00:29 (h:m:s) / 0:00:29 (h:m:s)
Angle 2 Size:           16 650 240 bytes / 16 650 240 bytes
Angle 2 Total Bitrate:  4,57 Mbps / 4,57 Mbps

All Angles Length:      0:01:27 (h:m:s)
All Angles Size:        50 325 504 bytes
All Angles Bitrate:     4,60 Mbps

VIDEO:

Codec                   Bitrate             Description    
-----                   -------             -----------    
MPEG-2 Video            4177 kbps           576i / 25 fps / 4:3
MPEG-2 Video (1)        4073 (4073) kbps    576i / 25 fps / 4:3
MPEG-2 Video (2)        4075 (4075) kbps    576i / 25 fps / 4:3

AUDIO:

Codec                           Language        Bitrate         Description    
-----                           --------        -------         -----------    
Dolby Digital Audio             English         192 kbps        2.0 / 48 kHz / 192 kbps / DN -9dB

FILES:

Name            Time In         Length          Size            Total Bitrate  
----            -------         ------          ----            -------------  
00123.M2TS      0:00:00.000     0:00:29.159     17 037 312      4 674          
00124.M2TS (1)  0:00:00.000     0:00:29.159     16 637 952      4 565          
00125.M2TS (2)  0:00:00.000     0:00:29.159     16 650 240      4 568          

CHAPTERS:

Number          Time In         Length          Avg Video Rate  Max 1-Sec Rate  Max 1-Sec Time  Max 5-Sec Rate  Max 5-Sec Time  Max 10Sec Rate  Max 10Sec Time  Avg Frame Size  Max Frame Size  Max Frame Time 
------          -------         ------          --------------  --------------  --------------  --------------  --------------  --------------  --------------  --------------  --------------  -------------- 
1               0:00:00.000     0:00:29.159     4 177 kbps      6 866 kbps      00:00:00.200    5 774 kbps      00:00:00.039    5 267 kbps      00:00:00.000    20 887 bytes    84 842 bytes    00:00:00.000   

STREAM DIAGNOSTICS:

File            PID             Type            Codec           Language                Seconds                 Bitrate                 Bytes           Packets        
----            ---             ----            -----           --------                --------------          --------------          -------------   -----          
00123.M2TS      4113 (0x1011)   0x02            MPEG-2                                  29,080                  4 189                   15 226 705      83 184         
00123.M2TS      4352 (0x1100)   0x81            AC3             eng (English)           29,080                  192                     698 880         4 550          
00124.M2TS (1)  4113 (0x1011)   0x02            MPEG-2                                  29,080                  4 084                   14 846 493      81 112         
00124.M2TS (1)  4352 (0x1100)   0x81            AC3             eng (English)           29,080                  192                     698 880         4 550          
00125.M2TS (2)  4113 (0x1011)   0x02            MPEG-2                                  29,080                  4 086                   14 853 417      81 160         
00125.M2TS (2)  4352 (0x1100)   0x81            AC3             eng (English)           29,080                  193                     700 416         4 560          

[/code]
<---- END FORUMS PASTE ---->

QUICK SUMMARY:

Disc Title: The Patriot (2000)
Disc Size: 47 300 313 933 bytes
Protection: AACS
BD-Java: No
Playlist: 00016.MPLS
Size: 17 037 312 bytes
Length: 0:00:29
Total Bitrate: 4,67 Mbps
Video: MPEG-2 Video / 4177 kbps / 576i / 25 fps / 4:3
Video: MPEG-2 Video (1) / 4073 (4073) kbps / 576i / 25 fps / 4:3
Video: MPEG-2 Video (2) / 4075 (4075) kbps / 576i / 25 fps / 4:3
Audio: English / Dolby Digital Audio / 2.0 / 48 kHz / 192 kbps / DN -9dB