CopyPastehas never been so tasty!

hd

by anonymous

  • 0
  • 0
  • 0
424 views

Общее

Уникальный идентификатор : 191666149879262540487275938161003992582 (0x90318EC7E758CCB080C97C0F495A1606)
Полное имя : Star.Wars.Episode.III.2005.BDRip.1080p.x264-jasses.mkv
Формат : Matroska
Версия формата : Version 2
Размер файла : 18,7 Гбайт
Продолжительность : 2 ч. 20 м.
Общий поток : 19,1 Мбит/сек
Название фильма : = hdtracker.org = jasses =
Дата кодирования : UTC 2011-09-18 21:06:52
Программа кодирования : mkvmerge v4.9.1 ('Ich will') сборка от Jul 11 2011 23:53:15
Библиотека кодирования : libebml v1.2.1 + libmatroska v1.1.1

 

Видео

Идентификатор : 1
Формат : AVC
Формат/Информация : Advanced Video Codec
Профиль формата : High@L4.1
Параметр CABAC формата : Да
Параметр ReFrames формата : 5 кадров
Идентификатор кодека : V_MPEG4/ISO/AVC
Продолжительность : 2 ч. 20 м.
Битрейт : 16,1 Мбит/сек
Ширина : 1920 пикселей
Высота : 816 пикселей
Соотношение сторон : 2,35:1
Частота кадров : 23,976 кадра/сек
Цветовое пространство : YUV
Субдискретизация насыщенности : 4:2:0
Битовая глубина : 8 бит
Тип развёртки : Прогрессивная
Бит/(Пиксели*Кадры) : 0.427
Размер потока : 15,7 Гбайт (84%)
Библиотека кодирования : x264 core 116 r2074 2641b9e
Настройки программы : cabac=1 / ref=5 / deblock=1:-3:-3 / analyse=0x3:0x113 / me=umh / subme=11 / psy=1 / psy_rd=1.00:0.00 / mixed_ref=1 / me_range=32 / chroma_me=1 / trellis=2 / 8x8dct=1 / cqm=0 / deadzone=21,11 / fast_pskip=0 / chroma_qp_offset=-2 / threads=12 / sliced_threads=0 / nr=0 / decimate=1 / interlaced=0 / bluray_compat=0 / constrained_intra=0 / bframes=8 / b_pyramid=2 / b_adapt=2 / b_bias=0 / direct=1 / weightb=1 / open_gop=0 / weightp=2 / keyint=250 / keyint_min=23 / scenecut=40 / intra_refresh=0 / rc_lookahead=60 / rc=crf / mbtree=1 / crf=18.0 / qcomp=0.80 / qpmin=0 / qpmax=69 / qpstep=4 / vbv_maxrate=50000 / vbv_bufsize=50000 / crf_max=0.0 / nal_hrd=none / ip_ratio=1.40 / aq=1:1.00

 

Аудио #1

Идентификатор : 2
Формат : DTS
Формат/Информация : Digital Theater Systems
Идентификатор кодека : A_DTS
Продолжительность : 2 ч. 20 м.
Вид битрейта : Постоянный
Битрейт : 755 Кбит/сек
Каналы : 6 каналов
Расположение каналов : Front: L C R, Side: L R, LFE
Частота : 48,0 КГц
Битовая глубина : 24 бит
Метод сжатия : С потерями
Размер потока : 756 Мбайт (4%)
Заголовок : DTS "Дубляж"
Язык : Russian

 

Аудио #2

Идентификатор : 3
Формат : AC-3
Формат/Информация : Audio Coding 3
Расширение режима : CM (complete main)
Идентификатор кодека : A_AC3
Продолжительность : 2 ч. 20 м.
Вид битрейта : Постоянный
Битрейт : 448 Кбит/сек
Каналы : 6 каналов
Расположение каналов : Front: L C R, Side: L R, LFE
Частота : 48,0 КГц
Битовая глубина : 16 бит
Метод сжатия : С потерями
Задержка видео : 3 с. 4 мс.
Размер потока : 449 Мбайт (2%)
Заголовок : AC3 "Tycoon"
Язык : Russian

 

Аудио #3

Идентификатор : 4
Формат : DTS
Формат/Информация : Digital Theater Systems
Профиль формата : ES
Идентификатор кодека : A_DTS
Продолжительность : 2 ч. 20 м.
Вид битрейта : Постоянный
Битрейт : 1510 Кбит/сек
Каналы : 7 каналов / 6 каналов
Расположение каналов : Front: L C R, Side: L R, Back: C, LFE / Front: L C R, Side: L R, LFE
Частота : 48,0 КГц
Битовая глубина : 24 бит
Метод сжатия : С потерями
Размер потока : 1,48 Гбайт (8%)
Язык : English

 

Текст #1

Идентификатор : 5
Формат : UTF-8
Идентификатор кодека : S_TEXT/UTF8
Идентификатор кодека/Информация : UTF-8 Plain Text
Заголовок : Force
Язык : Russian

 

Текст #2

Идентификатор : 6
Формат : UTF-8
Идентификатор кодека : S_TEXT/UTF8
Идентификатор кодека/Информация : UTF-8 Plain Text
Язык : Russian

 

Текст #3

Идентификатор : 7
Формат : UTF-8
Идентификатор кодека : S_TEXT/UTF8
Идентификатор кодека/Информация : UTF-8 Plain Text
Язык : English

 

Меню

00:00:00.000 : :1. Opening Logos
00:00:23.523 : :2. Revenge of the Sith
00:01:50.068 : :3. Battle Over Coruscant
00:08:28.133 : :4. General Grievous
00:11:23.349 : :5. Rescuing the Chancellor
00:18:33.738 : :6. Confronting Grievous
00:23:40.461 : :7. Happy Reunions
00:27:37.698 : :8. Grievous on Utapau
00:29:12.960 : :9. Bad Dreams
00:33:18.914 : :10. Counsel With Yoda
00:35:45.435 : :11. The Chancellor's Request
00:36:47.997 : :12. On the Jedi Council
00:38:21.466 : :13. Secret Assignment
00:40:17.457 : :14. Not the Chosen One?
00:41:18.601 : :15. Seeds of Distrust
00:42:41.058 : :16. Tragedy of Darth Plagueis
00:48:01.587 : :17. Kashyyyk
00:50:20.517 : :18. Brothers' Farewell
00:52:24.933 : :19. A Hero Lost
00:53:58.026 : :20. Arrival on Utapau
00:56:26.466 : :21. Obi-Wan Vs. Grievous
01:00:56.278 : :22. Jedi War Council
01:01:56.546 : :23. Sidious Revealed
01:05:26.047 : :24. Utapau Chase
01:07:40.598 : :25. Mace Learns the Truth
01:09:06.976 : :26. Anakin's Fatal Decision
01:10:52.999 : :27. Mace Vs. Sidious
01:15:19.223 : :28. Rise Lord Vader
01:19:15.250 : :29. March on the Jedi Temple
01:20:37.458 : :30. Order Sixty-Six
01:24:20.597 : :31. Time to Leave
01:27:56.521 : :32. "Wait for Me"
01:29:57.392 : :33. The Heroes Regroup
01:33:40.406 : :34. Birth of the Empire
01:36:39.460 : :35. The Terrible Truth
01:38:35.535 : :36. Obi-Wan Confronts Padme
01:41:24.370 : :37. Padme's Departure
01:42:57.004 : :38. "You're Breaking My Heart"
01:48:18.784 : :39. Yoda Visits the Emperor
01:50:59.444 : :40. Battle of the Heroes
01:52:44.007 : :41. Yoda Vs. Sidious
01:54:22.856 : :42. Narrow Escapes
01:56:54.925 : :43. Immolation
02:02:20.875 : :44. The Emperor Arrives
02:03:32.864 : :45. Secret Delivery
02:05:19.637 : :46. Birth and Rebirth
02:07:37.108 : :47. Darth Vader Awakes
02:08:57.063 : :48. The Future of the Twins
02:12:04.959 : :49. A New Hope
02:13:47.353 : :50. End Credits

--------------------------------------------------------------------------------------------------------

x264 [info]: frame I:1489  Avg QP:14.42  size:290576
x264 [info]: frame P:47426 Avg QP:17.29  size:112244
x264 [info]: frame B:152623 Avg QP:18.26  size: 75308

 

Add A Comment: