CopyPastehas never been so tasty!

Obsessed (2009)

by anonymous

  • 0
  • 0
407 views

Disc Title:     Obsessed (2009)
Disc Size:      44 726 314 780 bytes
Protection:     AACS
BD-Java:        Yes
BDInfo:         0.5.6

Notes:         

BDINFO HOME:
  Cinema Squid
    http://www.cinemasquid.com/blu-ray/tools/bdinfo

INCLUDES FORUMS REPORT FOR:
  AVS Forum Blu-ray Audio and Video Specifications Thread
    http://www.avsforum.com/avs-vb/showthread.php?t=1155731


********************
PLAYLIST: 00632.MPLS
********************

<--- BEGIN FORUMS PASTE --->
[code]
                                                                                                                Total   Video                                            
Title                                                           Codec   Length  Movie Size      Disc Size       Bitrate Bitrate Main Audio Track                          Secondary Audio Track
-----                                                           ------  ------- --------------  --------------  ------- ------- ------------------                        ---------------------
00632.MPLS                                                      AVC     1:48:22 33 850 152 960  44 726 314 780  41,64   30,94   Dolby TrueHD 5.1 3085Kbps (48kHz/24-bit) 
[/code]

[code]

DISC INFO:

Disc Title:     Obsessed (2009)
Disc Size:      44 726 314 780 bytes
Protection:     AACS
BD-Java:        Yes
BDInfo:         0.5.6

PLAYLIST REPORT:

Name:                   00632.MPLS
Length:                 1:48:22 (h:m:s)
Size:                   33 850 152 960 bytes
Total Bitrate:          41,64 Mbps

VIDEO:

Codec                   Bitrate             Description    
-----                   -------             -----------    
MPEG-4 AVC Video        30936 kbps          1080p / 23,976 fps / 16:9 / High Profile 4.1

AUDIO:

Codec                           Language        Bitrate         Description    
-----                           --------        -------         -----------    
Dolby TrueHD Audio              English         3085 kbps       5.1 / 48 kHz / 3085 kbps / 24-bit (AC3 Embedded: 5.1 / 48 kHz / 640 kbps / DN -4dB)
Dolby Digital Audio             Czech           640 kbps        5.1 / 48 kHz / 640 kbps / DN -4dB
Dolby Digital Audio             Hungarian       640 kbps        5.1 / 48 kHz / 640 kbps / DN -4dB
Dolby Digital Audio             Polish          640 kbps        5.1 / 48 kHz / 640 kbps / DN -4dB
Dolby Digital Audio             Russian         640 kbps        5.1 / 48 kHz / 640 kbps / DN -4dB
Dolby Digital Audio             Thai            640 kbps        5.1 / 48 kHz / 640 kbps / DN -4dB

SUBTITLES:

Codec                           Language        Bitrate         Description    
-----                           --------        -------         -----------    
Presentation Graphics           English         32,162 kbps                    
Presentation Graphics           English         32,168 kbps                    
Presentation Graphics           Arabic          17,805 kbps                    
Presentation Graphics           Bulgarian       31,139 kbps                    
Presentation Graphics           Chinese         26,639 kbps                    
Presentation Graphics           Chinese         27,743 kbps                    
Presentation Graphics           Croatian        28,952 kbps                    
Presentation Graphics           Estonian        26,060 kbps                    
Presentation Graphics           Greek           30,315 kbps                    
Presentation Graphics           Hebrew          24,496 kbps                    
Presentation Graphics           Hindi           32,213 kbps                    
Presentation Graphics           Hungarian       26,532 kbps                    
Presentation Graphics           Icelandic       36,142 kbps                    
Presentation Graphics           Indonesian      35,379 kbps                    
Presentation Graphics           Korean          23,938 kbps                    
Presentation Graphics           Lithuanian      33,018 kbps                    
Presentation Graphics           Polish          28,422 kbps                    
Presentation Graphics           Romanian        28,734 kbps                    
Presentation Graphics           Russian         36,220 kbps                    
Presentation Graphics           Russian         0,407 kbps                     
Presentation Graphics           Serbian         28,022 kbps                    
Presentation Graphics           Slovak          28,930 kbps                    
Presentation Graphics           Slovenian       27,365 kbps                    
Presentation Graphics           Thai            29,854 kbps                    
Presentation Graphics           Turkish         28,956 kbps                    
Presentation Graphics           Ukrainian       27,573 kbps                    

FILES:

Name            Time In         Length          Size            Total Bitrate  
----            -------         ------          ----            -------------  
00262.M2TS      0:00:00.000     1:48:22.829     33 850 152 960  41 644         

CHAPTERS:

Number          Time In         Length          Avg Video Rate  Max 1-Sec Rate  Max 1-Sec Time  Max 5-Sec Rate  Max 5-Sec Time  Max 10Sec Rate  Max 10Sec Time  Avg Frame Size  Max Frame Size  Max Frame Time 
------          -------         ------          --------------  --------------  --------------  --------------  --------------  --------------  --------------  --------------  --------------  -------------- 
1               0:00:00.000     0:04:48.579     31 008 kbps     37 539 kbps     00:04:18.841    33 218 kbps     00:04:14.837    32 640 kbps     00:04:09.832    161 639 bytes   434 197 bytes   00:03:49.812   
2               0:04:48.579     0:06:24.050     32 145 kbps     36 818 kbps     00:07:43.129    33 087 kbps     00:07:39.125    32 725 kbps     00:07:34.120    167 588 bytes   272 949 bytes   00:05:30.663   
3               0:11:12.630     0:09:57.722     31 854 kbps     39 768 kbps     00:16:22.690    33 782 kbps     00:16:18.686    33 056 kbps     00:16:13.681    166 072 bytes   318 953 bytes   00:19:41.096   
4               0:21:10.352     0:08:11.282     32 229 kbps     38 959 kbps     00:26:24.749    33 626 kbps     00:26:20.745    32 568 kbps     00:27:49.459    168 028 bytes   396 836 bytes   00:26:25.542   
5               0:29:21.634     0:07:01.963     31 801 kbps     36 140 kbps     00:34:03.291    32 859 kbps     00:33:08.861    32 548 kbps     00:33:54.198    165 795 bytes   368 156 bytes   00:34:57.053   
6               0:36:23.598     0:08:36.682     32 216 kbps     35 713 kbps     00:40:21.001    32 719 kbps     00:36:50.291    32 476 kbps     00:40:04.443    167 961 bytes   352 730 bytes   00:45:00.280   
7               0:45:00.280     0:04:27.100     32 149 kbps     37 105 kbps     00:47:25.175    33 275 kbps     00:47:21.213    32 790 kbps     00:47:16.208    167 608 bytes   447 624 bytes   00:47:49.783   
8               0:49:27.381     0:09:06.837     31 452 kbps     40 737 kbps     00:49:43.647    33 940 kbps     00:49:39.643    33 151 kbps     00:49:34.638    163 976 bytes   409 172 bytes   00:49:44.439   
9               0:58:34.219     0:06:24.759     31 757 kbps     41 305 kbps     00:59:09.462    33 015 kbps     00:59:05.416    32 635 kbps     00:59:00.411    165 568 bytes   331 047 bytes   00:59:10.004   
10              1:04:58.978     0:09:58.431     32 187 kbps     35 223 kbps     01:11:39.962    32 784 kbps     01:11:35.958    32 531 kbps     01:11:30.953    167 809 bytes   344 825 bytes   01:09:02.721   
11              1:14:57.409     0:04:24.222     32 094 kbps     39 405 kbps     01:18:42.050    33 767 kbps     01:18:38.088    33 016 kbps     01:18:33.083    167 323 bytes   345 133 bytes   01:17:45.994   
12              1:19:21.631     0:07:09.554     32 064 kbps     35 357 kbps     01:24:27.395    32 728 kbps     01:19:55.665    32 551 kbps     01:23:12.779    167 165 bytes   291 670 bytes   01:24:49.292   
13              1:26:31.186     0:06:32.308     31 344 kbps     34 855 kbps     01:32:02.808    32 934 kbps     01:28:54.871    32 438 kbps     01:31:46.417    163 414 bytes   411 887 bytes   01:32:06.354   
14              1:33:03.494     0:05:45.678     32 045 kbps     35 814 kbps     01:34:25.951    33 019 kbps     01:34:33.334    32 684 kbps     01:34:28.329    167 065 bytes   376 424 bytes   01:33:08.374   
15              1:38:49.173     0:04:53.751     31 647 kbps     43 248 kbps     01:42:50.164    34 498 kbps     01:42:46.160    33 158 kbps     01:42:41.155    164 993 bytes   678 429 bytes   01:42:50.914   
16              1:43:42.925     0:04:39.904     9 819 kbps      36 246 kbps     01:44:36.061    32 961 kbps     01:44:32.057    32 593 kbps     01:44:27.052    51 198 bytes    596 838 bytes   01:44:36.937   

STREAM DIAGNOSTICS:

File            PID             Type            Codec           Language                Seconds                 Bitrate                 Bytes           Packets        
----            ---             ----            -----           --------                --------------          --------------          -------------   -----          
00262.M2TS      4113 (0x1011)   0x1B            AVC                                     6502,663                30 936                  25 146 185 079  136 757 185    
00262.M2TS      4352 (0x1100)   0x83            TrueHD          eng (English)           6502,663                3 725                   3 028 123 814   20 587 286     
00262.M2TS      4353 (0x1101)   0x81            AC3             ces (Czech)             6502,663                640                     520 227 840     3 048 210      
00262.M2TS      4354 (0x1102)   0x81            AC3             hun (Hungarian)         6502,663                640                     520 227 840     3 048 210      
00262.M2TS      4355 (0x1103)   0x81            AC3             pol (Polish)            6502,663                640                     520 227 840     3 048 210      
00262.M2TS      4356 (0x1104)   0x81            AC3             rus (Russian)           6502,663                640                     520 227 840     3 048 210      
00262.M2TS      4357 (0x1105)   0x81            AC3             tha (Thai)              6502,663                640                     520 227 840     3 048 210      
00262.M2TS      4608 (0x1200)   0x90            PGS             eng (English)           6502,663                32                      26 142 663      150 436        
00262.M2TS      4609 (0x1201)   0x90            PGS             eng (English)           6502,663                32                      26 148 056      150 466        
00262.M2TS      4610 (0x1202)   0x90            PGS             rus (Russian)           6502,663                36                      29 441 588      168 845        
00262.M2TS      4611 (0x1203)   0x90            PGS             hun (Hungarian)         6502,663                27                      21 566 865      125 696        
00262.M2TS      4612 (0x1204)   0x90            PGS             pol (Polish)            6502,663                28                      23 102 546      134 036        
00262.M2TS      4613 (0x1205)   0x90            PGS             tha (Thai)              6502,663                30                      24 267 031      140 363        
00262.M2TS      4614 (0x1206)   0x90            PGS             ara (Arabic)            6502,663                18                      14 472 502      87 128         
00262.M2TS      4615 (0x1207)   0x90            PGS             bul (Bulgarian)         6502,663                31                      25 311 776      146 052        
00262.M2TS      4616 (0x1208)   0x90            PGS             zho (Chinese)           6502,663                27                      21 654 014      126 160        
00262.M2TS      4617 (0x1209)   0x90            PGS             zho (Chinese)           6502,663                28                      22 550 759      131 045        
00262.M2TS      4618 (0x120A)   0x90            PGS             hrv (Croatian)          6502,663                29                      23 533 486      136 329        
00262.M2TS      4619 (0x120B)   0x90            PGS             est (Estonian)          6502,663                26                      21 183 080      120 672        
00262.M2TS      4620 (0x120C)   0x90            PGS             ell (Greek)             6502,663                30                      24 641 412      142 348        
00262.M2TS      4621 (0x120D)   0x90            PGS             heb (Hebrew)            6502,663                24                      19 911 562      116 676        
00262.M2TS      4622 (0x120E)   0x90            PGS             hin (Hindi)             6502,663                32                      26 184 234      150 795        
00262.M2TS      4623 (0x120F)   0x90            PGS             isl (Icelandic)         6502,663                36                      29 378 260      168 112        
00262.M2TS      4624 (0x1210)   0x90            PGS             ind (Indonesian)        6502,663                35                      28 757 769      164 772        
00262.M2TS      4625 (0x1211)   0x90            PGS             kor (Korean)            6502,663                24                      19 458 498      114 239        
00262.M2TS      4626 (0x1212)   0x90            PGS             lit (Lithuanian)        6502,663                33                      26 838 844      154 433        
00262.M2TS      4627 (0x1213)   0x90            PGS             ron (Romanian)          6502,663                29                      23 356 661      135 437        
00262.M2TS      4628 (0x1214)   0x90            PGS             srp (Serbian)           6502,663                28                      22 777 747      132 194        
00262.M2TS      4629 (0x1215)   0x90            PGS             slk (Slovak)            6502,663                29                      23 515 702      136 278        
00262.M2TS      4630 (0x1216)   0x90            PGS             slv (Slovenian)         6502,663                27                      22 243 831      129 359        
00262.M2TS      4631 (0x1217)   0x90            PGS             tur (Turkish)           6502,663                29                      23 537 365      136 379        
00262.M2TS      4632 (0x1218)   0x90            PGS             ukr (Ukrainian)         6502,663                28                      22 412 664      130 121        
00262.M2TS      4633 (0x1219)   0x90            PGS             rus (Russian)           6502,663                0                       330 745         1 907          

[/code]
<---- END FORUMS PASTE ---->

QUICK SUMMARY:

Disc Title: Obsessed (2009)
Disc Size: 44 726 314 780 bytes
Protection: AACS
BD-Java: Yes
Playlist: 00632.MPLS
Size: 33 850 152 960 bytes
Length: 1:48:22
Total Bitrate: 41,64 Mbps
Video: MPEG-4 AVC Video / 30936 kbps / 1080p / 23,976 fps / 16:9 / High Profile 4.1
Audio: English / Dolby TrueHD Audio / 5.1 / 48 kHz / 3085 kbps / 24-bit (AC3 Embedded: 5.1 / 48 kHz / 640 kbps / DN -4dB)
Audio: Czech / Dolby Digital Audio / 5.1 / 48 kHz / 640 kbps / DN -4dB
Audio: Hungarian / Dolby Digital Audio / 5.1 / 48 kHz / 640 kbps / DN -4dB
Audio: Polish / Dolby Digital Audio / 5.1 / 48 kHz / 640 kbps / DN -4dB
Audio: Russian / Dolby Digital Audio / 5.1 / 48 kHz / 640 kbps / DN -4dB
Audio: Thai / Dolby Digital Audio / 5.1 / 48 kHz / 640 kbps / DN -4dB
Subtitle: English / 32,162 kbps
Subtitle: English / 32,168 kbps
Subtitle: Arabic / 17,805 kbps
Subtitle: Bulgarian / 31,139 kbps
Subtitle: Chinese / 26,639 kbps
Subtitle: Chinese / 27,743 kbps
Subtitle: Croatian / 28,952 kbps
Subtitle: Estonian / 26,060 kbps
Subtitle: Greek / 30,315 kbps
Subtitle: Hebrew / 24,496 kbps
Subtitle: Hindi / 32,213 kbps
Subtitle: Hungarian / 26,532 kbps
Subtitle: Icelandic / 36,142 kbps
Subtitle: Indonesian / 35,379 kbps
Subtitle: Korean / 23,938 kbps
Subtitle: Lithuanian / 33,018 kbps
Subtitle: Polish / 28,422 kbps
Subtitle: Romanian / 28,734 kbps
Subtitle: Russian / 36,220 kbps
Subtitle: Russian / 0,407 kbps
Subtitle: Serbian / 28,022 kbps
Subtitle: Slovak / 28,930 kbps
Subtitle: Slovenian / 27,365 kbps
Subtitle: Thai / 29,854 kbps
Subtitle: Turkish / 28,956 kbps
Subtitle: Ukrainian / 27,573 kbps


********************
PLAYLIST: 00688.MPLS
********************

<--- BEGIN FORUMS PASTE --->
[code]
                                                                                                                Total   Video                                            
Title                                                           Codec   Length  Movie Size      Disc Size       Bitrate Bitrate Main Audio Track                          Secondary Audio Track
-----                                                           ------  ------- --------------  --------------  ------- ------- ------------------                        ---------------------
00688.MPLS                                                      AVC     0:15:37 3 752 712 192   44 726 314 780  32,01   30,00   DD AC3 2.0 192Kbps                       
[/code]

[code]

DISC INFO:

Disc Title:     Obsessed (2009)
Disc Size:      44 726 314 780 bytes
Protection:     AACS
BD-Java:        Yes
BDInfo:         0.5.6

PLAYLIST REPORT:

Name:                   00688.MPLS
Length:                 0:15:37 (h:m:s)
Size:                   3 752 712 192 bytes
Total Bitrate:          32,01 Mbps

VIDEO:

Codec                   Bitrate             Description    
-----                   -------             -----------    
MPEG-4 AVC Video        29998 kbps          1080p / 23,976 fps / 16:9 / High Profile 4.1

AUDIO:

Codec                           Language        Bitrate         Description    
-----                           --------        -------         -----------    
Dolby Digital Audio             English         192 kbps        2.0 / 48 kHz / 192 kbps / DN -4dB

SUBTITLES:

Codec                           Language        Bitrate         Description    
-----                           --------        -------         -----------    
Presentation Graphics           English         66,929 kbps                    
Presentation Graphics           Chinese         48,941 kbps                    
Presentation Graphics           Greek           60,686 kbps                    
Presentation Graphics           Korean          49,555 kbps                    
Presentation Graphics           Romanian        64,993 kbps                    
Presentation Graphics           Thai            65,248 kbps                    

FILES:

Name            Time In         Length          Size            Total Bitrate  
----            -------         ------          ----            -------------  
00264.M2TS      0:00:00.000     0:15:37.978     3 752 712 192   32 007         

CHAPTERS:

Number          Time In         Length          Avg Video Rate  Max 1-Sec Rate  Max 1-Sec Time  Max 5-Sec Rate  Max 5-Sec Time  Max 10Sec Rate  Max 10Sec Time  Avg Frame Size  Max Frame Size  Max Frame Time 
------          -------         ------          --------------  --------------  --------------  --------------  --------------  --------------  --------------  --------------  --------------  -------------- 
1               0:00:00.000     0:15:37.978     29 998 kbps     41 839 kbps     00:14:27.867    36 761 kbps     00:05:53.936    36 336 kbps     00:08:33.429    156 395 bytes   369 295 bytes   00:14:28.367   

STREAM DIAGNOSTICS:

File            PID             Type            Codec           Language                Seconds                 Bitrate                 Bytes           Packets        
----            ---             ----            -----           --------                --------------          --------------          -------------   -----          
00264.M2TS      4113 (0x1011)   0x1B            AVC                                     937,895                 30 000                  3 517 163 029   19 128 277     
00264.M2TS      4352 (0x1100)   0x81            AC3             eng (English)           937,895                 192                     22 511 616      146 560        
00264.M2TS      4608 (0x1200)   0x90            PGS             eng (English)           937,895                 67                      7 847 243       44 615         
00264.M2TS      4609 (0x1201)   0x90            PGS             tha (Thai)              937,895                 65                      7 650 133       43 584         
00264.M2TS      4610 (0x1202)   0x90            PGS             zho (Chinese)           937,895                 49                      5 738 149       33 211         
00264.M2TS      4611 (0x1203)   0x90            PGS             ell (Greek)             937,895                 61                      7 115 310       40 681         
00264.M2TS      4612 (0x1204)   0x90            PGS             kor (Korean)            937,895                 50                      5 810 182       33 598         
00264.M2TS      4613 (0x1205)   0x90            PGS             ron (Romanian)          937,895                 65                      7 620 281       43 402         

[/code]
<---- END FORUMS PASTE ---->

QUICK SUMMARY:

Disc Title: Obsessed (2009)
Disc Size: 44 726 314 780 bytes
Protection: AACS
BD-Java: Yes
Playlist: 00688.MPLS
Size: 3 752 712 192 bytes
Length: 0:15:37
Total Bitrate: 32,01 Mbps
Video: MPEG-4 AVC Video / 29998 kbps / 1080p / 23,976 fps / 16:9 / High Profile 4.1
Audio: English / Dolby Digital Audio / 2.0 / 48 kHz / 192 kbps / DN -4dB
Subtitle: English / 66,929 kbps
Subtitle: Chinese / 48,941 kbps
Subtitle: Greek / 60,686 kbps
Subtitle: Korean / 49,555 kbps
Subtitle: Romanian / 64,993 kbps
Subtitle: Thai / 65,248 kbps


********************
PLAYLIST: 00756.MPLS
********************

<--- BEGIN FORUMS PASTE --->
[code]
                                                                                                                Total   Video                                            
Title                                                           Codec   Length  Movie Size      Disc Size       Bitrate Bitrate Main Audio Track                          Secondary Audio Track
-----                                                           ------  ------- --------------  --------------  ------- ------- ------------------                        ---------------------
00756.MPLS                                                      AVC     0:11:13 2 693 320 704   44 726 314 780  31,97   29,99   DD AC3 2.0 192Kbps                       
[/code]

[code]

DISC INFO:

Disc Title:     Obsessed (2009)
Disc Size:      44 726 314 780 bytes
Protection:     AACS
BD-Java:        Yes
BDInfo:         0.5.6

PLAYLIST REPORT:

Name:                   00756.MPLS
Length:                 0:11:13 (h:m:s)
Size:                   2 693 320 704 bytes
Total Bitrate:          31,97 Mbps

VIDEO:

Codec                   Bitrate             Description    
-----                   -------             -----------    
MPEG-4 AVC Video        29990 kbps          1080p / 23,976 fps / 16:9 / High Profile 4.1

AUDIO:

Codec                           Language        Bitrate         Description    
-----                           --------        -------         -----------    
Dolby Digital Audio             English         192 kbps        2.0 / 48 kHz / 192 kbps / DN -4dB

SUBTITLES:

Codec                           Language        Bitrate         Description    
-----                           --------        -------         -----------    
Presentation Graphics           English         66,551 kbps                    
Presentation Graphics           Chinese         44,823 kbps                    
Presentation Graphics           Greek           54,601 kbps                    
Presentation Graphics           Korean          44,637 kbps                    
Presentation Graphics           Romanian        58,383 kbps                    
Presentation Graphics           Thai            62,688 kbps                    

FILES:

Name            Time In         Length          Size            Total Bitrate  
----            -------         ------          ----            -------------  
00278.M2TS      0:00:00.000     0:11:13.923     2 693 320 704   31 972         

CHAPTERS:

Number          Time In         Length          Avg Video Rate  Max 1-Sec Rate  Max 1-Sec Time  Max 5-Sec Rate  Max 5-Sec Time  Max 10Sec Rate  Max 10Sec Time  Avg Frame Size  Max Frame Size  Max Frame Time 
------          -------         ------          --------------  --------------  --------------  --------------  --------------  --------------  --------------  --------------  --------------  -------------- 
1               0:00:00.000     0:11:13.923     29 990 kbps     40 461 kbps     00:04:04.035    36 481 kbps     00:03:01.306    36 347 kbps     00:04:23.221    156 355 bytes   340 471 bytes   00:01:17.869   

STREAM DIAGNOSTICS:

File            PID             Type            Codec           Language                Seconds                 Bitrate                 Bytes           Packets        
----            ---             ----            -----           --------                --------------          --------------          -------------   -----          
00278.M2TS      4113 (0x1011)   0x1B            AVC                                     673,756                 29 998                  2 526 387 976   13 739 877     
00278.M2TS      4352 (0x1100)   0x81            AC3             eng (English)           673,756                 192                     16 174 848      105 305        
00278.M2TS      4608 (0x1200)   0x90            PGS             eng (English)           673,756                 67                      5 606 257       31 805         
00278.M2TS      4609 (0x1201)   0x90            PGS             tha (Thai)              673,756                 63                      5 280 825       30 055         
00278.M2TS      4610 (0x1202)   0x90            PGS             zho (Chinese)           673,756                 45                      3 775 902       21 871         
00278.M2TS      4611 (0x1203)   0x90            PGS             ell (Greek)             673,756                 55                      4 599 606       26 345         
00278.M2TS      4612 (0x1204)   0x90            PGS             kor (Korean)            673,756                 45                      3 760 235       21 787         
00278.M2TS      4613 (0x1205)   0x90            PGS             ron (Romanian)          673,756                 58                      4 918 175       28 068         

[/code]
<---- END FORUMS PASTE ---->

QUICK SUMMARY:

Disc Title: Obsessed (2009)
Disc Size: 44 726 314 780 bytes
Protection: AACS
BD-Java: Yes
Playlist: 00756.MPLS
Size: 2 693 320 704 bytes
Length: 0:11:13
Total Bitrate: 31,97 Mbps
Video: MPEG-4 AVC Video / 29990 kbps / 1080p / 23,976 fps / 16:9 / High Profile 4.1
Audio: English / Dolby Digital Audio / 2.0 / 48 kHz / 192 kbps / DN -4dB
Subtitle: English / 66,551 kbps
Subtitle: Chinese / 44,823 kbps
Subtitle: Greek / 54,601 kbps
Subtitle: Korean / 44,637 kbps
Subtitle: Romanian / 58,383 kbps
Subtitle: Thai / 62,688 kbps


********************
PLAYLIST: 00757.MPLS
********************

<--- BEGIN FORUMS PASTE --->
[code]
                                                                                                                Total   Video                                            
Title                                                           Codec   Length  Movie Size      Disc Size       Bitrate Bitrate Main Audio Track                          Secondary Audio Track
-----                                                           ------  ------- --------------  --------------  ------- ------- ------------------                        ---------------------
00757.MPLS                                                      AVC     0:09:30 2 283 958 272   44 726 314 780  32,02   30,00   DD AC3 2.0 192Kbps                       
[/code]

[code]

DISC INFO:

Disc Title:     Obsessed (2009)
Disc Size:      44 726 314 780 bytes
Protection:     AACS
BD-Java:        Yes
BDInfo:         0.5.6

PLAYLIST REPORT:

Name:                   00757.MPLS
Length:                 0:09:30 (h:m:s)
Size:                   2 283 958 272 bytes
Total Bitrate:          32,02 Mbps

VIDEO:

Codec                   Bitrate             Description    
-----                   -------             -----------    
MPEG-4 AVC Video        30000 kbps          1080p / 23,976 fps / 16:9 / High Profile 4.1

AUDIO:

Codec                           Language        Bitrate         Description    
-----                           --------        -------         -----------    
Dolby Digital Audio             English         192 kbps        2.0 / 48 kHz / 192 kbps / DN -4dB

SUBTITLES:

Codec                           Language        Bitrate         Description    
-----                           --------        -------         -----------    
Presentation Graphics           English         68,094 kbps                    
Presentation Graphics           Chinese         50,689 kbps                    
Presentation Graphics           Greek           62,008 kbps                    
Presentation Graphics           Korean          52,046 kbps                    
Presentation Graphics           Romanian        67,289 kbps                    
Presentation Graphics           Thai            67,136 kbps                    

FILES:

Name            Time In         Length          Size            Total Bitrate  
----            -------         ------          ----            -------------  
00279.M2TS      0:00:00.000     0:09:30.611     2 283 958 272   32 021         

CHAPTERS:

Number          Time In         Length          Avg Video Rate  Max 1-Sec Rate  Max 1-Sec Time  Max 5-Sec Rate  Max 5-Sec Time  Max 10Sec Rate  Max 10Sec Time  Avg Frame Size  Max Frame Size  Max Frame Time 
------          -------         ------          --------------  --------------  --------------  --------------  --------------  --------------  --------------  --------------  --------------  -------------- 
1               0:00:00.000     0:09:30.611     30 000 kbps     41 821 kbps     00:04:19.175    37 225 kbps     00:04:15.171    36 734 kbps     00:04:10.166    156 408 bytes   408 855 bytes   00:00:20.895   

STREAM DIAGNOSTICS:

File            PID             Type            Codec           Language                Seconds                 Bitrate                 Bytes           Packets        
----            ---             ----            -----           --------                --------------          --------------          -------------   -----          
00279.M2TS      4113 (0x1011)   0x1B            AVC                                     570,528                 30 005                  2 139 815 762   11 637 472     
00279.M2TS      4352 (0x1100)   0x81            AC3             eng (English)           570,528                 192                     13 694 976      89 160         
00279.M2TS      4608 (0x1200)   0x90            PGS             eng (English)           570,528                 68                      4 856 920       27 622         
00279.M2TS      4609 (0x1201)   0x90            PGS             tha (Thai)              570,528                 67                      4 788 581       27 284         
00279.M2TS      4610 (0x1202)   0x90            PGS             zho (Chinese)           570,528                 51                      3 615 452       20 910         
00279.M2TS      4611 (0x1203)   0x90            PGS             ell (Greek)             570,528                 62                      4 422 833       25 282         
00279.M2TS      4612 (0x1204)   0x90            PGS             kor (Korean)            570,528                 52                      3 712 227       21 436         
00279.M2TS      4613 (0x1205)   0x90            PGS             ron (Romanian)          570,528                 67                      4 799 492       27 311         

[/code]
<---- END FORUMS PASTE ---->

QUICK SUMMARY:

Disc Title: Obsessed (2009)
Disc Size: 44 726 314 780 bytes
Protection: AACS
BD-Java: Yes
Playlist: 00757.MPLS
Size: 2 283 958 272 bytes
Length: 0:09:30
Total Bitrate: 32,02 Mbps
Video: MPEG-4 AVC Video / 30000 kbps / 1080p / 23,976 fps / 16:9 / High Profile 4.1
Audio: English / Dolby Digital Audio / 2.0 / 48 kHz / 192 kbps / DN -4dB
Subtitle: English / 68,094 kbps
Subtitle: Chinese / 50,689 kbps
Subtitle: Greek / 62,008 kbps
Subtitle: Korean / 52,046 kbps
Subtitle: Romanian / 67,289 kbps
Subtitle: Thai / 67,136 kbps


********************
PLAYLIST: 00750.MPLS
********************

<--- BEGIN FORUMS PASTE --->
[code]
                                                                                                                Total   Video                                            
Title                                                           Codec   Length  Movie Size      Disc Size       Bitrate Bitrate Main Audio Track                          Secondary Audio Track
-----                                                           ------  ------- --------------  --------------  ------- ------- ------------------                        ---------------------
00750.MPLS                                                      AVC     0:02:29 365 058 048     44 726 314 780  19,58   18,00   DD AC3 5.1 640Kbps                       
[/code]

[code]

DISC INFO:

Disc Title:     Obsessed (2009)
Disc Size:      44 726 314 780 bytes
Protection:     AACS
BD-Java:        Yes
BDInfo:         0.5.6

PLAYLIST REPORT:

Name:                   00750.MPLS
Length:                 0:02:29 (h:m:s)
Size:                   365 058 048 bytes
Total Bitrate:          19,58 Mbps

VIDEO:

Codec                   Bitrate             Description    
-----                   -------             -----------    
MPEG-4 AVC Video        17998 kbps          1080p / 23,976 fps / 16:9 / High Profile 4.1

AUDIO:

Codec                           Language        Bitrate         Description    
-----                           --------        -------         -----------    
Dolby Digital Audio             English         640 kbps        5.1 / 48 kHz / 640 kbps / DN -4dB

FILES:

Name            Time In         Length          Size            Total Bitrate  
----            -------         ------          ----            -------------  
00275.M2TS      0:00:00.000     0:02:29.190     365 058 048     19 575         

CHAPTERS:

Number          Time In         Length          Avg Video Rate  Max 1-Sec Rate  Max 1-Sec Time  Max 5-Sec Rate  Max 5-Sec Time  Max 10Sec Rate  Max 10Sec Time  Avg Frame Size  Max Frame Size  Max Frame Time 
------          -------         ------          --------------  --------------  --------------  --------------  --------------  --------------  --------------  --------------  --------------  -------------- 
1               0:00:00.000     0:02:29.190     17 998 kbps     36 691 kbps     00:00:21.521    29 213 kbps     00:00:20.979    25 599 kbps     00:00:20.437    93 835 bytes    342 805 bytes   00:00:22.522   

STREAM DIAGNOSTICS:

File            PID             Type            Codec           Language                Seconds                 Bitrate                 Bytes           Packets        
----            ---             ----            -----           --------                --------------          --------------          -------------   -----          
00275.M2TS      4113 (0x1011)   0x1B            AVC                                     149,024                 18 019                  335 649 333     1 826 349      
00275.M2TS      4352 (0x1100)   0x81            AC3             eng (English)           149,024                 641                     11 937 280      69 945         

[/code]
<---- END FORUMS PASTE ---->

QUICK SUMMARY:

Disc Title: Obsessed (2009)
Disc Size: 44 726 314 780 bytes
Protection: AACS
BD-Java: Yes
Playlist: 00750.MPLS
Size: 365 058 048 bytes
Length: 0:02:29
Total Bitrate: 19,58 Mbps
Video: MPEG-4 AVC Video / 17998 kbps / 1080p / 23,976 fps / 16:9 / High Profile 4.1
Audio: English / Dolby Digital Audio / 5.1 / 48 kHz / 640 kbps / DN -4dB


********************
PLAYLIST: 00702.MPLS
********************

<--- BEGIN FORUMS PASTE --->
[code]
                                                                                                                Total   Video                                            
Title                                                           Codec   Length  Movie Size      Disc Size       Bitrate Bitrate Main Audio Track                          Secondary Audio Track
-----                                                           ------  ------- --------------  --------------  ------- ------- ------------------                        ---------------------
00702.MPLS                                                      MPEG-2  0:02:28 354 859 008     44 726 314 780  19,16   17,60   DD AC3 5.1 640Kbps                       
[/code]

[code]

DISC INFO:

Disc Title:     Obsessed (2009)
Disc Size:      44 726 314 780 bytes
Protection:     AACS
BD-Java:        Yes
BDInfo:         0.5.6

PLAYLIST REPORT:

Name:                   00702.MPLS
Length:                 0:02:28 (h:m:s)
Size:                   354 859 008 bytes
Total Bitrate:          19,16 Mbps

VIDEO:

Codec                   Bitrate             Description    
-----                   -------             -----------    
MPEG-2 Video            17604 kbps          1080p / 23,976 fps / 16:9

AUDIO:

Codec                           Language        Bitrate         Description    
-----                           --------        -------         -----------    
Dolby Digital Audio             English         640 kbps        5.1 / 48 kHz / 640 kbps / DN -4dB

FILES:

Name            Time In         Length          Size            Total Bitrate  
----            -------         ------          ----            -------------  
00263.M2TS      0:00:00.000     0:02:28.148     354 859 008     19 162         

CHAPTERS:

Number          Time In         Length          Avg Video Rate  Max 1-Sec Rate  Max 1-Sec Time  Max 5-Sec Rate  Max 5-Sec Time  Max 10Sec Rate  Max 10Sec Time  Avg Frame Size  Max Frame Size  Max Frame Time 
------          -------         ------          --------------  --------------  --------------  --------------  --------------  --------------  --------------  --------------  --------------  -------------- 
1               0:00:00.000     0:02:28.148     17 604 kbps     35 803 kbps     00:01:49.984    24 925 kbps     00:01:46.606    23 532 kbps     00:01:47.357    91 778 bytes    608 782 bytes   00:01:46.648   

STREAM DIAGNOSTICS:

File            PID             Type            Codec           Language                Seconds                 Bitrate                 Bytes           Packets        
----            ---             ----            -----           --------                --------------          --------------          -------------   -----          
00263.M2TS      4113 (0x1011)   0x02            MPEG-2                                  148,023                 17 619                  325 996 437     1 773 776      
00263.M2TS      4352 (0x1100)   0x81            AC3             eng (English)           148,023                 641                     11 852 800      69 450         

[/code]
<---- END FORUMS PASTE ---->

QUICK SUMMARY:

Disc Title: Obsessed (2009)
Disc Size: 44 726 314 780 bytes
Protection: AACS
BD-Java: Yes
Playlist: 00702.MPLS
Size: 354 859 008 bytes
Length: 0:02:28
Total Bitrate: 19,16 Mbps
Video: MPEG-2 Video / 17604 kbps / 1080p / 23,976 fps / 16:9
Audio: English / Dolby Digital Audio / 5.1 / 48 kHz / 640 kbps / DN -4dB


********************
PLAYLIST: 00755.MPLS
********************

<--- BEGIN FORUMS PASTE --->
[code]
                                                                                                                Total   Video                                            
Title                                                           Codec   Length  Movie Size      Disc Size       Bitrate Bitrate Main Audio Track                          Secondary Audio Track
-----                                                           ------  ------- --------------  --------------  ------- ------- ------------------                        ---------------------
00755.MPLS                                                      AVC     0:02:15 331 278 336     44 726 314 780  19,61   18,03   DD AC3 5.1 640Kbps                       
[/code]

[code]

DISC INFO:

Disc Title:     Obsessed (2009)
Disc Size:      44 726 314 780 bytes
Protection:     AACS
BD-Java:        Yes
BDInfo:         0.5.6

PLAYLIST REPORT:

Name:                   00755.MPLS
Length:                 0:02:15 (h:m:s)
Size:                   331 278 336 bytes
Total Bitrate:          19,61 Mbps

VIDEO:

Codec                   Bitrate             Description    
-----                   -------             -----------    
MPEG-4 AVC Video        18028 kbps          1080p / 23,976 fps / 16:9 / High Profile 4.1

AUDIO:

Codec                           Language        Bitrate         Description    
-----                           --------        -------         -----------    
Dolby Digital Audio             English         640 kbps        5.1 / 48 kHz / 640 kbps / DN -4dB

FILES:

Name            Time In         Length          Size            Total Bitrate  
----            -------         ------          ----            -------------  
00274.M2TS      0:00:00.000     0:02:15.176     331 278 336     19 606         

CHAPTERS:

Number          Time In         Length          Avg Video Rate  Max 1-Sec Rate  Max 1-Sec Time  Max 5-Sec Rate  Max 5-Sec Time  Max 10Sec Rate  Max 10Sec Time  Avg Frame Size  Max Frame Size  Max Frame Time 
------          -------         ------          --------------  --------------  --------------  --------------  --------------  --------------  --------------  --------------  --------------  -------------- 
1               0:00:00.000     0:02:15.176     18 028 kbps     36 387 kbps     00:01:11.237    33 939 kbps     00:00:57.098    29 614 kbps     00:00:52.552    93 988 bytes    514 819 bytes   00:00:22.814   

STREAM DIAGNOSTICS:

File            PID             Type            Codec           Language                Seconds                 Bitrate                 Bytes           Packets        
----            ---             ----            -----           --------                --------------          --------------          -------------   -----          
00274.M2TS      4113 (0x1011)   0x1B            AVC                                     135,010                 18 050                  304 614 511     1 657 478      
00274.M2TS      4352 (0x1100)   0x81            AC3             eng (English)           135,010                 641                     10 816 000      63 375         

[/code]
<---- END FORUMS PASTE ---->

QUICK SUMMARY:

Disc Title: Obsessed (2009)
Disc Size: 44 726 314 780 bytes
Protection: AACS
BD-Java: Yes
Playlist: 00755.MPLS
Size: 331 278 336 bytes
Length: 0:02:15
Total Bitrate: 19,61 Mbps
Video: MPEG-4 AVC Video / 18028 kbps / 1080p / 23,976 fps / 16:9 / High Profile 4.1
Audio: English / Dolby Digital Audio / 5.1 / 48 kHz / 640 kbps / DN -4dB


********************
PLAYLIST: 00754.MPLS
********************

<--- BEGIN FORUMS PASTE --->
[code]
                                                                                                                Total   Video                                            
Title                                                           Codec   Length  Movie Size      Disc Size       Bitrate Bitrate Main Audio Track                          Secondary Audio Track
-----                                                           ------  ------- --------------  --------------  ------- ------- ------------------                        ---------------------
00754.MPLS                                                      MPEG-2  0:02:10 297 842 688     44 726 314 780  18,31   16,79   DD AC3 5.1 640Kbps                       
[/code]

[code]

DISC INFO:

Disc Title:     Obsessed (2009)
Disc Size:      44 726 314 780 bytes
Protection:     AACS
BD-Java:        Yes
BDInfo:         0.5.6

PLAYLIST REPORT:

Name:                   00754.MPLS
Length:                 0:02:10 (h:m:s)
Size:                   297 842 688 bytes
Total Bitrate:          18,31 Mbps

VIDEO:

Codec                   Bitrate             Description    
-----                   -------             -----------    
MPEG-2 Video            16787 kbps          1080p / 23,976 fps / 16:9

AUDIO:

Codec                           Language        Bitrate         Description    
-----                           --------        -------         -----------    
Dolby Digital Audio             English         640 kbps        5.1 / 48 kHz / 640 kbps / DN -4dB

FILES:

Name            Time In         Length          Size            Total Bitrate  
----            -------         ------          ----            -------------  
00277.M2TS      0:00:00.000     0:02:10.130     297 842 688     18 310         

CHAPTERS:

Number          Time In         Length          Avg Video Rate  Max 1-Sec Rate  Max 1-Sec Time  Max 5-Sec Rate  Max 5-Sec Time  Max 10Sec Rate  Max 10Sec Time  Avg Frame Size  Max Frame Size  Max Frame Time 
------          -------         ------          --------------  --------------  --------------  --------------  --------------  --------------  --------------  --------------  --------------  -------------- 
1               0:00:00.000     0:02:10.130     16 787 kbps     33 740 kbps     00:00:24.399    23 506 kbps     00:01:52.862    20 486 kbps     00:01:51.986    87 521 bytes    689 369 bytes   00:00:27.819   

STREAM DIAGNOSTICS:

File            PID             Type            Codec           Language                Seconds                 Bitrate                 Bytes           Packets        
----            ---             ----            -----           --------                --------------          --------------          -------------   -----          
00277.M2TS      4113 (0x1011)   0x02            MPEG-2                                  130,005                 16 803                  273 065 746     1 485 859      
00277.M2TS      4352 (0x1100)   0x81            AC3             eng (English)           130,005                 641                     10 411 520      61 005         

[/code]
<---- END FORUMS PASTE ---->

QUICK SUMMARY:

Disc Title: Obsessed (2009)
Disc Size: 44 726 314 780 bytes
Protection: AACS
BD-Java: Yes
Playlist: 00754.MPLS
Size: 297 842 688 bytes
Length: 0:02:10
Total Bitrate: 18,31 Mbps
Video: MPEG-2 Video / 16787 kbps / 1080p / 23,976 fps / 16:9
Audio: English / Dolby Digital Audio / 5.1 / 48 kHz / 640 kbps / DN -4dB


********************
PLAYLIST: 00748.MPLS
********************

<--- BEGIN FORUMS PASTE --->
[code]
                                                                                                                Total   Video                                            
Title                                                           Codec   Length  Movie Size      Disc Size       Bitrate Bitrate Main Audio Track                          Secondary Audio Track
-----                                                           ------  ------- --------------  --------------  ------- ------- ------------------                        ---------------------
00748.MPLS                                                      AVC     0:02:09 316 385 280     44 726 314 780  19,59   18,02   DD AC3 5.1 640Kbps                       
[/code]

[code]

DISC INFO:

Disc Title:     Obsessed (2009)
Disc Size:      44 726 314 780 bytes
Protection:     AACS
BD-Java:        Yes
BDInfo:         0.5.6

PLAYLIST REPORT:

Name:                   00748.MPLS
Length:                 0:02:09 (h:m:s)
Size:                   316 385 280 bytes
Total Bitrate:          19,59 Mbps

VIDEO:

Codec                   Bitrate             Description    
-----                   -------             -----------    
MPEG-4 AVC Video        18017 kbps          1080p / 23,976 fps / 16:9 / High Profile 4.1

AUDIO:

Codec                           Language        Bitrate         Description    
-----                           --------        -------         -----------    
Dolby Digital Audio             English         640 kbps        5.1 / 48 kHz / 640 kbps / DN -4dB

FILES:

Name            Time In         Length          Size            Total Bitrate  
----            -------         ------          ----            -------------  
00276.M2TS      0:00:00.000     0:02:09.170     316 385 280     19 595         

CHAPTERS:

Number          Time In         Length          Avg Video Rate  Max 1-Sec Rate  Max 1-Sec Time  Max 5-Sec Rate  Max 5-Sec Time  Max 10Sec Rate  Max 10Sec Time  Avg Frame Size  Max Frame Size  Max Frame Time 
------          -------         ------          --------------  --------------  --------------  --------------  --------------  --------------  --------------  --------------  --------------  -------------- 
1               0:00:00.000     0:02:09.170     18 017 kbps     36 488 kbps     00:00:44.461    29 542 kbps     00:00:48.673    27 497 kbps     00:01:41.059    93 932 bytes    442 683 bytes   00:00:58.224   

STREAM DIAGNOSTICS:

File            PID             Type            Codec           Language                Seconds                 Bitrate                 Bytes           Packets        
----            ---             ----            -----           --------                --------------          --------------          -------------   -----          
00276.M2TS      4113 (0x1011)   0x1B            AVC                                     129,004                 18 040                  290 905 889     1 582 914      
00276.M2TS      4352 (0x1100)   0x81            AC3             eng (English)           129,004                 641                     10 334 720      60 555         

[/code]
<---- END FORUMS PASTE ---->

QUICK SUMMARY:

Disc Title: Obsessed (2009)
Disc Size: 44 726 314 780 bytes
Protection: AACS
BD-Java: Yes
Playlist: 00748.MPLS
Size: 316 385 280 bytes
Length: 0:02:09
Total Bitrate: 19,59 Mbps
Video: MPEG-4 AVC Video / 18017 kbps / 1080p / 23,976 fps / 16:9 / High Profile 4.1
Audio: English / Dolby Digital Audio / 5.1 / 48 kHz / 640 kbps / DN -4dB


********************
PLAYLIST: 00002.MPLS
********************

<--- BEGIN FORUMS PASTE --->
[code]
                                                                                                                Total   Video                                            
Title                                                           Codec   Length  Movie Size      Disc Size       Bitrate Bitrate Main Audio Track                          Secondary Audio Track
-----                                                           ------  ------- --------------  --------------  ------- ------- ------------------                        ---------------------
00002.MPLS                                                      MPEG-2  0:01:00 118 216 704     44 726 314 780  15,75   15,01                                            
[/code]

[code]

DISC INFO:

Disc Title:     Obsessed (2009)
Disc Size:      44 726 314 780 bytes
Protection:     AACS
BD-Java:        Yes
BDInfo:         0.5.6

PLAYLIST REPORT:

Name:                   00002.MPLS
Length:                 0:01:00 (h:m:s)
Size:                   118 216 704 bytes
Total Bitrate:          15,75 Mbps

VIDEO:

Codec                   Bitrate             Description    
-----                   -------             -----------    
MPEG-2 Video            15013 kbps          1080p / 23,976 fps / 16:9

FILES:

Name            Time In         Length          Size            Total Bitrate  
----            -------         ------          ----            -------------  
00260.M2TS      0:00:00.000     0:01:00.059     118 216 704     15 746         

CHAPTERS:

Number          Time In         Length          Avg Video Rate  Max 1-Sec Rate  Max 1-Sec Time  Max 5-Sec Rate  Max 5-Sec Time  Max 10Sec Rate  Max 10Sec Time  Avg Frame Size  Max Frame Size  Max Frame Time 
------          -------         ------          --------------  --------------  --------------  --------------  --------------  --------------  --------------  --------------  --------------  -------------- 
1               0:00:00.000     0:00:15.014     15 272 kbps     19 624 kbps     00:00:13.930    15 925 kbps     00:00:09.926    15 462 kbps     00:00:04.921    79 401 bytes    663 627 bytes   00:00:14.931   
2               0:00:15.014     0:00:15.014     14 775 kbps     15 185 kbps     00:00:16.433    15 033 kbps     00:00:16.433    15 017 kbps     00:00:16.433    77 031 bytes    674 417 bytes   00:00:15.432   
3               0:00:30.029     0:00:15.014     15 005 kbps     15 922 kbps     00:00:43.960    15 184 kbps     00:00:39.956    15 092 kbps     00:00:34.951    78 232 bytes    253 660 bytes   00:00:44.961   
4               0:00:45.044     0:00:15.014     15 001 kbps     15 033 kbps     00:00:45.045    15 007 kbps     00:00:45.044    15 003 kbps     00:00:45.044    78 424 bytes    253 660 bytes   00:00:45.462   

STREAM DIAGNOSTICS:

File            PID             Type            Codec           Language                Seconds                 Bitrate                 Bytes           Packets        
----            ---             ----            -----           --------                --------------          --------------          -------------   -----          
00260.M2TS      4113 (0x1011)   0x02            MPEG-2                                  59,935                  15 045                  112 712 665     613 678        

[/code]
<---- END FORUMS PASTE ---->

QUICK SUMMARY:

Disc Title: Obsessed (2009)
Disc Size: 44 726 314 780 bytes
Protection: AACS
BD-Java: Yes
Playlist: 00002.MPLS
Size: 118 216 704 bytes
Length: 0:01:00
Total Bitrate: 15,75 Mbps
Video: MPEG-2 Video / 15013 kbps / 1080p / 23,976 fps / 16:9


********************
PLAYLIST: 00749.MPLS
********************

<--- BEGIN FORUMS PASTE --->
[code]
                                                                                                                Total   Video                                            
Title                                                           Codec   Length  Movie Size      Disc Size       Bitrate Bitrate Main Audio Track                          Secondary Audio Track
-----                                                           ------  ------- --------------  --------------  ------- ------- ------------------                        ---------------------
00749.MPLS                                                      AVC     0:00:55 120 754 176     44 726 314 780  17,53   16,04   DD AC3 5.1 640Kbps                       
[/code]

[code]

DISC INFO:

Disc Title:     Obsessed (2009)
Disc Size:      44 726 314 780 bytes
Protection:     AACS
BD-Java:        Yes
BDInfo:         0.5.6

PLAYLIST REPORT:

Name:                   00749.MPLS
Length:                 0:00:55 (h:m:s)
Size:                   120 754 176 bytes
Total Bitrate:          17,53 Mbps

VIDEO:

Codec                   Bitrate             Description    
-----                   -------             -----------    
MPEG-4 AVC Video        16039 kbps          1080p / 23,976 fps / 16:9 / High Profile 4.1

AUDIO:

Codec                           Language        Bitrate         Description    
-----                           --------        -------         -----------    
Dolby Digital Audio             English         640 kbps        5.1 / 48 kHz / 640 kbps / DN -4dB

FILES:

Name            Time In         Length          Size            Total Bitrate  
----            -------         ------          ----            -------------  
00280.M2TS      0:00:00.000     0:00:55.096     120 754 176     17 533         

CHAPTERS:

Number          Time In         Length          Avg Video Rate  Max 1-Sec Rate  Max 1-Sec Time  Max 5-Sec Rate  Max 5-Sec Time  Max 10Sec Rate  Max 10Sec Time  Avg Frame Size  Max Frame Size  Max Frame Time 
------          -------         ------          --------------  --------------  --------------  --------------  --------------  --------------  --------------  --------------  --------------  -------------- 
1               0:00:00.000     0:00:55.096     16 039 kbps     44 999 kbps     00:00:21.855    29 758 kbps     00:00:09.592    27 441 kbps     00:00:08.591    83 622 bytes    849 910 bytes   00:00:32.699   

STREAM DIAGNOSTICS:

File            PID             Type            Codec           Language                Seconds                 Bitrate                 Bytes           Packets        
----            ---             ----            -----           --------                --------------          --------------          -------------   -----          
00280.M2TS      4113 (0x1011)   0x1B            AVC                                     54,930                  16 088                  110 464 867     601 227        
00280.M2TS      4352 (0x1100)   0x81            AC3             eng (English)           54,930                  642                     4 408 320       25 830         

[/code]
<---- END FORUMS PASTE ---->

QUICK SUMMARY:

Disc Title: Obsessed (2009)
Disc Size: 44 726 314 780 bytes
Protection: AACS
BD-Java: Yes
Playlist: 00749.MPLS
Size: 120 754 176 bytes
Length: 0:00:55
Total Bitrate: 17,53 Mbps
Video: MPEG-4 AVC Video / 16039 kbps / 1080p / 23,976 fps / 16:9 / High Profile 4.1
Audio: English / Dolby Digital Audio / 5.1 / 48 kHz / 640 kbps / DN -4dB