CopyPastehas never been so tasty!

Real.Steel.2011.BDRip.720p.x264

by jasses

  • 0
  • 0
  • 0
174 views

Общее

Уникальный идентификатор : 187520242134807222753051709003505325385 (0x8D1315BF52D9E894A327F27F7483D549)
Полное имя : Real.Steel.2011.BDRip.720p.x264-jasses.mkv
Формат : Matroska
Версия формата : Version 2
Размер файла : 7,67 Гбайт
Продолжительность : 2 ч. 6 м.
Общий поток : 8661 Кбит/сек
Название фильма : = HDTracker.org = jasses =
Дата кодирования : UTC 2012-02-28 20:50:17
Программа кодирования : mkvmerge v4.9.1 ('Ich will') сборка от Jul 11 2011 23:53:15
Библиотека кодирования : libebml v1.2.1 + libmatroska v1.1.1

 

Видео

Идентификатор : 1
Формат : AVC
Формат/Информация : Advanced Video Codec
Профиль формата : High@L4.1
Параметр CABAC формата : Да
Параметр ReFrames формата : 9 кадров
Идентификатор кодека : V_MPEG4/ISO/AVC
Продолжительность : 2 ч. 6 м.
Битрейт : 5000 Кбит/сек
Ширина : 1280 пикселей
Высота : 544 пикселя
Соотношение сторон : 2,35:1
Частота кадров : 23,976 кадра/сек
Цветовое пространство : YUV
Субдискретизация насыщенности : 4:2:0
Битовая глубина : 8 бит
Тип развёртки : Прогрессивная
Бит/(Пиксели*Кадры) : 0.299
Размер потока : 4,28 Гбайт (56%)
Библиотека кодирования : x264 core 116 r2074 2641b9e
Настройки программы : cabac=1 / ref=9 / deblock=1:-3:-3 / analyse=0x3:0x113 / me=tesa / subme=11 / psy=1 / psy_rd=1.00:0.10 / mixed_ref=1 / me_range=32 / chroma_me=1 / trellis=2 / 8x8dct=1 / cqm=0 / deadzone=21,11 / fast_pskip=0 / chroma_qp_offset=-3 / threads=12 / sliced_threads=0 / nr=0 / decimate=1 / interlaced=0 / bluray_compat=0 / constrained_intra=0 / bframes=8 / b_pyramid=2 / b_adapt=2 / b_bias=0 / direct=3 / weightb=1 / open_gop=0 / weightp=2 / keyint=250 / keyint_min=24 / scenecut=40 / intra_refresh=0 / rc_lookahead=60 / rc=2pass / mbtree=1 / bitrate=5000 / ratetol=1.0 / qcomp=0.70 / qpmin=0 / qpmax=69 / qpstep=4 / cplxblur=20.0 / qblur=0.5 / vbv_maxrate=50000 / vbv_bufsize=50000 / nal_hrd=none / ip_ratio=1.40 / aq=1:1.00
Язык : English

 

Аудио #1

Идентификатор : 2
Формат : AC-3
Формат/Информация : Audio Coding 3
Расширение режима : CM (complete main)
Идентификатор кодека : A_AC3
Продолжительность : 2 ч. 6 м.
Вид битрейта : Постоянный
Битрейт : 640 Кбит/сек
Каналы : 6 каналов
Расположение каналов : Front: L C R, Side: L R, LFE
Частота : 48,0 КГц
Битовая глубина : 16 бит
Метод сжатия : С потерями
Размер потока : 581 Мбайт (7%)
Заголовок : AC3 5.1 640 kbps DUB, Blu-ray
Язык : Russian

 

Аудио #2

Идентификатор : 3
Формат : DTS
Формат/Информация : Digital Theater Systems
Идентификатор кодека : A_DTS
Продолжительность : 2 ч. 6 м.
Вид битрейта : Постоянный
Битрейт : 1510 Кбит/сек
Каналы : 6 каналов
Расположение каналов : Front: L C R, Side: L R, LFE
Частота : 48,0 КГц
Битовая глубина : 24 бит
Метод сжатия : С потерями
Размер потока : 1,34 Гбайт (17%)
Заголовок : DTS - Сербин
Язык : Russian

 

Аудио #3

Идентификатор : 4
Формат : DTS
Формат/Информация : Digital Theater Systems
Идентификатор кодека : A_DTS
Продолжительность : 2 ч. 6 м.
Вид битрейта : Постоянный
Битрейт : 1510 Кбит/сек
Каналы : 6 каналов
Расположение каналов : Front: L C R, Side: L R, LFE
Частота : 48,0 КГц
Битовая глубина : 24 бит
Метод сжатия : С потерями
Размер потока : 1,34 Гбайт (17%)
Язык : English

 

Текст #1

Идентификатор : 5
Формат : UTF-8
Идентификатор кодека : S_TEXT/UTF8
Идентификатор кодека/Информация : UTF-8 Plain Text
Заголовок : Forced
Язык : Russian

 

Текст #2

Идентификатор : 6
Формат : UTF-8
Идентификатор кодека : S_TEXT/UTF8
Идентификатор кодека/Информация : UTF-8 Plain Text
Язык : Russian

 

Текст #3

Идентификатор : 7
Формат : UTF-8
Идентификатор кодека : S_TEXT/UTF8
Идентификатор кодека/Информация : UTF-8 Plain Text
Язык : English

 

Меню

00:00:00.000 : en:00:00:00.000
00:03:00.472 : en:00:03:00.472
00:10:38.304 : en:00:10:38.304
00:18:50.546 : en:00:18:50.546
00:24:29.885 : en:00:24:29.885
00:34:14.761 : en:00:34:14.761
00:41:22.355 : en:00:41:22.355
00:48:46.131 : en:00:48:46.131
00:52:08.709 : en:00:52:08.709
00:57:15.015 : en:00:57:15.015
01:05:01.231 : en:01:05:01.231
01:12:33.974 : en:01:12:33.974
01:18:26.994 : en:01:18:26.994
01:26:28.517 : en:01:26:28.517
01:32:50.773 : en:01:32:50.773
01:39:19.704 : en:01:39:19.704
01:48:22.663 : en:01:48:22.663
01:52:26.865 : en:01:52:26.865
01:57:21.868 : en:01:57:21.868
02:00:50.326 : en:02:00:50.326

 

---------------------------------------------------------------------------

 

x264 [info]: frame I:1690  Avg QP:16.12  size:121709
x264 [info]: frame P:42461 Avg QP:17.09  size: 47974
x264 [info]: frame B:138321 Avg QP:19.10  size: 18173

Add A Comment: