CopyPastehas never been so tasty!

Star.Wars.Episode.VI.1983.BDRip.720p.x264

by jasses

  • 0
  • 0
  • 0
172 views

Общее

Уникальный идентификатор : 181350408516851179218917960422558995168 (0x886ED176CBFEC3F7B200267F108712E0)
Полное имя : Star.Wars.Episode.VI.1983.BDRip.720p.x264-jasses.mkv
Формат : Matroska
Версия формата : Version 2
Размер файла : 11,7 Гбайт
Продолжительность : 2 ч. 14 м.
Общий поток : 12,4 Мбит/сек
Название фильма : = HDTracker.org = jasses =
Дата кодирования : UTC 2012-03-20 15:48:29
Программа кодирования : mkvmerge v4.9.1 ('Ich will') сборка от Jul 11 2011 23:53:15
Библиотека кодирования : libebml v1.2.1 + libmatroska v1.1.1

 

Видео

Идентификатор : 1
Формат : AVC
Формат/Информация : Advanced Video Codec
Профиль формата : High@L4.1
Параметр CABAC формата : Да
Параметр ReFrames формата : 9 кадров
Идентификатор кодека : V_MPEG4/ISO/AVC
Продолжительность : 2 ч. 14 м.
Битрейт : 8600 Кбит/сек
Ширина : 1280 пикселей
Высота : 546 пикселей
Соотношение сторон : 2,35:1
Частота кадров : 23,976 кадра/сек
Цветовое пространство : YUV
Субдискретизация насыщенности : 4:2:0
Битовая глубина : 8 бит
Тип развёртки : Прогрессивная
Бит/(Пиксели*Кадры) : 0.513
Размер потока : 7,88 Гбайт (68%)
Библиотека кодирования : x264 core 116 r2074 2641b9e
Настройки программы : cabac=1 / ref=9 / deblock=1:-2:-1 / analyse=0x3:0x113 / me=tesa / subme=11 / psy=1 / psy_rd=1.00:0.00 / mixed_ref=1 / me_range=32 / chroma_me=1 / trellis=2 / 8x8dct=1 / cqm=0 / deadzone=21,11 / fast_pskip=0 / chroma_qp_offset=-2 / threads=12 / sliced_threads=0 / nr=0 / decimate=1 / interlaced=0 / bluray_compat=0 / constrained_intra=0 / bframes=9 / b_pyramid=2 / b_adapt=2 / b_bias=0 / direct=3 / weightb=1 / open_gop=0 / weightp=2 / keyint=250 / keyint_min=24 / scenecut=40 / intra_refresh=0 / rc_lookahead=60 / rc=2pass / mbtree=1 / bitrate=8600 / ratetol=1.0 / qcomp=0.65 / qpmin=0 / qpmax=69 / qpstep=4 / cplxblur=20.0 / qblur=0.5 / vbv_maxrate=50000 / vbv_bufsize=50000 / nal_hrd=none / ip_ratio=1.40 / aq=1:1.00
Язык : English

 

Аудио #1

Идентификатор : 2
Формат : DTS
Формат/Информация : Digital Theater Systems
Идентификатор кодека : A_DTS
Продолжительность : 2 ч. 14 м.
Вид битрейта : Постоянный
Битрейт : 755 Кбит/сек
Каналы : 6 каналов
Расположение каналов : Front: L C R, Side: L R, LFE
Частота : 48,0 КГц
Битовая глубина : 24 бит
Метод сжатия : С потерями
Размер потока : 727 Мбайт (6%)
Заголовок : DTS 5.1 - Дубляж
Язык : Russian

 

Аудио #2

Идентификатор : 3
Формат : DTS
Формат/Информация : Digital Theater Systems
Профиль формата : ES
Идентификатор кодека : A_DTS
Продолжительность : 2 ч. 14 м.
Вид битрейта : Постоянный
Битрейт : 1510 Кбит/сек
Каналы : 7 каналов / 6 каналов
Расположение каналов : Front: L C R, Side: L R, Back: C, LFE / Front: L C R, Side: L R, LFE
Частота : 48,0 КГц
Битовая глубина : 24 бит
Метод сжатия : С потерями
Размер потока : 1,42 Гбайт (12%)
Заголовок : DTS-ES 6.1 - Tycoon
Язык : Russian

 

Аудио #3

Идентификатор : 4
Формат : DTS
Формат/Информация : Digital Theater Systems
Профиль формата : ES
Идентификатор кодека : A_DTS
Продолжительность : 2 ч. 14 м.
Вид битрейта : Постоянный
Битрейт : 1510 Кбит/сек
Каналы : 7 каналов / 6 каналов
Расположение каналов : Front: L C R, Side: L R, Back: C, LFE / Front: L C R, Side: L R, LFE
Частота : 48,0 КГц
Битовая глубина : 24 бит
Метод сжатия : С потерями
Размер потока : 1,42 Гбайт (12%)
Заголовок : DTS-ES 6.1
Язык : English

 

Текст #1

Идентификатор : 5
Формат : UTF-8
Идентификатор кодека : S_TEXT/UTF8
Идентификатор кодека/Информация : UTF-8 Plain Text
Заголовок : Tycoon
Язык : Russian

 

Текст #2

Идентификатор : 6
Формат : UTF-8
Идентификатор кодека : S_TEXT/UTF8
Идентификатор кодека/Информация : UTF-8 Plain Text
Заголовок : Blu-ray CEE
Язык : Russian

 

Текст #3

Идентификатор : 7
Формат : UTF-8
Идентификатор кодека : S_TEXT/UTF8
Идентификатор кодека/Информация : UTF-8 Plain Text
Заголовок : Forced
Язык : Russian

 

Текст #4

Идентификатор : 8
Формат : UTF-8
Идентификатор кодека : S_TEXT/UTF8
Идентификатор кодека/Информация : UTF-8 Plain Text
Заголовок : Full
Язык : English

 

Текст #5

Идентификатор : 9
Формат : UTF-8
Идентификатор кодека : S_TEXT/UTF8
Идентификатор кодека/Информация : UTF-8 Plain Text
Заголовок : Forced
Язык : English

 

Меню

00:00:00.000 : en:Opening Logos
00:00:21.188 : en:Return of the Jedi
00:01:55.115 : en:Vader's Unexpected Visit
00:04:58.465 : en:Arrival at Jabba's Palace
00:08:10.907 : en:A Message and a Gift
00:12:21.908 : en:The Max Rebo Band
00:14:22.028 : en:The Price for Chewbacca
00:17:36.013 : en:Free From the Carbonite
00:22:10.037 : en:Enter the Jedi
00:25:08.340 : en:"Oh No! The Rancor!"
00:29:37.359 : en:On the Sail Barge
00:31:29.012 : en:The Sarlacc Pit
00:37:44.471 : en:The Emperor Arrives
00:39:32.245 : en:Yoda's Twilight
00:45:17.423 : en:A Certain Point of View
00:48:23.400 : en:Rebel Briefing
00:51:36.010 : en:Lending the Falcon
00:53:32.668 : en:The Emperor's Instructions
00:54:25.095 : en:Flying Casual
00:56:55.245 : en:Arrival on Endor
00:58:43.812 : en:Speeder Bike Chase
01:02:41.716 : en:Leia Meets Wicket
01:06:19.267 : en:Vader's Report
01:07:47.480 : en:An Ewok Trap
01:12:01.108 : en:The Golden God
01:15:52.673 : en:Campfire Stories
01:18:14.815 : en:Brother and Sister
01:22:30.404 : en:Luke Surrenders
01:26:06.870 : en:Rebel Recon
01:26:52.082 : en:The Alliance Fleet
01:27:50.891 : en:Back Door
01:30:04.524 : en:Luke and the Emperor
01:33:19.135 : en:"It's a Trap!"
01:36:41.421 : en:Ewok Attack
01:40:25.186 : en:Fully Operational
01:42:23.179 : en:The Battle Rages
01:44:27.803 : en:The Dark Side Beckons
01:45:26.946 : en:The Ewoks Turn the Tide
01:48:42.433 : en:Father Vs. Son
01:50:40.634 : en:Taking the Bunker
01:51:37.107 : en:A Jedi's Fury
01:54:37.120 : en:The Shield Is Down
01:55:07.859 : en:Force Lightning
01:55:57.492 : en:Vader's Redemption
01:57:40.178 : en:Into the Death Star
01:59:34.167 : en:Anakin Unmasked
02:01:58.853 : en:Death Star Destroyed
02:04:50.566 : en:Funeral Pyre
02:05:27.437 : en:Celebration
02:07:56.043 : en:End Credits

------------------------------------------------------------------------

x264 [info]: frame I:1652  Avg QP:15.54  size:174534
x264 [info]: frame P:40553 Avg QP:16.66  size: 84142
x264 [info]: frame B:151697 Avg QP:18.32  size: 32913

Add A Comment: