CopyPastehas never been so tasty!

Star.Wars.Episode.V.1980.BDRip.720p.x264

by jasses

  • 0
  • 0
  • 0
193 views

Общее

Уникальный идентификатор : 235192649459471917911548622228529269143 (0xB0F074E5A9AF7E8C8FE2208D265AC997)
Полное имя : Star.Wars.Episode.V.1980.BDRip.720p.x264-jasses.mkv
Формат : Matroska
Версия формата : Version 2
Размер файла : 9,60 Гбайт
Продолжительность : 2 ч. 7 м.
Общий поток : 10,8 Мбит/сек
Название фильма : = HDTracker.org = jasses =
Дата кодирования : UTC 2012-03-20 15:27:01
Программа кодирования : mkvmerge v4.9.1 ('Ich will') сборка от Jul 11 2011 23:53:15
Библиотека кодирования : libebml v1.2.1 + libmatroska v1.1.1

 

Видео

Идентификатор : 1
Формат : AVC
Формат/Информация : Advanced Video Codec
Профиль формата : High@L4.1
Параметр CABAC формата : Да
Параметр ReFrames формата : 9 кадров
Идентификатор кодека : V_MPEG4/ISO/AVC
Продолжительность : 2 ч. 7 м.
Битрейт : 7000 Кбит/сек
Ширина : 1280 пикселей
Высота : 546 пикселей
Соотношение сторон : 2,35:1
Частота кадров : 23,976 кадра/сек
Цветовое пространство : YUV
Субдискретизация насыщенности : 4:2:0
Битовая глубина : 8 бит
Тип развёртки : Прогрессивная
Бит/(Пиксели*Кадры) : 0.418
Размер потока : 6,05 Гбайт (63%)
Библиотека кодирования : x264 core 116 r2074 2641b9e
Настройки программы : cabac=1 / ref=9 / deblock=1:-2:-1 / analyse=0x3:0x113 / me=tesa / subme=11 / psy=1 / psy_rd=1.00:0.00 / mixed_ref=1 / me_range=32 / chroma_me=1 / trellis=2 / 8x8dct=1 / cqm=0 / deadzone=21,11 / fast_pskip=0 / chroma_qp_offset=-2 / threads=12 / sliced_threads=0 / nr=0 / decimate=1 / interlaced=0 / bluray_compat=0 / constrained_intra=0 / bframes=9 / b_pyramid=2 / b_adapt=2 / b_bias=0 / direct=3 / weightb=1 / open_gop=0 / weightp=2 / keyint=250 / keyint_min=24 / scenecut=40 / intra_refresh=0 / rc_lookahead=60 / rc=2pass / mbtree=1 / bitrate=7000 / ratetol=1.0 / qcomp=0.65 / qpmin=0 / qpmax=69 / qpstep=4 / cplxblur=20.0 / qblur=0.5 / vbv_maxrate=50000 / vbv_bufsize=50000 / nal_hrd=none / ip_ratio=1.40 / aq=1:1.00
Язык : English

 

Аудио #1

Идентификатор : 2
Формат : DTS
Формат/Информация : Digital Theater Systems
Идентификатор кодека : A_DTS
Продолжительность : 2 ч. 7 м.
Вид битрейта : Постоянный
Битрейт : 755 Кбит/сек
Каналы : 6 каналов
Расположение каналов : Front: L C R, Side: L R, LFE
Частота : 48,0 КГц
Битовая глубина : 24 бит
Метод сжатия : С потерями
Размер потока : 687 Мбайт (7%)
Заголовок : DTS - Дубляж
Язык : Russian

 

Аудио #2

Идентификатор : 3
Формат : DTS
Формат/Информация : Digital Theater Systems
Профиль формата : ES
Идентификатор кодека : A_DTS
Продолжительность : 2 ч. 7 м.
Вид битрейта : Постоянный
Битрейт : 1510 Кбит/сек
Каналы : 7 каналов / 6 каналов
Расположение каналов : Front: L C R, Side: L R, Back: C, LFE / Front: L C R, Side: L R, LFE
Частота : 48,0 КГц
Битовая глубина : 24 бит
Метод сжатия : С потерями
Размер потока : 1,34 Гбайт (14%)
Заголовок : DTS-ES 6.1 - Tycoon
Язык : Russian

 

Аудио #3

Идентификатор : 4
Формат : DTS
Формат/Информация : Digital Theater Systems
Профиль формата : ES
Идентификатор кодека : A_DTS
Продолжительность : 2 ч. 7 м.
Вид битрейта : Постоянный
Битрейт : 1510 Кбит/сек
Каналы : 7 каналов / 6 каналов
Расположение каналов : Front: L C R, Side: L R, Back: C, LFE / Front: L C R, Side: L R, LFE
Частота : 48,0 КГц
Битовая глубина : 24 бит
Метод сжатия : С потерями
Размер потока : 1,34 Гбайт (14%)
Заголовок : DTS-ES 6.1
Язык : English

 

Текст #1

Идентификатор : 5
Формат : UTF-8
Идентификатор кодека : S_TEXT/UTF8
Идентификатор кодека/Информация : UTF-8 Plain Text
Заголовок : Tycoon
Язык : Russian

 

Текст #2

Идентификатор : 6
Формат : UTF-8
Идентификатор кодека : S_TEXT/UTF8
Идентификатор кодека/Информация : UTF-8 Plain Text
Заголовок : Blu-ray CEE
Язык : Russian

 

Текст #3

Идентификатор : 7
Формат : UTF-8
Идентификатор кодека : S_TEXT/UTF8
Идентификатор кодека/Информация : UTF-8 Plain Text
Заголовок : Full
Язык : English

 

Меню

00:00:00.000 : en:Opening Logos
00:00:21.104 : en:The Empire Strikes Back
00:01:54.865 : en:Ice Planet Hoth
00:04:15.839 : en:The Rebel Base
00:08:19.249 : en:Escape From the Wampa
00:10:15.949 : en:Closing the Doors
00:12:57.735 : en:Obi-Wan's Instructions
00:15:13.538 : en:Search Party
00:16:29.697 : en:Luke's Recovery
00:18:19.974 : en:Imperial Probe Droid
00:19:45.393 : en:The Imperial Fleet
00:21:22.698 : en:Preparing for Battle
00:23:57.728 : en:First Transport Away
00:25:49.423 : en:Battle in the Snow
00:29:29.351 : en:The Tide Turns
00:31:29.221 : en:Rebels in Retreat
00:33:37.682 : en:Escape Aboard the Falcon
00:35:55.153 : en:Leaving for Dagobah
00:36:51.251 : en:The Empire in Pursuit
00:38:33.561 : en:Asteroid Field
00:40:36.726 : en:Crash Landing on Dagobah
00:44:20.074 : en:Hunting the Falcon
00:46:08.391 : en:"Found Someone, You Have"
00:50:13.385 : en:Interrupted Kiss
00:52:16.633 : en:The Emperor's Message
00:54:20.257 : en:Yoda's Hut
00:57:40.290 : en:"This is No Cave"
01:00:57.946 : en:Jedi Training
01:03:42.777 : en:Failure at the Cave
01:05:46.109 : en:Bounty Hunters
01:08:12.171 : en:There is No Try
01:13:24.233 : en:Out With the Garbage
01:16:39.887 : en:Seeing the Future
01:18:24.116 : en:City in the Clouds
01:19:45.864 : en:Meeting Lando
01:22:55.929 : en:Leaving Dagobah
01:25:38.550 : en:Leia's Concerns
01:27:51.266 : en:Imperial Surprise
01:30:28.673 : en:The Deal Gets Worse
01:34:39.799 : en:Carbon Freeze
01:38:28.903 : en:Luke Enters the Trap
01:40:26.145 : en:Confronting the Dark Lord
01:41:46.100 : en:Lando's Second Surprise
01:43:51.434 : en:Lightsaber Duel
01:47:02.541 : en:Escape From Cloud City
01:49:21.472 : en:Vader's Revelation
01:53:41.690 : en:Falcon to the Rescue
01:56:14.843 : en:The Empire Closes In
01:59:46.596 : en:The Rebel Fleet
02:01:58.228 : en:End Credits

--------------------------------------------------------------------------

x264 [info]: frame I:1520  Avg QP:15.12  size:130909
x264 [info]: frame P:36514 Avg QP:16.19  size: 66253
x264 [info]: frame B:145179 Avg QP:17.82  size: 28019

Add A Comment: