CopyPastehas never been so tasty!

hd

by anonymous

  • 0
  • 0
  • 0
733 views

General
Complete name                    : Pirates.of.the.Caribbean.On.Stranger.Tides.2011.Remux.mkv
Format                           : Matroska
File size                        : 30.4 GiB
Duration                         : 2h 16mn
Overall bit rate                 : 31.9 Mbps
Movie name                       : = hdtracker.org = jasses =
Encoded date                     : UTC 2011-08-27 11:37:14
Writing application              : mkvmerge v4.3.0 ('Escape from the Island') сборка от Sep  5 2010 10:30:51
Writing library                  : libebml v1.0.0 + libmatroska v1.0.0

Video
ID                               : 1
Format                           : AVC
Format/Info                      : Advanced Video Codec
Format profile                   : High@L4.1
Format settings, CABAC           : Yes
Format settings, ReFrames        : 4 frames
Codec ID                         : V_MPEG4/ISO/AVC
Duration                         : 2h 16mn
Bit rate mode                    : Variable
Bit rate                         : 27.0 Mbps
Maximum bit rate                 : 34.0 Mbps
Width                            : 1 920 pixels
Height                           : 1 080 pixels
Display aspect ratio             : 16:9
Frame rate                       : 23.976 fps
Color space                      : YUV
Chroma subsampling               : 4:2:0
Bit depth                        : 8 bits
Scan type                        : Progressive
Bits/(Pixel*Frame)               : 0.544
Stream size                      : 25.8 GiB (85%)

Audio #1
ID                               : 2
Format                           : AC-3
Format/Info                      : Audio Coding 3
Mode extension                   : CM (complete main)
Codec ID                         : A_AC3
Duration                         : 2h 16mn
Bit rate mode                    : Constant
Bit rate                         : 384 Kbps
Channel(s)                       : 6 channels
Channel positions                : Front: L C R, Side: L R, LFE
Sampling rate                    : 48.0 KHz
Bit depth                        : 16 bits
Compression mode                 : Lossy
Stream size                      : 375 MiB (1%)
Title                            : AC3
Language                         : Russian

Audio #2
ID                               : 3
Format                           : DTS
Format/Info                      : Digital Theater Systems
Format profile                   : MA / Core
Codec ID                         : A_DTS
Duration                         : 2h 16mn
Bit rate mode                    : Variable
Bit rate                         : 3 607 Kbps / 1 510 Kbps
Channel(s)                       : 8 channels / 6 channels
Channel positions                : Front: L C R, Side: L R, Back: L R, LFE / Front: L C R, Side: L R, LFE
Sampling rate                    : 48.0 KHz
Bit depth                        : 24 bits
Compression mode                 : Lossless / Lossy
Title                            : DTS
Language                         : English

Audio #3
ID                               : 4
Format                           : AC-3
Format/Info                      : Audio Coding 3
Mode extension                   : CM (complete main)
Codec ID                         : A_AC3
Duration                         : 2h 16mn
Bit rate mode                    : Constant
Bit rate                         : 192 Kbps
Channel(s)                       : 2 channels
Channel positions                : Front: L R
Sampling rate                    : 48.0 KHz
Bit depth                        : 16 bits
Compression mode                 : Lossy
Stream size                      : 187 MiB (1%)
Title                            : AC3 Commentary
Language                         : English

Text #1
ID                               : 5
Format                           : UTF-8
Codec ID                         : S_TEXT/UTF8
Codec ID/Info                    : UTF-8 Plain Text
Title                            : forced
Language                         : Russian

Text #2
ID                               : 6
Format                           : UTF-8
Codec ID                         : S_TEXT/UTF8
Codec ID/Info                    : UTF-8 Plain Text
Language                         : Russian

Text #3
ID                               : 7
Format                           : UTF-8
Codec ID                         : S_TEXT/UTF8
Codec ID/Info                    : UTF-8 Plain Text
Language                         : English

Menu
00:00:00.000                     : en:00:00:00.000
00:03:34.172                     : en:00:03:34.172
00:08:46.776                     : en:00:08:46.776
00:15:56.080                     : en:00:15:56.080
00:18:34.155                     : en:00:18:34.155
00:21:15.316                     : en:00:21:15.316
00:30:05.512                     : en:00:30:05.512
00:36:56.756                     : en:00:36:56.756
00:42:05.356                     : en:00:42:05.356
00:48:20.022                     : en:00:48:20.022
00:53:26.078                     : en:00:53:26.078
00:55:42.965                     : en:00:55:42.965
00:57:52.844                     : en:00:57:52.844
01:00:47.477                     : en:01:00:47.477
01:08:22.223                     : en:01:08:22.223
01:11:41.339                     : en:01:11:41.339
01:13:03.170                     : en:01:13:03.170
01:14:16.744                     : en:01:14:16.744
01:23:19.995                     : en:01:23:19.995
01:26:49.621                     : en:01:26:49.621
01:30:16.494                     : en:01:30:16.494
01:35:43.738                     : en:01:35:43.738
01:40:57.927                     : en:01:40:57.927
01:43:07.556                     : en:01:43:07.556
01:44:51.660                     : en:01:44:51.660
01:48:53.610                     : en:01:48:53.610
01:57:41.471                     : en:01:57:41.471
02:02:21.376                     : en:02:02:21.376
02:05:51.461                     : en:02:05:51.461
02:07:26.806                     : en:02:07:26.806

 

Add A Comment: