CopyPastehas never been so tasty!

Star.Wars.Episode.IV.1977.BDRip.720p.x264

by jasses

  • 0
  • 0
  • 0
201 views

Общее

Уникальный идентификатор : 192889261565215343408676545225494655516 (0x911D1ED7C5A00168AFFAB847DED8721C)
Полное имя : Star.Wars.Episode.IV.1977.BDRip.720p.x264-jasses.mkv
Формат : Matroska
Версия формата : Version 2
Размер файла : 9,05 Гбайт
Продолжительность : 2 ч. 4 м.
Общий поток : 10,4 Мбит/сек
Название фильма : = HDTracker.org = jasses =
Дата кодирования : UTC 2012-03-20 15:00:06
Программа кодирования : mkvmerge v4.9.1 ('Ich will') сборка от Jul 11 2011 23:53:15
Библиотека кодирования : libebml v1.2.1 + libmatroska v1.1.1
Attachment : Yes

 

Видео

Идентификатор : 1
Формат : AVC
Формат/Информация : Advanced Video Codec
Профиль формата : High@L4.1
Параметр CABAC формата : Да
Параметр ReFrames формата : 9 кадров
Идентификатор кодека : V_MPEG4/ISO/AVC
Продолжительность : 2 ч. 4 м.
Битрейт : 6600 Кбит/сек
Ширина : 1280 пикселей
Высота : 546 пикселей
Соотношение сторон : 2,35:1
Частота кадров : 23,976 кадра/сек
Цветовое пространство : YUV
Субдискретизация насыщенности : 4:2:0
Битовая глубина : 8 бит
Тип развёртки : Прогрессивная
Бит/(Пиксели*Кадры) : 0.394
Размер потока : 5,58 Гбайт (62%)
Библиотека кодирования : x264 core 116 r2074 2641b9e
Настройки программы : cabac=1 / ref=9 / deblock=1:-2:-1 / analyse=0x3:0x113 / me=tesa / subme=11 / psy=1 / psy_rd=1.00:0.00 / mixed_ref=1 / me_range=32 / chroma_me=1 / trellis=2 / 8x8dct=1 / cqm=0 / deadzone=21,11 / fast_pskip=0 / chroma_qp_offset=-2 / threads=12 / sliced_threads=0 / nr=0 / decimate=1 / interlaced=0 / bluray_compat=0 / constrained_intra=0 / bframes=9 / b_pyramid=2 / b_adapt=2 / b_bias=0 / direct=3 / weightb=1 / open_gop=0 / weightp=2 / keyint=250 / keyint_min=24 / scenecut=40 / intra_refresh=0 / rc_lookahead=60 / rc=2pass / mbtree=1 / bitrate=6600 / ratetol=1.0 / qcomp=0.65 / qpmin=0 / qpmax=69 / qpstep=4 / cplxblur=20.0 / qblur=0.5 / vbv_maxrate=50000 / vbv_bufsize=50000 / nal_hrd=none / ip_ratio=1.40 / aq=1:1.00
Язык : English

 

Аудио #1

Идентификатор : 2
Формат : DTS
Формат/Информация : Digital Theater Systems
Идентификатор кодека : A_DTS
Продолжительность : 2 ч. 4 м.
Вид битрейта : Постоянный
Битрейт : 755 Кбит/сек
Каналы : 6 каналов
Расположение каналов : Front: L C R, Side: L R, LFE
Частота : 48,0 КГц
Битовая глубина : 24 бит
Метод сжатия : С потерями
Размер потока : 673 Мбайт (7%)
Заголовок : DTS - Дубляж
Язык : Russian

 

Аудио #2

Идентификатор : 3
Формат : DTS
Формат/Информация : Digital Theater Systems
Профиль формата : ES
Идентификатор кодека : A_DTS
Продолжительность : 2 ч. 4 м.
Вид битрейта : Постоянный
Битрейт : 1510 Кбит/сек
Каналы : 7 каналов / 6 каналов
Расположение каналов : Front: L C R, Side: L R, Back: C, LFE / Front: L C R, Side: L R, LFE
Частота : 48,0 КГц
Битовая глубина : 24 бит
Метод сжатия : С потерями
Размер потока : 1,32 Гбайт (15%)
Заголовок : DTS-ES 6.1 - Tycoon
Язык : Russian

 

Аудио #3

Идентификатор : 4
Формат : DTS
Формат/Информация : Digital Theater Systems
Профиль формата : ES
Идентификатор кодека : A_DTS
Продолжительность : 2 ч. 4 м.
Вид битрейта : Постоянный
Битрейт : 1510 Кбит/сек
Каналы : 7 каналов / 6 каналов
Расположение каналов : Front: L C R, Side: L R, Back: C, LFE / Front: L C R, Side: L R, LFE
Частота : 48,0 КГц
Битовая глубина : 24 бит
Метод сжатия : С потерями
Размер потока : 1,32 Гбайт (15%)
Заголовок : DTS-ES 6.1
Язык : English

 

Текст #1

Идентификатор : 5
Формат : UTF-8
Идентификатор кодека : S_TEXT/UTF8
Идентификатор кодека/Информация : UTF-8 Plain Text
Заголовок : Tycoon
Язык : Russian

 

Текст #2

Идентификатор : 6
Формат : UTF-8
Идентификатор кодека : S_TEXT/UTF8
Идентификатор кодека/Информация : UTF-8 Plain Text
Заголовок : Blu-ray CEE
Язык : Russian

 

Текст #3

Идентификатор : 7
Формат : UTF-8
Идентификатор кодека : S_TEXT/UTF8
Идентификатор кодека/Информация : UTF-8 Plain Text
Заголовок : Forced
Язык : Russian

 

Текст #4

Идентификатор : 8
Формат : UTF-8
Идентификатор кодека : S_TEXT/UTF8
Идентификатор кодека/Информация : UTF-8 Plain Text
Заголовок : Full
Язык : English

 

Текст #5

Идентификатор : 9
Формат : UTF-8
Идентификатор кодека : S_TEXT/UTF8
Идентификатор кодека/Информация : UTF-8 Plain Text
Заголовок : Forced
Язык : English

 

Меню

00:00:00.000 : :Opening Logos
00:00:21.021 : :A New Hope
00:01:53.405 : :Imperial Boarding Party
00:04:52.792 : :Artoo's Mission
00:07:28.281 : :Vader Confronts the Princess
00:08:54.868 : :Lost in the Desert
00:11:21.389 : :Land of the Jawas
00:15:40.231 : :Droids for Sale
00:19:40.179 : :In the Garage
00:23:33.203 : :Lars Family Dinner
00:25:32.614 : :Binary Sunset
00:27:45.497 : :Attack of the Sand People
00:29:12.709 : :Meeting Old Ben
00:32:34.077 : :"Your Father's Lightsaber"
00:34:53.008 : :Leia's Message
00:36:54.212 : :The Death Star
00:39:05.635 : :Torched Homestead
00:41:42.291 : :Luke's Decision
00:42:31.549 : :Mos Eisley Spaceport
00:44:51.731 : :The Cantina
00:47:52.620 : :Han Solo
00:49:57.995 : :Cornered by Greedo
00:51:13.696 : :Death Star Destination
00:52:40.741 : :Jabba the Hutt
00:54:12.332 : :The Millennium Falcon
00:56:59.916 : :Alderaan's Fate
00:59:14.176 : :Lightsaber Training
01:03:10.829 : :"That's No Moon..."
01:06:16.472 : :Secret Compartment
01:08:21.973 : :Planning the Escape
01:12:32.390 : :Wookiee Prisoner
01:14:12.657 : :Rescuing the Princess
01:17:13.712 : :Into the Garbage Chute
01:19:09.328 : :The Trash Compactor
01:21:29.384 : :The Walls Close In
01:25:00.220 : :Deactivating the Tractor Beam
01:27:02.092 : :Back to the Ship
01:29:56.182 : :Obi-Wan Vs. Vader
01:33:48.456 : :Tie Fighter Attack
01:36:39.877 : :"They Let Us Go"
01:38:06.756 : :Arrival on Yavin 4
01:39:37.513 : :Rebel Briefing
01:41:24.996 : :Han's Departure
01:42:37.401 : :Luke and Biggs
01:45:02.630 : :Assault on the Death Star
01:49:42.785 : :Trench Runs
01:55:18.912 : :"Use the Force, Luke"
01:57:47.394 : :A Hero's Welcome
01:58:28.518 : :Medal Ceremony
02:00:14.499 : :End Credits

---------------------------------------------------------------------

x264 [info]: frame I:1742  Avg QP:15.54  size:134026
x264 [info]: frame P:39242 Avg QP:16.78  size: 63815
x264 [info]: frame B:138469 Avg QP:18.40  size: 24819

Add A Comment: