CopyPastehas never been so tasty!

Gran Torino (2008)

by anonymous

  • 0
  • 0
373 views

Disc Title:     Gran Torino (2008)
Disc Size:      35 663 183 827 bytes
Protection:     AACS
BD-Java:        Yes
BDInfo:         0.5.6

Notes:         

BDINFO HOME:
  Cinema Squid
    http://www.cinemasquid.com/blu-ray/tools/bdinfo

INCLUDES FORUMS REPORT FOR:
  AVS Forum Blu-ray Audio and Video Specifications Thread
    http://www.avsforum.com/avs-vb/showthread.php?t=1155731


********************
PLAYLIST: 00100.MPLS
********************

<--- BEGIN FORUMS PASTE --->
[code]
                                                                                                                Total   Video                                            
Title                                                           Codec   Length  Movie Size      Disc Size       Bitrate Bitrate Main Audio Track                          Secondary Audio Track
-----                                                           ------  ------- --------------  --------------  ------- ------- ------------------                        ---------------------
00100.MPLS                                                      VC-1    1:56:34 32 064 215 040  35 663 183 827  36,67   26,99   Dolby TrueHD 5.1 1344Kbps (48kHz/16-bit)  DD AC3 5.1 640Kbps
[/code]

[code]

DISC INFO:

Disc Title:     Gran Torino (2008)
Disc Size:      35 663 183 827 bytes
Protection:     AACS
BD-Java:        Yes
BDInfo:         0.5.6

PLAYLIST REPORT:

Name:                   00100.MPLS
Length:                 1:56:34 (h:m:s)
Size:                   32 064 215 040 bytes
Total Bitrate:          36,67 Mbps

VIDEO:

Codec                   Bitrate             Description    
-----                   -------             -----------    
VC-1 Video              26994 kbps          1080p / 23,976 fps / 16:9 / Advanced Profile 3

AUDIO:

Codec                           Language        Bitrate         Description    
-----                           --------        -------         -----------    
Dolby TrueHD Audio              English         1344 kbps       5.1 / 48 kHz / 1344 kbps / 16-bit (AC3 Embedded: 5.1 / 48 kHz / 640 kbps / DN -4dB)
Dolby Digital Audio             English         640 kbps        5.1 / 48 kHz / 640 kbps / DN -4dB
Dolby Digital Audio             Czech           640 kbps        5.1 / 48 kHz / 640 kbps / DN -4dB
Dolby Digital Audio             Hungarian       640 kbps        5.1 / 48 kHz / 640 kbps / DN -4dB
Dolby Digital Audio             Polish          640 kbps        5.1 / 48 kHz / 640 kbps / DN -4dB
Dolby Digital Audio             Russian         640 kbps        5.1 / 48 kHz / 640 kbps / DN -4dB
Dolby Digital Audio             Thai            640 kbps        5.1 / 48 kHz / 640 kbps / DN -4dB
Dolby Digital Audio             Turkish         640 kbps        5.1 / 48 kHz / 640 kbps / DN -4dB

SUBTITLES:

Codec                           Language        Bitrate         Description    
-----                           --------        -------         -----------    
Presentation Graphics           English         36,011 kbps                    
Presentation Graphics           English         0,670 kbps                     
Presentation Graphics           Arabic          18,437 kbps                    
Presentation Graphics           Bulgarian       23,621 kbps                    
Presentation Graphics           Chinese         26,666 kbps                    
Presentation Graphics           Croatian        26,913 kbps                    
Presentation Graphics           Czech           25,282 kbps                    
Presentation Graphics           Czech           0,528 kbps                     
Presentation Graphics           Estonian        26,189 kbps                    
Presentation Graphics           Hebrew          24,009 kbps                    
Presentation Graphics           Hungarian       28,888 kbps                    
Presentation Graphics           Hungarian       0,632 kbps                     
Presentation Graphics           Indonesian      36,316 kbps                    
Presentation Graphics           Latvian         27,148 kbps                    
Presentation Graphics           Lithuanian      29,586 kbps                    
Presentation Graphics           Polish          18,855 kbps                    
Presentation Graphics           Polish          0,544 kbps                     
Presentation Graphics           Portuguese      30,443 kbps                    
Presentation Graphics           Romanian        29,259 kbps                    
Presentation Graphics           Russian         33,894 kbps                    
Presentation Graphics           Russian         0,760 kbps                     
Presentation Graphics           Serbian         27,072 kbps                    
Presentation Graphics           Slovenian       26,078 kbps                    
Presentation Graphics           Thai            26,203 kbps                    
Presentation Graphics           Thai            0,404 kbps                     
Presentation Graphics           Turkish         31,561 kbps                    
Presentation Graphics           Turkish         0,624 kbps                     
Presentation Graphics           Ukrainian       30,818 kbps                    

FILES:

Name            Time In         Length          Size            Total Bitrate  
----            -------         ------          ----            -------------  
00000.M2TS      0:00:00.000     1:56:34.779     32 064 215 040  36 672         

CHAPTERS:

Number          Time In         Length          Avg Video Rate  Max 1-Sec Rate  Max 1-Sec Time  Max 5-Sec Rate  Max 5-Sec Time  Max 10Sec Rate  Max 10Sec Time  Avg Frame Size  Max Frame Size  Max Frame Time 
------          -------         ------          --------------  --------------  --------------  --------------  --------------  --------------  --------------  --------------  --------------  -------------- 
1               0:00:00.000     0:03:54.525     18 358 kbps     35 985 kbps     00:00:49.048    27 286 kbps     00:00:47.547    26 609 kbps     00:00:47.297    99 626 bytes    380 882 bytes   00:00:49.674   
2               0:03:54.525     0:04:50.832     26 255 kbps     35 070 kbps     00:06:00.651    33 279 kbps     00:05:59.734    32 202 kbps     00:05:08.850    136 880 bytes   334 127 bytes   00:06:03.863   
3               0:08:45.358     0:04:28.768     29 145 kbps     42 962 kbps     00:11:51.419    37 245 kbps     00:09:20.142    35 105 kbps     00:09:19.559    151 947 bytes   427 954 bytes   00:13:14.084   
4               0:13:14.126     0:04:54.252     32 435 kbps     47 965 kbps     00:14:58.939    36 790 kbps     00:16:51.176    35 242 kbps     00:17:17.578    169 099 bytes   443 327 bytes   00:13:57.211   
5               0:18:08.378     0:02:48.626     22 437 kbps     26 530 kbps     00:20:52.626    25 992 kbps     00:20:43.784    25 812 kbps     00:20:43.784    116 975 bytes   218 943 bytes   00:18:54.133   
6               0:20:57.005     0:03:23.745     21 407 kbps     40 501 kbps     00:23:38.125    37 561 kbps     00:23:35.205    34 411 kbps     00:23:31.076    111 604 bytes   390 476 bytes   00:22:13.874   
7               0:24:20.750     0:04:28.309     24 364 kbps     38 607 kbps     00:28:40.844    36 790 kbps     00:28:39.968    35 054 kbps     00:28:35.088    127 023 bytes   386 418 bytes   00:28:46.683   
8               0:28:49.060     0:02:52.589     29 733 kbps     37 195 kbps     00:29:02.365    34 887 kbps     00:29:01.197    34 110 kbps     00:28:56.735    155 014 bytes   357 424 bytes   00:28:58.403   
9               0:31:41.649     0:04:36.401     32 735 kbps     42 028 kbps     00:32:16.726    36 816 kbps     00:32:35.953    35 275 kbps     00:32:07.967    170 664 bytes   400 608 bytes   00:36:07.832   
10              0:36:18.050     0:03:55.693     29 574 kbps     47 431 kbps     00:39:48.010    35 983 kbps     00:38:19.422    34 584 kbps     00:37:43.010    154 187 bytes   500 870 bytes   00:39:48.052   
11              0:40:13.744     0:03:32.545     29 442 kbps     39 174 kbps     00:42:34.760    35 927 kbps     00:43:41.285    33 901 kbps     00:43:36.238    153 496 bytes   396 334 bytes   00:42:33.050   
12              0:43:46.290     0:04:58.089     26 724 kbps     32 649 kbps     00:43:51.837    31 600 kbps     00:43:50.711    30 447 kbps     00:43:49.752    139 325 bytes   310 295 bytes   00:44:36.882   
13              0:48:44.379     0:05:11.519     28 295 kbps     33 469 kbps     00:52:17.551    31 243 kbps     00:52:13.421    30 626 kbps     00:51:48.688    147 520 bytes   327 508 bytes   00:53:55.857   
14              0:53:55.899     0:03:08.521     32 085 kbps     44 744 kbps     00:53:56.441    38 265 kbps     00:54:51.079    35 526 kbps     00:55:50.555    167 278 bytes   426 053 bytes   00:54:13.917   
15              0:57:04.421     0:04:01.241     29 848 kbps     45 344 kbps     00:57:59.017    37 129 kbps     00:57:56.347    35 370 kbps     00:57:50.008    155 614 bytes   519 710 bytes   00:57:59.893   
16              1:01:05.662     0:03:16.029     26 768 kbps     45 230 kbps     01:04:16.310    37 606 kbps     01:04:12.390    34 614 kbps     01:03:53.538    139 555 bytes   368 140 bytes   01:04:17.019   
17              1:04:21.691     0:06:21.422     25 405 kbps     38 519 kbps     01:10:42.112    36 832 kbps     01:09:37.965    35 398 kbps     01:09:36.797    132 451 bytes   414 147 bytes   01:10:42.947   
18              1:10:43.113     0:05:45.011     28 073 kbps     38 745 kbps     01:11:57.479    35 727 kbps     01:11:31.036    34 816 kbps     01:11:27.449    146 361 bytes   428 917 bytes   01:11:37.167   
19              1:16:28.125     0:03:36.633     27 496 kbps     38 326 kbps     01:19:03.280    34 747 kbps     01:16:32.170    34 415 kbps     01:16:28.125    143 350 bytes   412 349 bytes   01:19:02.821   
20              1:20:04.758     0:02:50.378     32 155 kbps     42 099 kbps     01:21:16.913    37 904 kbps     01:20:04.758    35 548 kbps     01:20:46.258    167 644 bytes   536 978 bytes   01:21:35.348   
21              1:22:55.136     0:03:19.073     30 016 kbps     42 968 kbps     01:23:37.512    38 378 kbps     01:23:33.675    35 750 kbps     01:23:33.508    156 492 bytes   467 191 bytes   01:23:35.260   
22              1:26:14.210     0:03:01.264     25 883 kbps     34 640 kbps     01:26:54.792    32 354 kbps     01:26:53.166    30 594 kbps     01:26:51.998    134 943 bytes   265 245 bytes   01:26:45.533   
23              1:29:15.475     0:04:14.587     20 733 kbps     26 977 kbps     01:29:32.617    24 548 kbps     01:29:32.533    23 072 kbps     01:32:55.444    108 091 bytes   221 780 bytes   01:33:30.021   
24              1:33:30.062     0:03:01.723     27 106 kbps     37 458 kbps     01:35:19.296    35 704 kbps     01:35:30.933    35 039 kbps     01:35:18.713    141 318 bytes   411 976 bytes   01:35:06.367   
25              1:36:31.786     0:02:09.796     20 141 kbps     30 949 kbps     01:36:31.952    25 607 kbps     01:36:31.786    23 597 kbps     01:36:31.786    105 004 bytes   326 753 bytes   01:36:32.369   
26              1:38:41.582     0:05:03.845     25 636 kbps     39 349 kbps     01:41:35.506    36 040 kbps     01:41:12.232    34 466 kbps     01:41:12.232    133 653 bytes   427 732 bytes   01:41:30.876   
27              1:43:45.427     0:02:23.685     19 090 kbps     29 904 kbps     01:44:01.193    23 544 kbps     01:45:59.811    23 485 kbps     01:45:59.102    99 524 bytes    224 654 bytes   01:46:09.112   
28              1:46:09.112     0:04:55.295     23 630 kbps     40 788 kbps     01:46:46.483    33 768 kbps     01:50:58.234    31 524 kbps     01:48:53.652    123 194 bytes   347 910 bytes   01:51:04.407   
29              1:51:04.407     0:05:30.371     31 261 kbps     35 758 kbps     01:51:04.407    32 994 kbps     01:56:12.674    32 696 kbps     01:56:09.754    163 330 bytes   419 021 bytes   01:56:15.635   

STREAM DIAGNOSTICS:

File            PID             Type            Codec           Language                Seconds                 Bitrate                 Bytes           Packets        
----            ---             ----            -----           --------                --------------          --------------          -------------   -----          
00000.M2TS      4113 (0x1011)   0xEA            VC-1                                    6994,696                26 995                  23 602 400 853  128 374 573    
00000.M2TS      4352 (0x1100)   0x83            TrueHD          eng (English)           6994,696                1 984                   1 734 712 744   12 379 420     
00000.M2TS      4353 (0x1101)   0x81            AC3             eng (English)           6994,696                641                     560 051 200     3 281 550      
00000.M2TS      4354 (0x1102)   0x81            AC3             ces (Czech)             6994,696                641                     560 051 200     3 281 550      
00000.M2TS      4355 (0x1103)   0x81            AC3             hun (Hungarian)         6994,696                641                     560 051 200     3 281 550      
00000.M2TS      4356 (0x1104)   0x81            AC3             pol (Polish)            6994,696                641                     560 051 200     3 281 550      
00000.M2TS      4357 (0x1105)   0x81            AC3             rus (Russian)           6994,696                641                     560 051 200     3 281 550      
00000.M2TS      4358 (0x1106)   0x81            AC3             tha (Thai)              6994,696                641                     560 051 200     3 281 550      
00000.M2TS      4359 (0x1107)   0x81            AC3             tur (Turkish)           6994,696                641                     560 051 200     3 281 550      
00000.M2TS      4608 (0x1200)   0x90            PGS             eng (English)           6994,696                36                      31 486 408      180 300        
00000.M2TS      4609 (0x1201)   0x90            PGS             ara (Arabic)            6994,696                18                      16 120 373      96 524         
00000.M2TS      4610 (0x1202)   0x90            PGS             ind (Indonesian)        6994,696                36                      31 752 395      181 383        
00000.M2TS      4611 (0x1203)   0x90            PGS             bul (Bulgarian)         6994,696                24                      20 653 346      119 192        
00000.M2TS      4612 (0x1204)   0x90            PGS             zho (Chinese)           6994,696                27                      23 315 410      135 419        
00000.M2TS      4613 (0x1205)   0x90            PGS             hrv (Croatian)          6994,696                27                      23 531 108      136 546        
00000.M2TS      4614 (0x1206)   0x90            PGS             ces (Czech)             6994,696                25                      22 105 625      127 051        
00000.M2TS      4615 (0x1207)   0x90            PGS             est (Estonian)          6994,696                26                      22 898 698      131 240        
00000.M2TS      4616 (0x1208)   0x90            PGS             heb (Hebrew)            6994,696                24                      20 992 117      122 930        
00000.M2TS      4617 (0x1209)   0x90            PGS             hun (Hungarian)         6994,696                29                      25 258 320      145 936        
00000.M2TS      4618 (0x120A)   0x90            PGS             lav (Latvian)           6994,696                27                      23 736 797      136 478        
00000.M2TS      4619 (0x120B)   0x90            PGS             lit (Lithuanian)        6994,696                30                      25 868 536      149 000        
00000.M2TS      4620 (0x120C)   0x90            PGS             pol (Polish)            6994,696                19                      16 485 949      97 020         
00000.M2TS      4621 (0x120D)   0x90            PGS             por (Portuguese)        6994,696                30                      26 617 556      153 447        
00000.M2TS      4622 (0x120E)   0x90            PGS             ron (Romanian)          6994,696                29                      25 582 591      147 624        
00000.M2TS      4623 (0x120F)   0x90            PGS             rus (Russian)           6994,696                34                      29 635 419      169 970        
00000.M2TS      4624 (0x1210)   0x90            PGS             srp (Serbian)           6994,696                27                      23 669 990      137 320        
00000.M2TS      4625 (0x1211)   0x90            PGS             slv (Slovenian)         6994,696                26                      22 801 024      131 668        
00000.M2TS      4626 (0x1212)   0x90            PGS             tha (Thai)              6994,696                26                      22 910 453      133 200        
00000.M2TS      4627 (0x1213)   0x90            PGS             tur (Turkish)           6994,696                32                      27 595 445      158 667        
00000.M2TS      4628 (0x1214)   0x90            PGS             ukr (Ukrainian)         6994,696                31                      26 945 679      155 363        
00000.M2TS      4629 (0x1215)   0x90            PGS             eng (English)           6994,696                1                       585 858         3 357          
00000.M2TS      4630 (0x1216)   0x90            PGS             ces (Czech)             6994,696                1                       461 922         2 646          
00000.M2TS      4631 (0x1217)   0x90            PGS             hun (Hungarian)         6994,696                1                       552 332         3 182          
00000.M2TS      4632 (0x1218)   0x90            PGS             pol (Polish)            6994,696                1                       475 482         2 757          
00000.M2TS      4633 (0x1219)   0x90            PGS             rus (Russian)           6994,696                1                       664 143         3 801          
00000.M2TS      4634 (0x121A)   0x90            PGS             tha (Thai)              6994,696                0                       352 946         2 052          
00000.M2TS      4635 (0x121B)   0x90            PGS             tur (Turkish)           6994,696                1                       545 837         3 151          

[/code]
<---- END FORUMS PASTE ---->

QUICK SUMMARY:

Disc Title: Gran Torino (2008)
Disc Size: 35 663 183 827 bytes
Protection: AACS
BD-Java: Yes
Playlist: 00100.MPLS
Size: 32 064 215 040 bytes
Length: 1:56:34
Total Bitrate: 36,67 Mbps
Video: VC-1 Video / 26994 kbps / 1080p / 23,976 fps / 16:9 / Advanced Profile 3
Audio: English / Dolby TrueHD Audio / 5.1 / 48 kHz / 1344 kbps / 16-bit (AC3 Embedded: 5.1 / 48 kHz / 640 kbps / DN -4dB)
Audio: English / Dolby Digital Audio / 5.1 / 48 kHz / 640 kbps / DN -4dB
Audio: Czech / Dolby Digital Audio / 5.1 / 48 kHz / 640 kbps / DN -4dB
Audio: Hungarian / Dolby Digital Audio / 5.1 / 48 kHz / 640 kbps / DN -4dB
Audio: Polish / Dolby Digital Audio / 5.1 / 48 kHz / 640 kbps / DN -4dB
Audio: Russian / Dolby Digital Audio / 5.1 / 48 kHz / 640 kbps / DN -4dB
Audio: Thai / Dolby Digital Audio / 5.1 / 48 kHz / 640 kbps / DN -4dB
Audio: Turkish / Dolby Digital Audio / 5.1 / 48 kHz / 640 kbps / DN -4dB
Subtitle: English / 36,011 kbps
Subtitle: English / 0,670 kbps
Subtitle: Arabic / 18,437 kbps
Subtitle: Bulgarian / 23,621 kbps
Subtitle: Chinese / 26,666 kbps
Subtitle: Croatian / 26,913 kbps
Subtitle: Czech / 25,282 kbps
Subtitle: Czech / 0,528 kbps
Subtitle: Estonian / 26,189 kbps
Subtitle: Hebrew / 24,009 kbps
Subtitle: Hungarian / 28,888 kbps
Subtitle: Hungarian / 0,632 kbps
Subtitle: Indonesian / 36,316 kbps
Subtitle: Latvian / 27,148 kbps
Subtitle: Lithuanian / 29,586 kbps
Subtitle: Polish / 18,855 kbps
Subtitle: Polish / 0,544 kbps
Subtitle: Portuguese / 30,443 kbps
Subtitle: Romanian / 29,259 kbps
Subtitle: Russian / 33,894 kbps
Subtitle: Russian / 0,760 kbps
Subtitle: Serbian / 27,072 kbps
Subtitle: Slovenian / 26,078 kbps
Subtitle: Thai / 26,203 kbps
Subtitle: Thai / 0,404 kbps
Subtitle: Turkish / 31,561 kbps
Subtitle: Turkish / 0,624 kbps
Subtitle: Ukrainian / 30,818 kbps


********************
PLAYLIST: 00200.MPLS
********************

<--- BEGIN FORUMS PASTE --->
[code]
                                                                                                                Total   Video                                            
Title                                                           Codec   Length  Movie Size      Disc Size       Bitrate Bitrate Main Audio Track                          Secondary Audio Track
-----                                                           ------  ------- --------------  --------------  ------- ------- ------------------                        ---------------------
00200.MPLS                                                      VC-1    0:19:17 1 946 173 440   35 663 183 827  13,45   12,13   DD AC3 2.0 192Kbps                       
[/code]

[code]

DISC INFO:

Disc Title:     Gran Torino (2008)
Disc Size:      35 663 183 827 bytes
Protection:     AACS
BD-Java:        Yes
BDInfo:         0.5.6

PLAYLIST REPORT:

Name:                   00200.MPLS
Length:                 0:19:17 (h:m:s)
Size:                   1 946 173 440 bytes
Total Bitrate:          13,45 Mbps

VIDEO:

Codec                   Bitrate             Description    
-----                   -------             -----------    
VC-1 Video              12129 kbps          1080i / 29,970 fps / 16:9 / Advanced Profile 3

AUDIO:

Codec                           Language        Bitrate         Description    
-----                           --------        -------         -----------    
Dolby Digital Audio             English         192 kbps        2.0 / 48 kHz / 192 kbps / DN -4dB / Dolby Surround

SUBTITLES:

Codec                           Language        Bitrate         Description    
-----                           --------        -------         -----------    
Presentation Graphics           English         63,310 kbps                    
Presentation Graphics           Chinese         52,799 kbps                    
Presentation Graphics           Czech           52,210 kbps                    
Presentation Graphics           Hungarian       49,818 kbps                    
Presentation Graphics           Polish          51,887 kbps                    
Presentation Graphics           Portuguese      61,901 kbps                    
Presentation Graphics           Russian         53,261 kbps                    
Presentation Graphics           Turkish         49,688 kbps                    

FILES:

Name            Time In         Length          Size            Total Bitrate  
----            -------         ------          ----            -------------  
00012.M2TS      0:00:00.000     0:19:17.156     1 946 173 440   13 455         

CHAPTERS:

Number          Time In         Length          Avg Video Rate  Max 1-Sec Rate  Max 1-Sec Time  Max 5-Sec Rate  Max 5-Sec Time  Max 10Sec Rate  Max 10Sec Time  Avg Frame Size  Max Frame Size  Max Frame Time 
------          -------         ------          --------------  --------------  --------------  --------------  --------------  --------------  --------------  --------------  --------------  -------------- 
1               0:00:00.000     0:19:17.156     12 129 kbps     39 925 kbps     00:00:33.233    21 673 kbps     00:12:26.412    19 138 kbps     00:05:00.733    50 780 bytes    496 038 bytes   00:00:33.366   

STREAM DIAGNOSTICS:

File            PID             Type            Codec           Language                Seconds                 Bitrate                 Bytes           Packets        
----            ---             ----            -----           --------                --------------          --------------          -------------   -----          
00012.M2TS      4113 (0x1011)   0xEA            VC-1                                    1157,089                12 130                  1 754 399 791   9 555 702      
00012.M2TS      4352 (0x1100)   0x81            AC3             eng (English)           1157,089                192                     27 772 416      180 810        
00012.M2TS      4608 (0x1200)   0x90            PGS             eng (English)           1157,089                63                      9 157 499       52 096         
00012.M2TS      4609 (0x1201)   0x90            PGS             zho (Chinese)           1157,089                53                      7 637 136       43 985         
00012.M2TS      4610 (0x1202)   0x90            PGS             ces (Czech)             1157,089                52                      7 551 839       43 412         
00012.M2TS      4611 (0x1203)   0x90            PGS             hun (Hungarian)         1157,089                50                      7 205 912       41 538         
00012.M2TS      4612 (0x1204)   0x90            PGS             pol (Polish)            1157,089                52                      7 505 200       43 172         
00012.M2TS      4613 (0x1205)   0x90            PGS             por (Portuguese)        1157,089                62                      8 953 615       51 040         
00012.M2TS      4614 (0x1206)   0x90            PGS             rus (Russian)           1157,089                53                      7 703 981       44 316         
00012.M2TS      4615 (0x1207)   0x90            PGS             tur (Turkish)           1157,089                50                      7 187 037       41 450         

[/code]
<---- END FORUMS PASTE ---->

QUICK SUMMARY:

Disc Title: Gran Torino (2008)
Disc Size: 35 663 183 827 bytes
Protection: AACS
BD-Java: Yes
Playlist: 00200.MPLS
Size: 1 946 173 440 bytes
Length: 0:19:17
Total Bitrate: 13,45 Mbps
Video: VC-1 Video / 12129 kbps / 1080i / 29,970 fps / 16:9 / Advanced Profile 3
Audio: English / Dolby Digital Audio / 2.0 / 48 kHz / 192 kbps / DN -4dB / Dolby Surround
Subtitle: English / 63,310 kbps
Subtitle: Chinese / 52,799 kbps
Subtitle: Czech / 52,210 kbps
Subtitle: Hungarian / 49,818 kbps
Subtitle: Polish / 51,887 kbps
Subtitle: Portuguese / 61,901 kbps
Subtitle: Russian / 53,261 kbps
Subtitle: Turkish / 49,688 kbps


********************
PLAYLIST: 00201.MPLS
********************

<--- BEGIN FORUMS PASTE --->
[code]
                                                                                                                Total   Video                                            
Title                                                           Codec   Length  Movie Size      Disc Size       Bitrate Bitrate Main Audio Track                          Secondary Audio Track
-----                                                           ------  ------- --------------  --------------  ------- ------- ------------------                        ---------------------
00201.MPLS                                                      VC-1    0:09:23 971 028 480     35 663 183 827  13,79   12,24   DD AC3 2.0 192Kbps                       
[/code]

[code]

DISC INFO:

Disc Title:     Gran Torino (2008)
Disc Size:      35 663 183 827 bytes
Protection:     AACS
BD-Java:        Yes
BDInfo:         0.5.6

PLAYLIST REPORT:

Name:                   00201.MPLS
Length:                 0:09:23 (h:m:s)
Size:                   971 028 480 bytes
Total Bitrate:          13,79 Mbps

VIDEO:

Codec                   Bitrate             Description    
-----                   -------             -----------    
VC-1 Video              12237 kbps          1080i / 29,970 fps / 16:9 / Advanced Profile 3

AUDIO:

Codec                           Language        Bitrate         Description    
-----                           --------        -------         -----------    
Dolby Digital Audio             English         192 kbps        2.0 / 48 kHz / 192 kbps / DN -4dB / Dolby Surround
Dolby Digital Audio             Russian         192 kbps        2.0 / 48 kHz / 192 kbps / DN -4dB

SUBTITLES:

Codec                           Language        Bitrate         Description    
-----                           --------        -------         -----------    
Presentation Graphics           English         58,840 kbps                    
Presentation Graphics           Chinese         54,058 kbps                    
Presentation Graphics           Czech           50,561 kbps                    
Presentation Graphics           Hungarian       53,314 kbps                    
Presentation Graphics           Polish          46,102 kbps                    
Presentation Graphics           Portuguese      59,966 kbps                    
Presentation Graphics           Russian         49,328 kbps                    
Presentation Graphics           Turkish         47,794 kbps                    

FILES:

Name            Time In         Length          Size            Total Bitrate  
----            -------         ------          ----            -------------  
00010.M2TS      0:00:00.000     0:09:23.296     971 028 480     13 791         

CHAPTERS:

Number          Time In         Length          Avg Video Rate  Max 1-Sec Rate  Max 1-Sec Time  Max 5-Sec Rate  Max 5-Sec Time  Max 10Sec Rate  Max 10Sec Time  Avg Frame Size  Max Frame Size  Max Frame Time 
------          -------         ------          --------------  --------------  --------------  --------------  --------------  --------------  --------------  --------------  --------------  -------------- 
1               0:00:00.000     0:09:23.296     12 237 kbps     28 220 kbps     00:07:46.933    19 491 kbps     00:01:42.402    17 677 kbps     00:01:42.435    51 348 bytes    303 451 bytes   00:07:46.999   

STREAM DIAGNOSTICS:

File            PID             Type            Codec           Language                Seconds                 Bitrate                 Bytes           Packets        
----            ---             ----            -----           --------                --------------          --------------          -------------   -----          
00010.M2TS      4113 (0x1011)   0xEA            VC-1                                    563,229                 12 238                  861 618 056     4 692 863      
00010.M2TS      4352 (0x1100)   0x81            AC3             eng (English)           563,229                 192                     13 522 944      88 040         
00010.M2TS      4353 (0x1101)   0x81            AC3             rus (Russian)           563,229                 192                     13 527 552      88 070         
00010.M2TS      4608 (0x1200)   0x90            PGS             eng (English)           563,229                 59                      4 143 016       23 577         
00010.M2TS      4609 (0x1201)   0x90            PGS             zho (Chinese)           563,229                 54                      3 806 320       21 845         
00010.M2TS      4610 (0x1202)   0x90            PGS             ces (Czech)             563,229                 51                      3 560 093       20 449         
00010.M2TS      4611 (0x1203)   0x90            PGS             hun (Hungarian)         563,229                 53                      3 753 966       21 485         
00010.M2TS      4612 (0x1204)   0x90            PGS             pol (Polish)            563,229                 46                      3 246 109       18 748         
00010.M2TS      4613 (0x1205)   0x90            PGS             por (Portuguese)        563,229                 60                      4 222 350       24 049         
00010.M2TS      4614 (0x1206)   0x90            PGS             rus (Russian)           563,229                 49                      3 473 304       20 014         
00010.M2TS      4615 (0x1207)   0x90            PGS             tur (Turkish)           563,229                 48                      3 365 258       19 403         

[/code]
<---- END FORUMS PASTE ---->

QUICK SUMMARY:

Disc Title: Gran Torino (2008)
Disc Size: 35 663 183 827 bytes
Protection: AACS
BD-Java: Yes
Playlist: 00201.MPLS
Size: 971 028 480 bytes
Length: 0:09:23
Total Bitrate: 13,79 Mbps
Video: VC-1 Video / 12237 kbps / 1080i / 29,970 fps / 16:9 / Advanced Profile 3
Audio: English / Dolby Digital Audio / 2.0 / 48 kHz / 192 kbps / DN -4dB / Dolby Surround
Audio: Russian / Dolby Digital Audio / 2.0 / 48 kHz / 192 kbps / DN -4dB
Subtitle: English / 58,840 kbps
Subtitle: Chinese / 54,058 kbps
Subtitle: Czech / 50,561 kbps
Subtitle: Hungarian / 53,314 kbps
Subtitle: Polish / 46,102 kbps
Subtitle: Portuguese / 59,966 kbps
Subtitle: Russian / 49,328 kbps
Subtitle: Turkish / 47,794 kbps


********************
PLAYLIST: 00007.MPLS
********************

<--- BEGIN FORUMS PASTE --->
[code]
                                                                                                                Total   Video                                            
Title                                                           Codec   Length  Movie Size      Disc Size       Bitrate Bitrate Main Audio Track                          Secondary Audio Track
-----                                                           ------  ------- --------------  --------------  ------- ------- ------------------                        ---------------------
00007.MPLS                                                      VC-1    0:05:40 181 751 808     35 663 183 827  4,27    4,02                                             
[/code]

[code]

DISC INFO:

Disc Title:     Gran Torino (2008)
Disc Size:      35 663 183 827 bytes
Protection:     AACS
BD-Java:        Yes
BDInfo:         0.5.6

PLAYLIST REPORT:

Name:                   00007.MPLS
Length:                 0:05:40 (h:m:s)
Size:                   181 751 808 bytes
Total Bitrate:          4,27 Mbps

VIDEO:

Codec                   Bitrate             Description    
-----                   -------             -----------    
VC-1 Video              4021 kbps           1080p / 23,976 fps / 16:9 / Advanced Profile 3

FILES:

Name            Time In         Length          Size            Total Bitrate  
----            -------         ------          ----            -------------  
00009.M2TS      0:00:00.000     0:05:40.340     181 751 808     4 272          

CHAPTERS:

Number          Time In         Length          Avg Video Rate  Max 1-Sec Rate  Max 1-Sec Time  Max 5-Sec Rate  Max 5-Sec Time  Max 10Sec Rate  Max 10Sec Time  Avg Frame Size  Max Frame Size  Max Frame Time 
------          -------         ------          --------------  --------------  --------------  --------------  --------------  --------------  --------------  --------------  --------------  -------------- 
1               0:00:00.000     0:00:10.009     3 874 kbps      5 389 kbps      00:00:08.967    4 000 kbps      00:00:05.004    3 680 kbps      00:00:00.000    20 115 bytes    243 419 bytes   00:00:06.339   
2               0:00:10.009     0:00:10.009     3 814 kbps      5 624 kbps      00:00:19.018    4 146 kbps      00:00:15.014    3 814 kbps      00:00:10.010    19 886 bytes    252 353 bytes   00:00:12.178   
3               0:00:20.019     0:00:10.009     4 303 kbps      6 627 kbps      00:00:29.028    4 707 kbps      00:00:24.941    4 303 kbps      00:00:20.020    22 434 bytes    285 280 bytes   00:00:22.689   
4               0:00:30.029     0:00:10.009     4 763 kbps      6 975 kbps      00:00:38.997    4 865 kbps      00:00:30.029    4 763 kbps      00:00:30.029    24 831 bytes    318 964 bytes   00:00:34.951   
5               0:00:40.039     0:00:10.009     4 208 kbps      4 767 kbps      00:00:40.040    4 271 kbps      00:00:40.039    4 208 kbps      00:00:40.039    21 939 bytes    279 000 bytes   00:00:44.878   
6               0:00:50.049     0:00:10.009     4 914 kbps      5 497 kbps      00:00:50.050    4 961 kbps      00:00:50.049    4 914 kbps      00:00:50.049    25 621 bytes    326 554 bytes   00:00:56.556   
7               0:01:00.059     0:00:10.010     3 926 kbps      4 593 kbps      00:01:06.983    4 151 kbps      00:01:04.063    3 926 kbps      00:01:00.060    20 466 bytes    270 589 bytes   00:01:00.643   
8               0:01:10.070     0:00:10.009     3 913 kbps      5 810 kbps      00:01:19.037    4 262 kbps      00:01:15.033    3 913 kbps      00:01:10.070    20 401 bytes    259 347 bytes   00:01:11.154   
9               0:01:20.080     0:00:10.009     3 528 kbps      5 553 kbps      00:01:29.089    3 872 kbps      00:01:25.085    3 528 kbps      00:01:20.080    18 396 bytes    228 140 bytes   00:01:26.920   
10              0:01:30.090     0:00:10.009     4 117 kbps      5 916 kbps      00:01:39.099    4 215 kbps      00:01:30.090    4 117 kbps      00:01:30.090    21 466 bytes    274 850 bytes   00:01:31.591   
11              0:01:40.100     0:00:10.009     3 010 kbps      3 690 kbps      00:01:49.109    3 052 kbps      00:01:45.105    3 010 kbps      00:01:40.100    15 694 bytes    240 829 bytes   00:01:50.110   
12              0:01:50.110     0:00:10.009     3 964 kbps      4 442 kbps      00:01:52.529    4 016 kbps      00:01:50.151    3 964 kbps      00:01:50.110    20 668 bytes    261 094 bytes   00:01:54.948   
13              0:02:00.120     0:00:10.009     4 102 kbps      4 584 kbps      00:02:01.287    4 140 kbps      00:02:00.120    4 102 kbps      00:02:00.120    21 384 bytes    271 067 bytes   00:02:01.955   
14              0:02:10.130     0:00:10.009     3 420 kbps      5 164 kbps      00:02:19.138    3 731 kbps      00:02:15.135    3 420 kbps      00:02:10.130    17 830 bytes    223 030 bytes   00:02:14.801   
15              0:02:20.139     0:00:10.009     2 131 kbps      3 824 kbps      00:02:20.598    2 315 kbps      00:02:20.473    2 131 kbps      00:02:20.140    11 112 bytes    226 136 bytes   00:02:25.436   
16              0:02:30.149     0:00:10.009     4 956 kbps      7 653 kbps      00:02:30.149    5 139 kbps      00:02:35.154    4 956 kbps      00:02:30.150    25 840 bytes    316 776 bytes   00:02:31.150   
17              0:02:40.159     0:00:10.009     4 445 kbps      6 441 kbps      00:02:49.168    4 815 kbps      00:02:45.081    4 445 kbps      00:02:40.160    23 176 bytes    297 978 bytes   00:02:43.997   
18              0:02:50.169     0:00:10.009     3 968 kbps      5 858 kbps      00:02:59.137    4 044 kbps      00:02:50.169    3 968 kbps      00:02:50.169    20 686 bytes    262 866 bytes   00:02:54.507   
19              0:03:00.179     0:00:10.010     4 500 kbps      5 166 kbps      00:03:00.180    4 647 kbps      00:03:00.179    4 500 kbps      00:03:00.180    23 463 bytes    305 494 bytes   00:03:06.186   
20              0:03:10.190     0:00:10.009     3 692 kbps      4 615 kbps      00:03:19.199    3 751 kbps      00:03:15.195    3 692 kbps      00:03:10.190    19 249 bytes    312 532 bytes   00:03:20.200   
21              0:03:20.200     0:00:10.009     4 600 kbps      6 217 kbps      00:03:29.209    4 944 kbps      00:03:25.205    4 600 kbps      00:03:20.200    23 981 bytes    312 561 bytes   00:03:21.951   
22              0:03:30.210     0:00:10.009     3 893 kbps      5 447 kbps      00:03:39.219    4 201 kbps      00:03:35.215    3 893 kbps      00:03:30.210    20 297 bytes    261 221 bytes   00:03:33.630   
23              0:03:40.220     0:00:10.009     4 005 kbps      5 716 kbps      00:03:49.229    4 336 kbps      00:03:45.225    4 005 kbps      00:03:40.220    20 880 bytes    268 170 bytes   00:03:40.637   
24              0:03:50.230     0:00:10.009     4 306 kbps      5 941 kbps      00:03:59.239    4 439 kbps      00:03:50.230    4 306 kbps      00:03:50.230    22 447 bytes    290 509 bytes   00:03:50.563   
25              0:04:00.240     0:00:10.009     3 537 kbps      3 976 kbps      00:04:00.240    3 587 kbps      00:04:00.240    3 537 kbps      00:04:00.240    18 442 bytes    232 264 bytes   00:04:01.658   
26              0:04:10.250     0:00:10.009     4 400 kbps      4 914 kbps      00:04:10.249    4 431 kbps      00:04:10.250    4 400 kbps      00:04:10.250    22 942 bytes    290 337 bytes   00:04:15.088   
27              0:04:20.260     0:00:10.009     4 979 kbps      5 528 kbps      00:04:20.260    4 989 kbps      00:04:20.260    4 979 kbps      00:04:20.260    25 960 bytes    329 196 bytes   00:04:26.182   
28              0:04:30.270     0:00:10.009     4 748 kbps      6 992 kbps      00:04:39.279    5 165 kbps      00:04:35.275    4 748 kbps      00:04:30.270    24 754 bytes    319 122 bytes   00:04:31.437   
29              0:04:40.279     0:00:10.009     3 952 kbps      5 347 kbps      00:04:49.289    4 245 kbps      00:04:45.284    3 952 kbps      00:04:40.279    20 602 bytes    266 727 bytes   00:04:47.203   
30              0:04:50.289     0:00:10.009     2 819 kbps      4 655 kbps      00:04:59.299    3 116 kbps      00:04:55.294    2 819 kbps      00:04:50.289    14 695 bytes    196 999 bytes   00:05:00.299   
31              0:05:00.299     0:00:10.009     3 344 kbps      5 428 kbps      00:05:09.308    3 349 kbps      00:05:05.304    3 344 kbps      00:05:00.299    17 433 bytes    220 527 bytes   00:05:10.309   
32              0:05:10.309     0:00:10.010     3 648 kbps      5 609 kbps      00:05:19.277    3 686 kbps      00:05:10.435    3 648 kbps      00:05:10.310    19 016 bytes    238 977 bytes   00:05:11.144   
33              0:05:20.320     0:00:10.009     4 172 kbps      5 584 kbps      00:05:29.329    4 276 kbps      00:05:25.325    4 172 kbps      00:05:20.320    21 753 bytes    403 255 bytes   00:05:30.330   
34              0:05:30.330     0:00:10.009     4 772 kbps      5 096 kbps      00:05:30.330    5 094 kbps      00:05:30.330    0 kbps          00:00:00.000    24 983 bytes    403 255 bytes   00:05:31.331   

STREAM DIAGNOSTICS:

File            PID             Type            Codec           Language                Seconds                 Bitrate                 Bytes           Packets        
----            ---             ----            -----           --------                --------------          --------------          -------------   -----          
00009.M2TS      4113 (0x1011)   0xEA            VC-1                                    340,257                 4 022                   171 076 638     935 191        

[/code]
<---- END FORUMS PASTE ---->

QUICK SUMMARY:

Disc Title: Gran Torino (2008)
Disc Size: 35 663 183 827 bytes
Protection: AACS
BD-Java: Yes
Playlist: 00007.MPLS
Size: 181 751 808 bytes
Length: 0:05:40
Total Bitrate: 4,27 Mbps
Video: VC-1 Video / 4021 kbps / 1080p / 23,976 fps / 16:9 / Advanced Profile 3


********************
PLAYLIST: 00202.MPLS
********************

<--- BEGIN FORUMS PASTE --->
[code]
                                                                                                                Total   Video                                            
Title                                                           Codec   Length  Movie Size      Disc Size       Bitrate Bitrate Main Audio Track                          Secondary Audio Track
-----                                                           ------  ------- --------------  --------------  ------- ------- ------------------                        ---------------------
00202.MPLS                                                      VC-1    0:03:57 411 285 504     35 663 183 827  13,88   12,27   DD AC3 2.0 192Kbps                       
[/code]

[code]

DISC INFO:

Disc Title:     Gran Torino (2008)
Disc Size:      35 663 183 827 bytes
Protection:     AACS
BD-Java:        Yes
BDInfo:         0.5.6

PLAYLIST REPORT:

Name:                   00202.MPLS
Length:                 0:03:57 (h:m:s)
Size:                   411 285 504 bytes
Total Bitrate:          13,88 Mbps

VIDEO:

Codec                   Bitrate             Description    
-----                   -------             -----------    
VC-1 Video              12270 kbps          1080i / 29,970 fps / 16:9 / Advanced Profile 3

AUDIO:

Codec                           Language        Bitrate         Description    
-----                           --------        -------         -----------    
Dolby Digital Audio             English         192 kbps        2.0 / 48 kHz / 192 kbps / DN -4dB / Dolby Surround
Dolby Digital Audio             Russian         192 kbps        2.0 / 48 kHz / 192 kbps / DN -4dB

SUBTITLES:

Codec                           Language        Bitrate         Description    
-----                           --------        -------         -----------    
Presentation Graphics           English         64,005 kbps                    
Presentation Graphics           Chinese         65,400 kbps                    
Presentation Graphics           Czech           54,690 kbps                    
Presentation Graphics           Hungarian       58,179 kbps                    
Presentation Graphics           Polish          47,893 kbps                    
Presentation Graphics           Portuguese      61,441 kbps                    
Presentation Graphics           Russian         61,978 kbps                    
Presentation Graphics           Turkish         54,961 kbps                    

FILES:

Name            Time In         Length          Size            Total Bitrate  
----            -------         ------          ----            -------------  
00002.M2TS      0:00:00.000     0:03:57.136     411 285 504     13 875         

CHAPTERS:

Number          Time In         Length          Avg Video Rate  Max 1-Sec Rate  Max 1-Sec Time  Max 5-Sec Rate  Max 5-Sec Time  Max 10Sec Rate  Max 10Sec Time  Avg Frame Size  Max Frame Size  Max Frame Time 
------          -------         ------          --------------  --------------  --------------  --------------  --------------  --------------  --------------  --------------  --------------  -------------- 
1               0:00:00.000     0:03:57.136     12 270 kbps     27 347 kbps     00:00:16.449    18 769 kbps     00:00:13.980    16 437 kbps     00:00:37.103    51 699 bytes    354 476 bytes   00:02:51.304   

STREAM DIAGNOSTICS:

File            PID             Type            Codec           Language                Seconds                 Bitrate                 Bytes           Packets        
----            ---             ----            -----           --------                --------------          --------------          -------------   -----          
00002.M2TS      4113 (0x1011)   0xEA            VC-1                                    237,070                 12 273                  363 702 979     1 980 921      
00002.M2TS      4352 (0x1100)   0x81            AC3             eng (English)           237,070                 192                     5 691 648       37 055         
00002.M2TS      4353 (0x1101)   0x81            AC3             rus (Russian)           237,070                 192                     5 692 416       37 060         
00002.M2TS      4608 (0x1200)   0x90            PGS             eng (English)           237,070                 64                      1 897 236       10 764         
00002.M2TS      4609 (0x1201)   0x90            PGS             zho (Chinese)           237,070                 65                      1 938 582       11 047         
00002.M2TS      4610 (0x1202)   0x90            PGS             ces (Czech)             237,070                 55                      1 621 114       9 252          
00002.M2TS      4611 (0x1203)   0x90            PGS             hun (Hungarian)         237,070                 58                      1 724 535       9 826          
00002.M2TS      4612 (0x1204)   0x90            PGS             pol (Polish)            237,070                 48                      1 419 653       8 147          
00002.M2TS      4613 (0x1205)   0x90            PGS             por (Portuguese)        237,070                 61                      1 821 237       10 363         
00002.M2TS      4614 (0x1206)   0x90            PGS             rus (Russian)           237,070                 62                      1 837 152       10 423         
00002.M2TS      4615 (0x1207)   0x90            PGS             tur (Turkish)           237,070                 55                      1 629 150       9 297          

[/code]
<---- END FORUMS PASTE ---->

QUICK SUMMARY:

Disc Title: Gran Torino (2008)
Disc Size: 35 663 183 827 bytes
Protection: AACS
BD-Java: Yes
Playlist: 00202.MPLS
Size: 411 285 504 bytes
Length: 0:03:57
Total Bitrate: 13,88 Mbps
Video: VC-1 Video / 12270 kbps / 1080i / 29,970 fps / 16:9 / Advanced Profile 3
Audio: English / Dolby Digital Audio / 2.0 / 48 kHz / 192 kbps / DN -4dB / Dolby Surround
Audio: Russian / Dolby Digital Audio / 2.0 / 48 kHz / 192 kbps / DN -4dB
Subtitle: English / 64,005 kbps
Subtitle: Chinese / 65,400 kbps
Subtitle: Czech / 54,690 kbps
Subtitle: Hungarian / 58,179 kbps
Subtitle: Polish / 47,893 kbps
Subtitle: Portuguese / 61,441 kbps
Subtitle: Russian / 61,978 kbps
Subtitle: Turkish / 54,961 kbps


********************
PLAYLIST: 00009.MPLS
********************

<--- BEGIN FORUMS PASTE --->
[code]
                                                                                                                Total   Video                                            
Title                                                           Codec   Length  Movie Size      Disc Size       Bitrate Bitrate Main Audio Track                          Secondary Audio Track
-----                                                           ------  ------- --------------  --------------  ------- ------- ------------------                        ---------------------
00009.MPLS                                                      VC-1    0:00:50 28 870 656      35 663 183 827  4,61    4,35                                             
[/code]

[code]

DISC INFO:

Disc Title:     Gran Torino (2008)
Disc Size:      35 663 183 827 bytes
Protection:     AACS
BD-Java:        Yes
BDInfo:         0.5.6

PLAYLIST REPORT:

Name:                   00009.MPLS
Length:                 0:00:50 (h:m:s)
Size:                   28 870 656 bytes
Total Bitrate:          4,61 Mbps

VIDEO:

Codec                   Bitrate             Description    
-----                   -------             -----------    
VC-1 Video              4351 kbps           1080p / 23,976 fps / 16:9 / Advanced Profile 3

FILES:

Name            Time In         Length          Size            Total Bitrate  
----            -------         ------          ----            -------------  
00005.M2TS      0:00:00.000     0:00:50.049     28 870 656      4 615          

CHAPTERS:

Number          Time In         Length          Avg Video Rate  Max 1-Sec Rate  Max 1-Sec Time  Max 5-Sec Rate  Max 5-Sec Time  Max 10Sec Rate  Max 10Sec Time  Avg Frame Size  Max Frame Size  Max Frame Time 
------          -------         ------          --------------  --------------  --------------  --------------  --------------  --------------  --------------  --------------  --------------  -------------- 
1               0:00:00.000     0:00:10.009     4 222 kbps      6 813 kbps      00:00:09.008    4 463 kbps      00:00:05.004    4 017 kbps      00:00:00.000    21 918 bytes    305 841 bytes   00:00:10.009   
2               0:00:10.009     0:00:10.009     4 595 kbps      7 230 kbps      00:00:19.018    5 048 kbps      00:00:15.014    4 595 kbps      00:00:10.010    23 956 bytes    305 941 bytes   00:00:14.681   
3               0:00:20.019     0:00:10.009     4 018 kbps      6 340 kbps      00:00:29.028    4 418 kbps      00:00:25.024    4 018 kbps      00:00:20.020    20 949 bytes    267 434 bytes   00:00:21.771   
4               0:00:30.029     0:00:10.009     3 571 kbps      6 050 kbps      00:00:39.038    3 971 kbps      00:00:35.034    3 571 kbps      00:00:30.029    18 618 bytes    267 545 bytes   00:00:40.039   
5               0:00:40.039     0:00:10.009     5 351 kbps      6 654 kbps      00:00:46.296    5 866 kbps      00:00:44.043    0 kbps          00:00:00.000    28 013 bytes    367 931 bytes   00:00:47.630   

STREAM DIAGNOSTICS:

File            PID             Type            Codec           Language                Seconds                 Bitrate                 Bytes           Packets        
----            ---             ----            -----           --------                --------------          --------------          -------------   -----          
00005.M2TS      4113 (0x1011)   0xEA            VC-1                                    49,967                  4 359                   27 222 928      148 673        

[/code]
<---- END FORUMS PASTE ---->

QUICK SUMMARY:

Disc Title: Gran Torino (2008)
Disc Size: 35 663 183 827 bytes
Protection: AACS
BD-Java: Yes
Playlist: 00009.MPLS
Size: 28 870 656 bytes
Length: 0:00:50
Total Bitrate: 4,61 Mbps
Video: VC-1 Video / 4351 kbps / 1080p / 23,976 fps / 16:9 / Advanced Profile 3