CopyPastehas never been so tasty!

PBS Cuba - The Accidental Eden

by anonymous

  • 0
  • 0
260 views

Disc Title:     PBS Cuba - The Accidental Eden (2010)
Disc Size:      14 557 048 491 bytes
Protection:     AACS
BD-Java:        Yes
BDInfo:         0.5.6

Notes:         

BDINFO HOME:
  Cinema Squid
    http://www.cinemasquid.com/blu-ray/tools/bdinfo

INCLUDES FORUMS REPORT FOR:
  AVS Forum Blu-ray Audio and Video Specifications Thread
    http://www.avsforum.com/avs-vb/showthread.php?t=1155731


********************
PLAYLIST: 00002.MPLS
********************

<--- BEGIN FORUMS PASTE --->
[code]
                                                                                                                Total   Video                                            
Title                                                           Codec   Length  Movie Size      Disc Size       Bitrate Bitrate Main Audio Track                          Secondary Audio Track
-----                                                           ------  ------- --------------  --------------  ------- ------- ------------------                        ---------------------
00002.MPLS                                                      AVC     0:53:02 14 312 718 336  14 557 048 491  35,98   33,19   DD AC3 5.1 640Kbps                       
[/code]

[code]

DISC INFO:

Disc Title:     PBS Cuba - The Accidental Eden (2010)
Disc Size:      14 557 048 491 bytes
Protection:     AACS
BD-Java:        Yes
BDInfo:         0.5.6

PLAYLIST REPORT:

Name:                   00002.MPLS
Length:                 0:53:02 (h:m:s)
Size:                   14 312 718 336 bytes
Total Bitrate:          35,98 Mbps

VIDEO:

Codec                   Bitrate             Description    
-----                   -------             -----------    
MPEG-4 AVC Video        33194 kbps          1080i / 29,970 fps / 16:9 / High Profile 4.1

AUDIO:

Codec                           Language        Bitrate         Description    
-----                           --------        -------         -----------    
Dolby Digital Audio             English         640 kbps        5.1 / 48 kHz / 640 kbps / DN -4dB
Dolby Digital Audio             English         224 kbps        2.0 / 48 kHz / 224 kbps / DN -4dB
Dolby Digital Audio             Russian         192 kbps        2.0 / 48 kHz / 192 kbps

SUBTITLES:

Codec                           Language        Bitrate         Description    
-----                           --------        -------         -----------    
Presentation Graphics           English         34,170 kbps                    
Presentation Graphics           Russian         5,862 kbps                     

FILES:

Name            Time In         Length          Size            Total Bitrate  
----            -------         ------          ----            -------------  
00002.M2TS      0:00:00.000     0:53:02.179     14 312 718 336  35 982         

CHAPTERS:

Number          Time In         Length          Avg Video Rate  Max 1-Sec Rate  Max 1-Sec Time  Max 5-Sec Rate  Max 5-Sec Time  Max 10Sec Rate  Max 10Sec Time  Avg Frame Size  Max Frame Size  Max Frame Time 
------          -------         ------          --------------  --------------  --------------  --------------  --------------  --------------  --------------  --------------  --------------  -------------- 
1               0:00:00.000     0:02:17.537     33 185 kbps     56 601 kbps     00:00:01.267    37 013 kbps     00:00:00.033    34 726 kbps     00:01:23.783    138 377 bytes   756 168 bytes   00:00:02.168   
2               0:02:17.537     0:10:50.449     33 201 kbps     42 503 kbps     00:08:15.995    36 549 kbps     00:08:16.329    35 068 kbps     00:08:11.991    138 474 bytes   536 020 bytes   00:03:24.137   
3               0:13:07.987     0:08:33.045     33 196 kbps     45 874 kbps     00:16:20.079    36 138 kbps     00:16:19.278    34 823 kbps     00:16:19.278    138 457 bytes   527 233 bytes   00:16:20.245   
4               0:21:41.033     0:11:08.000     33 194 kbps     47 028 kbps     00:24:19.558    36 303 kbps     00:24:16.655    34 742 kbps     00:24:10.649    138 446 bytes   746 345 bytes   00:30:20.919   
5               0:32:49.033     0:10:52.985     33 195 kbps     44 721 kbps     00:39:30.067    36 218 kbps     00:39:26.097    34 974 kbps     00:33:15.493    138 450 bytes   616 531 bytes   00:39:27.164   
6               0:43:42.019     0:08:30.176     33 193 kbps     44 043 kbps     00:46:35.626    35 984 kbps     00:46:32.723    34 702 kbps     00:45:14.144    138 444 bytes   571 261 bytes   00:45:18.115   
7               0:52:12.195     0:00:49.983     33 089 kbps     40 439 kbps     00:52:53.703    35 127 kbps     00:52:50.901    34 121 kbps     00:52:12.229    138 101 bytes   333 132 bytes   00:52:12.262   

STREAM DIAGNOSTICS:

File            PID             Type            Codec           Language                Seconds                 Bitrate                 Bytes           Packets        
----            ---             ----            -----           --------                --------------          --------------          -------------   -----          
00002.M2TS      4113 (0x1011)   0x1B            AVC                                     3182,046                33 195                  13 203 553 540  71 862 064     
00002.M2TS      4352 (0x1100)   0x81            AC3             eng (English)           3182,046                640                     254 576 640     1 491 660      
00002.M2TS      4353 (0x1101)   0x81            AC3             rus (Russian)           3182,046                192                     76 316 160      496 850        
00002.M2TS      4354 (0x1102)   0x81            AC3             eng (English)           3182,046                224                     89 101 824      497 220        
00002.M2TS      4608 (0x1200)   0x90            PGS             eng (English)           3182,046                34                      13 591 746      77 787         
00002.M2TS      4609 (0x1201)   0x90            PGS             rus (Russian)           3182,046                6                       2 331 893       13 178         

[/code]
<---- END FORUMS PASTE ---->

QUICK SUMMARY:

Disc Title: PBS Cuba - The Accidental Eden (2010)
Disc Size: 14 557 048 491 bytes
Protection: AACS
BD-Java: Yes
Playlist: 00002.MPLS
Size: 14 312 718 336 bytes
Length: 0:53:02
Total Bitrate: 35,98 Mbps
Video: MPEG-4 AVC Video / 33194 kbps / 1080i / 29,970 fps / 16:9 / High Profile 4.1
Audio: English / Dolby Digital Audio / 5.1 / 48 kHz / 640 kbps / DN -4dB
Audio: English / Dolby Digital Audio / 2.0 / 48 kHz / 224 kbps / DN -4dB
Audio: Russian / Dolby Digital Audio / 2.0 / 48 kHz / 192 kbps
Subtitle: English / 34,170 kbps
Subtitle: Russian / 5,862 kbps


********************
PLAYLIST: 01002.MPLS
********************

<--- BEGIN FORUMS PASTE --->
[code]
                                                                                                                Total   Video                                            
Title                                                           Codec   Length  Movie Size      Disc Size       Bitrate Bitrate Main Audio Track                          Secondary Audio Track
-----                                                           ------  ------- --------------  --------------  ------- ------- ------------------                        ---------------------
01002.MPLS                                                      AVC     0:53:02 14 312 718 336  14 557 048 491  35,98   33,19   DD AC3 5.1 640Kbps                       
[/code]

[code]

DISC INFO:

Disc Title:     PBS Cuba - The Accidental Eden (2010)
Disc Size:      14 557 048 491 bytes
Protection:     AACS
BD-Java:        Yes
BDInfo:         0.5.6

PLAYLIST REPORT:

Name:                   01002.MPLS
Length:                 0:53:02 (h:m:s)
Size:                   14 312 718 336 bytes
Total Bitrate:          35,98 Mbps

VIDEO:

Codec                   Bitrate             Description    
-----                   -------             -----------    
MPEG-4 AVC Video        33194 kbps          1080i / 29,970 fps / 16:9 / High Profile 4.1

AUDIO:

Codec                           Language        Bitrate         Description    
-----                           --------        -------         -----------    
Dolby Digital Audio             English         640 kbps        5.1 / 48 kHz / 640 kbps / DN -4dB
Dolby Digital Audio             English         224 kbps        2.0 / 48 kHz / 224 kbps / DN -4dB
Dolby Digital Audio             Russian         192 kbps        2.0 / 48 kHz / 192 kbps

SUBTITLES:

Codec                           Language        Bitrate         Description    
-----                           --------        -------         -----------    
Presentation Graphics           English         34,170 kbps                    
Presentation Graphics           Russian         5,862 kbps                     

FILES:

Name            Time In         Length          Size            Total Bitrate  
----            -------         ------          ----            -------------  
00002.M2TS      0:00:00.000     0:53:02.179     14 312 718 336  35 982         

CHAPTERS:

Number          Time In         Length          Avg Video Rate  Max 1-Sec Rate  Max 1-Sec Time  Max 5-Sec Rate  Max 5-Sec Time  Max 10Sec Rate  Max 10Sec Time  Avg Frame Size  Max Frame Size  Max Frame Time 
------          -------         ------          --------------  --------------  --------------  --------------  --------------  --------------  --------------  --------------  --------------  -------------- 
1               0:00:00.000     0:02:17.537     33 185 kbps     56 601 kbps     00:00:01.267    37 013 kbps     00:00:00.033    34 726 kbps     00:01:23.783    138 377 bytes   756 168 bytes   00:00:02.168   
2               0:02:17.537     0:10:50.449     33 201 kbps     42 503 kbps     00:08:15.995    36 549 kbps     00:08:16.329    35 068 kbps     00:08:11.991    138 474 bytes   536 020 bytes   00:03:24.137   
3               0:13:07.987     0:08:33.045     33 196 kbps     45 874 kbps     00:16:20.079    36 138 kbps     00:16:19.278    34 823 kbps     00:16:19.278    138 457 bytes   527 233 bytes   00:16:20.245   
4               0:21:41.033     0:11:08.000     33 194 kbps     47 028 kbps     00:24:19.558    36 303 kbps     00:24:16.655    34 742 kbps     00:24:10.649    138 446 bytes   746 345 bytes   00:30:20.919   
5               0:32:49.033     0:10:52.985     33 195 kbps     44 721 kbps     00:39:30.067    36 218 kbps     00:39:26.097    34 974 kbps     00:33:15.493    138 450 bytes   616 531 bytes   00:39:27.164   
6               0:43:42.019     0:08:30.176     33 193 kbps     44 043 kbps     00:46:35.626    35 984 kbps     00:46:32.723    34 702 kbps     00:45:14.144    138 444 bytes   571 261 bytes   00:45:18.115   
7               0:52:12.195     0:00:49.983     33 089 kbps     40 439 kbps     00:52:53.703    35 127 kbps     00:52:50.901    34 121 kbps     00:52:12.229    138 101 bytes   333 132 bytes   00:52:12.262   

STREAM DIAGNOSTICS:

File            PID             Type            Codec           Language                Seconds                 Bitrate                 Bytes           Packets        
----            ---             ----            -----           --------                --------------          --------------          -------------   -----          
00002.M2TS      4113 (0x1011)   0x1B            AVC                                     3182,046                33 195                  13 203 553 540  71 862 064     
00002.M2TS      4352 (0x1100)   0x81            AC3             eng (English)           3182,046                640                     254 576 640     1 491 660      
00002.M2TS      4353 (0x1101)   0x81            AC3             rus (Russian)           3182,046                192                     76 316 160      496 850        
00002.M2TS      4354 (0x1102)   0x81            AC3             eng (English)           3182,046                224                     89 101 824      497 220        
00002.M2TS      4608 (0x1200)   0x90            PGS             eng (English)           3182,046                34                      13 591 746      77 787         
00002.M2TS      4609 (0x1201)   0x90            PGS             rus (Russian)           3182,046                6                       2 331 893       13 178         

[/code]
<---- END FORUMS PASTE ---->

QUICK SUMMARY:

Disc Title: PBS Cuba - The Accidental Eden (2010)
Disc Size: 14 557 048 491 bytes
Protection: AACS
BD-Java: Yes
Playlist: 01002.MPLS
Size: 14 312 718 336 bytes
Length: 0:53:02
Total Bitrate: 35,98 Mbps
Video: MPEG-4 AVC Video / 33194 kbps / 1080i / 29,970 fps / 16:9 / High Profile 4.1
Audio: English / Dolby Digital Audio / 5.1 / 48 kHz / 640 kbps / DN -4dB
Audio: English / Dolby Digital Audio / 2.0 / 48 kHz / 224 kbps / DN -4dB
Audio: Russian / Dolby Digital Audio / 2.0 / 48 kHz / 192 kbps
Subtitle: English / 34,170 kbps
Subtitle: Russian / 5,862 kbps


********************
PLAYLIST: 00001.MPLS
********************

<--- BEGIN FORUMS PASTE --->
[code]
                                                                                                                Total   Video                                            
Title                                                           Codec   Length  Movie Size      Disc Size       Bitrate Bitrate Main Audio Track                          Secondary Audio Track
-----                                                           ------  ------- --------------  --------------  ------- ------- ------------------                        ---------------------
00001.MPLS                                                      MPEG-2  0:00:48 196 879 680     14 557 048 491  32,55   29,34   LPCM 2.0 1536Kbps (48kHz/16-bit)         
[/code]

[code]

DISC INFO:

Disc Title:     PBS Cuba - The Accidental Eden (2010)
Disc Size:      14 557 048 491 bytes
Protection:     AACS
BD-Java:        Yes
BDInfo:         0.5.6

PLAYLIST REPORT:

Name:                   00001.MPLS
Length:                 0:00:48 (h:m:s)
Size:                   196 879 680 bytes
Total Bitrate:          32,55 Mbps

VIDEO:

Codec                   Bitrate             Description    
-----                   -------             -----------    
MPEG-2 Video            29337 kbps          1080i / 29,970 fps / 16:9

AUDIO:

Codec                           Language        Bitrate         Description    
-----                           --------        -------         -----------    
LPCM Audio                      English         1536 kbps       2.0 / 48 kHz / 1536 kbps / 16-bit

FILES:

Name            Time In         Length          Size            Total Bitrate  
----            -------         ------          ----            -------------  
00001.M2TS      0:00:00.000     0:00:48.381     196 879 680     32 532         

CHAPTERS:

Number          Time In         Length          Avg Video Rate  Max 1-Sec Rate  Max 1-Sec Time  Max 5-Sec Rate  Max 5-Sec Time  Max 10Sec Rate  Max 10Sec Time  Avg Frame Size  Max Frame Size  Max Frame Time 
------          -------         ------          --------------  --------------  --------------  --------------  --------------  --------------  --------------  --------------  --------------  -------------- 
1               0:00:00.000     0:00:02.001     25 544 kbps     34 381 kbps     00:00:01.000    0 kbps          00:00:00.000    0 kbps          00:00:00.000    104 794 bytes   325 710 bytes   00:00:01.501   
2               0:00:02.001     0:00:46.379     29 521 kbps     39 024 kbps     00:00:21.488    34 182 kbps     00:00:37.203    32 280 kbps     00:00:21.888    123 129 bytes   436 684 bytes   00:00:46.046   

STREAM DIAGNOSTICS:

File            PID             Type            Codec           Language                Seconds                 Bitrate                 Bytes           Packets        
----            ---             ----            -----           --------                --------------          --------------          -------------   -----          
00001.M2TS      4113 (0x1011)   0x02            MPEG-2                                  48,348                  29 384                  177 582 017     965 951        
00001.M2TS      4352 (0x1100)   0x80            LPCM            eng (English)           48,348                  1 546                   9 341 160       58 140         

[/code]
<---- END FORUMS PASTE ---->

QUICK SUMMARY:

Disc Title: PBS Cuba - The Accidental Eden (2010)
Disc Size: 14 557 048 491 bytes
Protection: AACS
BD-Java: Yes
Playlist: 00001.MPLS
Size: 196 879 680 bytes
Length: 0:00:48
Total Bitrate: 32,55 Mbps
Video: MPEG-2 Video / 29337 kbps / 1080i / 29,970 fps / 16:9
Audio: English / LPCM Audio / 2.0 / 48 kHz / 1536 kbps / 16-bit


********************
PLAYLIST: 01001.MPLS
********************

<--- BEGIN FORUMS PASTE --->
[code]
                                                                                                                Total   Video                                            
Title                                                           Codec   Length  Movie Size      Disc Size       Bitrate Bitrate Main Audio Track                          Secondary Audio Track
-----                                                           ------  ------- --------------  --------------  ------- ------- ------------------                        ---------------------
01001.MPLS                                                      MPEG-2  0:00:48 196 879 680     14 557 048 491  32,55   29,34   LPCM 2.0 1536Kbps (48kHz/16-bit)         
[/code]

[code]

DISC INFO:

Disc Title:     PBS Cuba - The Accidental Eden (2010)
Disc Size:      14 557 048 491 bytes
Protection:     AACS
BD-Java:        Yes
BDInfo:         0.5.6

PLAYLIST REPORT:

Name:                   01001.MPLS
Length:                 0:00:48 (h:m:s)
Size:                   196 879 680 bytes
Total Bitrate:          32,55 Mbps

VIDEO:

Codec                   Bitrate             Description    
-----                   -------             -----------    
MPEG-2 Video            29337 kbps          1080i / 29,970 fps / 16:9

AUDIO:

Codec                           Language        Bitrate         Description    
-----                           --------        -------         -----------    
LPCM Audio                      English         1536 kbps       2.0 / 48 kHz / 1536 kbps / 16-bit

FILES:

Name            Time In         Length          Size            Total Bitrate  
----            -------         ------          ----            -------------  
00001.M2TS      0:00:00.000     0:00:48.381     196 879 680     32 532         

CHAPTERS:

Number          Time In         Length          Avg Video Rate  Max 1-Sec Rate  Max 1-Sec Time  Max 5-Sec Rate  Max 5-Sec Time  Max 10Sec Rate  Max 10Sec Time  Avg Frame Size  Max Frame Size  Max Frame Time 
------          -------         ------          --------------  --------------  --------------  --------------  --------------  --------------  --------------  --------------  --------------  -------------- 
1               0:00:00.000     0:00:02.001     25 544 kbps     34 381 kbps     00:00:01.000    0 kbps          00:00:00.000    0 kbps          00:00:00.000    104 794 bytes   325 710 bytes   00:00:01.501   
2               0:00:02.001     0:00:46.379     29 521 kbps     39 024 kbps     00:00:21.488    34 182 kbps     00:00:37.203    32 280 kbps     00:00:21.888    123 129 bytes   436 684 bytes   00:00:46.046   

STREAM DIAGNOSTICS:

File            PID             Type            Codec           Language                Seconds                 Bitrate                 Bytes           Packets        
----            ---             ----            -----           --------                --------------          --------------          -------------   -----          
00001.M2TS      4113 (0x1011)   0x02            MPEG-2                                  48,348                  29 384                  177 582 017     965 951        
00001.M2TS      4352 (0x1100)   0x80            LPCM            eng (English)           48,348                  1 546                   9 341 160       58 140         

[/code]
<---- END FORUMS PASTE ---->

QUICK SUMMARY:

Disc Title: PBS Cuba - The Accidental Eden (2010)
Disc Size: 14 557 048 491 bytes
Protection: AACS
BD-Java: Yes
Playlist: 01001.MPLS
Size: 196 879 680 bytes
Length: 0:00:48
Total Bitrate: 32,55 Mbps
Video: MPEG-2 Video / 29337 kbps / 1080i / 29,970 fps / 16:9
Audio: English / LPCM Audio / 2.0 / 48 kHz / 1536 kbps / 16-bit