CopyPastehas never been so tasty!

В бой идут одни «старики»

by anonymous

  • 0
  • 0
188 views

Disc Title:     V boy idut odni stariki (1973)
Disc Size:      28 089 584 471 bytes
Protection:     AACS
BD-Java:        No
BDInfo:         0.5.6

Notes:         

BDINFO HOME:
  Cinema Squid
    http://www.cinemasquid.com/blu-ray/tools/bdinfo

INCLUDES FORUMS REPORT FOR:
  AVS Forum Blu-ray Audio and Video Specifications Thread
    http://www.avsforum.com/avs-vb/showthread.php?t=1155731


********************
PLAYLIST: 00005.MPLS
********************

<--- BEGIN FORUMS PASTE --->
[code]
                                                                                                                Total   Video                                            
Title                                                           Codec   Length  Movie Size      Disc Size       Bitrate Bitrate Main Audio Track                          Secondary Audio Track
-----                                                           ------  ------- --------------  --------------  ------- ------- ------------------                        ---------------------
00005.MPLS                                                      AVC     1:31:53 21 608 583 168  28 089 584 471  31,36   27,99   DTS-HD Master 5.1 1695Kbps (48kHz/16-bit)
[/code]

[code]

DISC INFO:

Disc Title:     V boy idut odni stariki (1973)
Disc Size:      28 089 584 471 bytes
Protection:     AACS
BD-Java:        No
BDInfo:         0.5.6

PLAYLIST REPORT:

Name:                   00005.MPLS
Length:                 1:31:53 (h:m:s)
Size:                   21 608 583 168 bytes
Total Bitrate:          31,36 Mbps

VIDEO:

Codec                   Bitrate             Description    
-----                   -------             -----------    
MPEG-4 AVC Video        27995 kbps          1080p / 24 fps / 16:9 / High Profile 4.1

AUDIO:

Codec                           Language        Bitrate         Description    
-----                           --------        -------         -----------    
DTS-HD Master Audio             Russian         1695 kbps       5.1 / 48 kHz / 1695 kbps / 16-bit (DTS Core: 5.1 / 48 kHz / 1509 kbps / 16-bit)

SUBTITLES:

Codec                           Language        Bitrate         Description    
-----                           --------        -------         -----------    
Presentation Graphics           Russian         37,395 kbps                    
Presentation Graphics           Russian         22,899 kbps                    

FILES:

Name            Time In         Length          Size            Total Bitrate  
----            -------         ------          ----            -------------  
00007.M2TS      0:00:00.000     1:31:53.000     21 608 583 168  31 357         

CHAPTERS:

Number          Time In         Length          Avg Video Rate  Max 1-Sec Rate  Max 1-Sec Time  Max 5-Sec Rate  Max 5-Sec Time  Max 10Sec Rate  Max 10Sec Time  Avg Frame Size  Max Frame Size  Max Frame Time 
------          -------         ------          --------------  --------------  --------------  --------------  --------------  --------------  --------------  --------------  --------------  -------------- 
1               0:00:00.000     0:06:43.416     26 366 kbps     37 099 kbps     00:02:22.958    33 743 kbps     00:02:21.833    31 890 kbps     00:06:23.291    137 307 bytes   288 388 bytes   00:00:12.833   
2               0:06:43.416     0:04:29.125     28 246 kbps     39 028 kbps     00:07:33.958    36 073 kbps     00:07:46.000    34 469 kbps     00:06:44.124    147 115 bytes   277 558 bytes   00:07:37.000   
3               0:11:12.541     0:06:42.208     28 377 kbps     40 498 kbps     00:15:43.416    37 123 kbps     00:17:13.041    35 120 kbps     00:15:15.750    147 799 bytes   300 814 bytes   00:15:57.916   
4               0:17:54.750     0:05:20.041     28 396 kbps     41 566 kbps     00:21:35.791    37 449 kbps     00:20:35.250    35 595 kbps     00:21:27.583    147 893 bytes   308 272 bytes   00:21:34.500   
5               0:23:14.791     0:04:14.833     28 425 kbps     37 355 kbps     00:26:34.249    36 254 kbps     00:24:13.625    33 388 kbps     00:24:09.874    148 045 bytes   267 436 bytes   00:23:44.625   
6               0:27:29.625     0:07:09.291     28 356 kbps     39 645 kbps     00:32:35.749    34 408 kbps     00:32:31.750    33 165 kbps     00:32:26.749    147 689 bytes   284 485 bytes   00:29:50.916   
7               0:34:38.916     0:05:17.375     28 182 kbps     38 916 kbps     00:37:00.041    34 879 kbps     00:39:38.875    33 067 kbps     00:39:35.458    146 782 bytes   277 801 bytes   00:34:57.666   
8               0:39:56.291     0:04:52.041     26 946 kbps     35 846 kbps     00:41:27.666    33 597 kbps     00:39:57.750    30 907 kbps     00:39:56.666    140 344 bytes   251 800 bytes   00:43:21.500   
9               0:44:48.333     0:06:17.708     27 159 kbps     40 999 kbps     00:48:28.291    37 615 kbps     00:48:04.833    35 898 kbps     00:48:05.333    141 452 bytes   276 123 bytes   00:48:37.416   
10              0:51:06.041     0:05:32.541     29 145 kbps     40 560 kbps     00:55:35.875    38 161 kbps     00:55:46.333    37 152 kbps     00:55:43.500    151 799 bytes   280 968 bytes   00:51:08.291   
11              0:56:38.583     0:05:21.249     28 497 kbps     44 425 kbps     00:59:48.750    38 718 kbps     00:59:39.291    36 883 kbps     00:59:39.791    148 423 bytes   291 979 bytes   01:00:14.250   
12              1:01:59.833     0:06:12.875     28 486 kbps     41 408 kbps     01:02:10.958    38 561 kbps     01:02:09.875    35 379 kbps     01:02:05.583    148 365 bytes   273 379 bytes   01:02:12.583   
13              1:08:12.708     0:05:48.750     29 784 kbps     40 584 kbps     01:12:21.708    39 666 kbps     01:12:19.125    38 290 kbps     01:12:14.708    155 123 bytes   294 499 bytes   01:10:47.333   
14              1:14:01.458     0:05:56.083     28 140 kbps     38 667 kbps     01:19:07.708    35 878 kbps     01:14:35.458    33 799 kbps     01:19:33.666    146 563 bytes   263 410 bytes   01:15:52.833   
15              1:19:57.541     0:08:35.125     29 135 kbps     44 307 kbps     01:23:14.375    40 453 kbps     01:23:12.208    39 013 kbps     01:23:12.250    151 747 bytes   289 525 bytes   01:25:59.916   
16              1:28:32.666     0:03:20.333     21 074 kbps     39 153 kbps     01:30:37.375    38 208 kbps     01:30:33.416    38 031 kbps     01:30:28.375    109 785 bytes   255 650 bytes   01:29:39.250   

STREAM DIAGNOSTICS:

File            PID             Type            Codec           Language                Seconds                 Bitrate                 Bytes           Packets        
----            ---             ----            -----           --------                --------------          --------------          -------------   -----          
00007.M2TS      4113 (0x1011)   0x1B            AVC                                     5512,917                27 995                  19 291 756 729  104 924 382    
00007.M2TS      4352 (0x1100)   0x86            DTS-HD MA       rus (Russian)           5512,917                1 695                   1 168 220 920   7 197 314      
00007.M2TS      4608 (0x1200)   0x90            PGS             rus (Russian)           5512,917                37                      25 770 082      146 297        
00007.M2TS      4609 (0x1201)   0x90            PGS             rus (Russian)           5512,917                23                      15 780 416      91 984         

[/code]
<---- END FORUMS PASTE ---->

QUICK SUMMARY:

Disc Title: V boy idut odni stariki (1973)
Disc Size: 28 089 584 471 bytes
Protection: AACS
BD-Java: No
Playlist: 00005.MPLS
Size: 21 608 583 168 bytes
Length: 1:31:53
Total Bitrate: 31,36 Mbps
Video: MPEG-4 AVC Video / 27995 kbps / 1080p / 24 fps / 16:9 / High Profile 4.1
Audio: Russian / DTS-HD Master Audio / 5.1 / 48 kHz / 1695 kbps / 16-bit (DTS Core: 5.1 / 48 kHz / 1509 kbps / 16-bit)
Subtitle: Russian / 37,395 kbps
Subtitle: Russian / 22,899 kbps


********************
PLAYLIST: 00003.MPLS
********************

<--- BEGIN FORUMS PASTE --->
[code]
                                                                                                                Total   Video                                            
Title                                                           Codec   Length  Movie Size      Disc Size       Bitrate Bitrate Main Audio Track                          Secondary Audio Track
-----                                                           ------  ------- --------------  --------------  ------- ------- ------------------                        ---------------------
00003.MPLS                                                      MPEG-2  0:44:22 2 534 713 344   28 089 584 471  7,62    7,00    DD AC3 2.0 192Kbps                       
[/code]

[code]

DISC INFO:

Disc Title:     V boy idut odni stariki (1973)
Disc Size:      28 089 584 471 bytes
Protection:     AACS
BD-Java:        No
BDInfo:         0.5.6

PLAYLIST REPORT:

Name:                   00003.MPLS
Length:                 0:44:22 (h:m:s)
Size:                   2 534 713 344 bytes
Total Bitrate:          7,62 Mbps

VIDEO:

Codec                   Bitrate             Description    
-----                   -------             -----------    
MPEG-2 Video            6997 kbps           576i / 25 fps / 4:3

AUDIO:

Codec                           Language        Bitrate         Description    
-----                           --------        -------         -----------    
Dolby Digital Audio             Russian         192 kbps        2.0 / 48 kHz / 192 kbps

SUBTITLES:

Codec                           Language        Bitrate         Description    
-----                           --------        -------         -----------    
Presentation Graphics           Undetermined    0,046 kbps                     
Presentation Graphics           Undetermined    0,046 kbps                     

FILES:

Name            Time In         Length          Size            Total Bitrate  
----            -------         ------          ----            -------------  
00008.M2TS      0:00:00.000     0:44:22.719     2 534 713 344   7 615          

CHAPTERS:

Number          Time In         Length          Avg Video Rate  Max 1-Sec Rate  Max 1-Sec Time  Max 5-Sec Rate  Max 5-Sec Time  Max 10Sec Rate  Max 10Sec Time  Avg Frame Size  Max Frame Size  Max Frame Time 
------          -------         ------          --------------  --------------  --------------  --------------  --------------  --------------  --------------  --------------  --------------  -------------- 
1               0:00:00.000     0:44:22.719     6 997 kbps      9 650 kbps      00:42:56.000    8 614 kbps      00:22:31.600    8 395 kbps      00:14:25.160    34 986 bytes    160 611 bytes   00:25:54.480   

STREAM DIAGNOSTICS:

File            PID             Type            Codec           Language                Seconds                 Bitrate                 Bytes           Packets        
----            ---             ----            -----           --------                --------------          --------------          -------------   -----          
00008.M2TS      4113 (0x1011)   0x02            MPEG-2                                  2662,680                6 997                   2 328 959 285   12 696 158     
00008.M2TS      4352 (0x1100)   0x81            AC3             rus (Russian)           2662,680                192                     63 905 280      416 050        
00008.M2TS      4608 (0x1200)   0x90            PGS             und (Undetermined)      2662,680                0                       15 303          90             
00008.M2TS      4609 (0x1201)   0x90            PGS             und (Undetermined)      2662,680                0                       15 303          90             

[/code]
<---- END FORUMS PASTE ---->

QUICK SUMMARY:

Disc Title: V boy idut odni stariki (1973)
Disc Size: 28 089 584 471 bytes
Protection: AACS
BD-Java: No
Playlist: 00003.MPLS
Size: 2 534 713 344 bytes
Length: 0:44:22
Total Bitrate: 7,62 Mbps
Video: MPEG-2 Video / 6997 kbps / 576i / 25 fps / 4:3
Audio: Russian / Dolby Digital Audio / 2.0 / 48 kHz / 192 kbps
Subtitle: Undetermined / 0,046 kbps
Subtitle: Undetermined / 0,046 kbps


********************
PLAYLIST: 00012.MPLS
********************

<--- BEGIN FORUMS PASTE --->
[code]
                                                                                                                Total   Video                                            
Title                                                           Codec   Length  Movie Size      Disc Size       Bitrate Bitrate Main Audio Track                          Secondary Audio Track
-----                                                           ------  ------- --------------  --------------  ------- ------- ------------------                        ---------------------
00012.MPLS                                                      MPEG-2  0:25:44 1 622 575 104   28 089 584 471  8,40    7,75    DD AC3 2.0 192Kbps                       
[/code]

[code]

DISC INFO:

Disc Title:     V boy idut odni stariki (1973)
Disc Size:      28 089 584 471 bytes
Protection:     AACS
BD-Java:        No
BDInfo:         0.5.6

PLAYLIST REPORT:

Name:                   00012.MPLS
Length:                 0:25:44 (h:m:s)
Size:                   1 622 575 104 bytes
Total Bitrate:          8,40 Mbps

VIDEO:

Codec                   Bitrate             Description    
-----                   -------             -----------    
MPEG-2 Video            7753 kbps           576i / 25 fps / 4:3

AUDIO:

Codec                           Language        Bitrate         Description    
-----                           --------        -------         -----------    
Dolby Digital Audio             Russian         192 kbps        2.0 / 48 kHz / 192 kbps

SUBTITLES:

Codec                           Language        Bitrate         Description    
-----                           --------        -------         -----------    
Presentation Graphics           Undetermined    0,079 kbps                     
Presentation Graphics           Undetermined    0,079 kbps                     

FILES:

Name            Time In         Length          Size            Total Bitrate  
----            -------         ------          ----            -------------  
00015.M2TS      0:00:00.000     0:25:44.560     1 622 575 104   8 404          

CHAPTERS:

Number          Time In         Length          Avg Video Rate  Max 1-Sec Rate  Max 1-Sec Time  Max 5-Sec Rate  Max 5-Sec Time  Max 10Sec Rate  Max 10Sec Time  Avg Frame Size  Max Frame Size  Max Frame Time 
------          -------         ------          --------------  --------------  --------------  --------------  --------------  --------------  --------------  --------------  --------------  -------------- 
1               0:00:00.000     0:25:44.560     7 753 kbps      9 086 kbps      00:22:27.320    8 027 kbps      00:08:06.640    7 877 kbps      00:22:54.560    38 766 bytes    187 718 bytes   00:12:46.559   

STREAM DIAGNOSTICS:

File            PID             Type            Codec           Language                Seconds                 Bitrate                 Bytes           Packets        
----            ---             ----            -----           --------                --------------          --------------          -------------   -----          
00015.M2TS      4113 (0x1011)   0x02            MPEG-2                                  1544,520                7 753                   1 496 907 286   8 157 625      
00015.M2TS      4352 (0x1100)   0x81            AC3             rus (Russian)           1544,520                192                     37 069 824      241 340        
00015.M2TS      4608 (0x1200)   0x90            PGS             und (Undetermined)      1544,520                0                       15 303          90             
00015.M2TS      4609 (0x1201)   0x90            PGS             und (Undetermined)      1544,520                0                       15 303          90             

[/code]
<---- END FORUMS PASTE ---->

QUICK SUMMARY:

Disc Title: V boy idut odni stariki (1973)
Disc Size: 28 089 584 471 bytes
Protection: AACS
BD-Java: No
Playlist: 00012.MPLS
Size: 1 622 575 104 bytes
Length: 0:25:44
Total Bitrate: 8,40 Mbps
Video: MPEG-2 Video / 7753 kbps / 576i / 25 fps / 4:3
Audio: Russian / Dolby Digital Audio / 2.0 / 48 kHz / 192 kbps
Subtitle: Undetermined / 0,079 kbps
Subtitle: Undetermined / 0,079 kbps


********************
PLAYLIST: 00011.MPLS
********************

<--- BEGIN FORUMS PASTE --->
[code]
                                                                                                                Total   Video                                            
Title                                                           Codec   Length  Movie Size      Disc Size       Bitrate Bitrate Main Audio Track                          Secondary Audio Track
-----                                                           ------  ------- --------------  --------------  ------- ------- ------------------                        ---------------------
00011.MPLS                                                      MPEG-2  0:10:15 746 704 896     28 089 584 471  9,71    9,00    DD AC3 2.0 192Kbps                       
[/code]

[code]

DISC INFO:

Disc Title:     V boy idut odni stariki (1973)
Disc Size:      28 089 584 471 bytes
Protection:     AACS
BD-Java:        No
BDInfo:         0.5.6

PLAYLIST REPORT:

Name:                   00011.MPLS
Length:                 0:10:15 (h:m:s)
Size:                   746 704 896 bytes
Total Bitrate:          9,71 Mbps

VIDEO:

Codec                   Bitrate             Description    
-----                   -------             -----------    
MPEG-2 Video            9000 kbps           576i / 25 fps / 4:3

AUDIO:

Codec                           Language        Bitrate         Description    
-----                           --------        -------         -----------    
Dolby Digital Audio             Russian         192 kbps        2.0 / 48 kHz / 192 kbps / DN -4dB

SUBTITLES:

Codec                           Language        Bitrate         Description    
-----                           --------        -------         -----------    
Presentation Graphics           Undetermined    0,199 kbps                     
Presentation Graphics           Undetermined    0,199 kbps                     

FILES:

Name            Time In         Length          Size            Total Bitrate  
----            -------         ------          ----            -------------  
00014.M2TS      0:00:00.000     0:10:15.480     746 704 896     9 706          

CHAPTERS:

Number          Time In         Length          Avg Video Rate  Max 1-Sec Rate  Max 1-Sec Time  Max 5-Sec Rate  Max 5-Sec Time  Max 10Sec Rate  Max 10Sec Time  Avg Frame Size  Max Frame Size  Max Frame Time 
------          -------         ------          --------------  --------------  --------------  --------------  --------------  --------------  --------------  --------------  --------------  -------------- 
1               0:00:00.000     0:10:15.480     9 000 kbps      9 810 kbps      00:02:00.799    9 192 kbps      00:01:07.000    9 094 kbps      00:01:02.800    45 000 bytes    129 424 bytes   00:02:49.200   

STREAM DIAGNOSTICS:

File            PID             Type            Codec           Language                Seconds                 Bitrate                 Bytes           Packets        
----            ---             ----            -----           --------                --------------          --------------          -------------   -----          
00014.M2TS      4113 (0x1011)   0x02            MPEG-2                                  615,360                 9 002                   692 415 188     3 772 100      
00014.M2TS      4352 (0x1100)   0x81            AC3             rus (Russian)           615,360                 192                     14 770 176      96 160         
00014.M2TS      4608 (0x1200)   0x90            PGS             und (Undetermined)      615,360                 0                       15 303          90             
00014.M2TS      4609 (0x1201)   0x90            PGS             und (Undetermined)      615,360                 0                       15 303          90             

[/code]
<---- END FORUMS PASTE ---->

QUICK SUMMARY:

Disc Title: V boy idut odni stariki (1973)
Disc Size: 28 089 584 471 bytes
Protection: AACS
BD-Java: No
Playlist: 00011.MPLS
Size: 746 704 896 bytes
Length: 0:10:15
Total Bitrate: 9,71 Mbps
Video: MPEG-2 Video / 9000 kbps / 576i / 25 fps / 4:3
Audio: Russian / Dolby Digital Audio / 2.0 / 48 kHz / 192 kbps / DN -4dB
Subtitle: Undetermined / 0,199 kbps
Subtitle: Undetermined / 0,199 kbps


********************
PLAYLIST: 00006.MPLS
********************

<--- BEGIN FORUMS PASTE --->
[code]
                                                                                                                Total   Video                                            
Title                                                           Codec   Length  Movie Size      Disc Size       Bitrate Bitrate Main Audio Track                          Secondary Audio Track
-----                                                           ------  ------- --------------  --------------  ------- ------- ------------------                        ---------------------
00006.MPLS                                                      MPEG-2  0:07:40 375 693 312     28 089 584 471  6,53    6,00    DD AC3 1.0 128Kbps                       
[/code]

[code]

DISC INFO:

Disc Title:     V boy idut odni stariki (1973)
Disc Size:      28 089 584 471 bytes
Protection:     AACS
BD-Java:        No
BDInfo:         0.5.6

PLAYLIST REPORT:

Name:                   00006.MPLS
Length:                 0:07:40 (h:m:s)
Size:                   375 693 312 bytes
Total Bitrate:          6,53 Mbps

VIDEO:

Codec                   Bitrate             Description    
-----                   -------             -----------    
MPEG-2 Video            6000 kbps           576i / 25 fps / 4:3

AUDIO:

Codec                           Language        Bitrate         Description    
-----                           --------        -------         -----------    
Dolby Digital Audio             Russian         128 kbps        1.0 / 48 kHz / 128 kbps / DN -4dB

SUBTITLES:

Codec                           Language        Bitrate         Description    
-----                           --------        -------         -----------    
Presentation Graphics           Russian         25,714 kbps                    
Presentation Graphics           Russian         17,704 kbps                    

FILES:

Name            Time In         Length          Size            Total Bitrate  
----            -------         ------          ----            -------------  
00009.M2TS      0:00:00.000     0:07:40.319     375 693 312     6 529          

CHAPTERS:

Number          Time In         Length          Avg Video Rate  Max 1-Sec Rate  Max 1-Sec Time  Max 5-Sec Rate  Max 5-Sec Time  Max 10Sec Rate  Max 10Sec Time  Avg Frame Size  Max Frame Size  Max Frame Time 
------          -------         ------          --------------  --------------  --------------  --------------  --------------  --------------  --------------  --------------  --------------  -------------- 
1               0:00:00.000     0:07:40.319     6 000 kbps      6 856 kbps      00:04:35.000    6 184 kbps      00:04:31.000    6 083 kbps      00:04:25.880    30 001 bytes    80 328 bytes    00:02:23.039   

STREAM DIAGNOSTICS:

File            PID             Type            Codec           Language                Seconds                 Bitrate                 Bytes           Packets        
----            ---             ----            -----           --------                --------------          --------------          -------------   -----          
00009.M2TS      4113 (0x1011)   0x02            MPEG-2                                  460,240                 6 001                   345 248 120     1 883 082      
00009.M2TS      4352 (0x1100)   0x81            AC3             rus (Russian)           460,240                 128                     7 357 952       43 113         
00009.M2TS      4608 (0x1200)   0x90            PGS             rus (Russian)           460,240                 26                      1 479 584       8 804          
00009.M2TS      4609 (0x1201)   0x90            PGS             rus (Russian)           460,240                 18                      1 018 684       6 297          

[/code]
<---- END FORUMS PASTE ---->

QUICK SUMMARY:

Disc Title: V boy idut odni stariki (1973)
Disc Size: 28 089 584 471 bytes
Protection: AACS
BD-Java: No
Playlist: 00006.MPLS
Size: 375 693 312 bytes
Length: 0:07:40
Total Bitrate: 6,53 Mbps
Video: MPEG-2 Video / 6000 kbps / 576i / 25 fps / 4:3
Audio: Russian / Dolby Digital Audio / 1.0 / 48 kHz / 128 kbps / DN -4dB
Subtitle: Russian / 25,714 kbps
Subtitle: Russian / 17,704 kbps


********************
PLAYLIST: 00007.MPLS
********************

<--- BEGIN FORUMS PASTE --->
[code]
                                                                                                                Total   Video                                            
Title                                                           Codec   Length  Movie Size      Disc Size       Bitrate Bitrate Main Audio Track                          Secondary Audio Track
-----                                                           ------  ------- --------------  --------------  ------- ------- ------------------                        ---------------------
00007.MPLS                                                      MPEG-2  0:07:03 358 674 432     28 089 584 471  6,78    6,00    DD AC3 3.0 320Kbps                       
[/code]

[code]

DISC INFO:

Disc Title:     V boy idut odni stariki (1973)
Disc Size:      28 089 584 471 bytes
Protection:     AACS
BD-Java:        No
BDInfo:         0.5.6

PLAYLIST REPORT:

Name:                   00007.MPLS
Length:                 0:07:03 (h:m:s)
Size:                   358 674 432 bytes
Total Bitrate:          6,78 Mbps

VIDEO:

Codec                   Bitrate             Description    
-----                   -------             -----------    
MPEG-2 Video            5999 kbps           576i / 25 fps / 4:3

AUDIO:

Codec                           Language        Bitrate         Description    
-----                           --------        -------         -----------    
Dolby Digital Audio             Russian         320 kbps        3.0 / 48 kHz / 320 kbps / DN -4dB

SUBTITLES:

Codec                           Language        Bitrate         Description    
-----                           --------        -------         -----------    
Presentation Graphics           Russian         29,083 kbps                    
Presentation Graphics           Russian         20,130 kbps                    

FILES:

Name            Time In         Length          Size            Total Bitrate  
----            -------         ------          ----            -------------  
00010.M2TS      0:00:00.000     0:07:03.520     358 674 432     6 775          

CHAPTERS:

Number          Time In         Length          Avg Video Rate  Max 1-Sec Rate  Max 1-Sec Time  Max 5-Sec Rate  Max 5-Sec Time  Max 10Sec Rate  Max 10Sec Time  Avg Frame Size  Max Frame Size  Max Frame Time 
------          -------         ------          --------------  --------------  --------------  --------------  --------------  --------------  --------------  --------------  --------------  -------------- 
1               0:00:00.000     0:07:03.520     5 999 kbps      7 051 kbps      00:06:47.159    6 233 kbps      00:06:43.000    6 106 kbps      00:06:38.040    29 994 bytes    88 872 bytes    00:06:47.600   

STREAM DIAGNOSTICS:

File            PID             Type            Codec           Language                Seconds                 Bitrate                 Bytes           Packets        
----            ---             ----            -----           --------                --------------          --------------          -------------   -----          
00010.M2TS      4113 (0x1011)   0x02            MPEG-2                                  423,440                 6 000                   317 574 536     1 732 164      
00010.M2TS      4352 (0x1100)   0x81            AC3             rus (Russian)           423,440                 320                     16 922 880      105 768        
00010.M2TS      4608 (0x1200)   0x90            PGS             rus (Russian)           423,440                 29                      1 539 638       9 258          
00010.M2TS      4609 (0x1201)   0x90            PGS             rus (Russian)           423,440                 20                      1 065 687       6 689          

[/code]
<---- END FORUMS PASTE ---->

QUICK SUMMARY:

Disc Title: V boy idut odni stariki (1973)
Disc Size: 28 089 584 471 bytes
Protection: AACS
BD-Java: No
Playlist: 00007.MPLS
Size: 358 674 432 bytes
Length: 0:07:03
Total Bitrate: 6,78 Mbps
Video: MPEG-2 Video / 5999 kbps / 576i / 25 fps / 4:3
Audio: Russian / Dolby Digital Audio / 3.0 / 48 kHz / 320 kbps / DN -4dB
Subtitle: Russian / 29,083 kbps
Subtitle: Russian / 20,130 kbps


********************
PLAYLIST: 00008.MPLS
********************

<--- BEGIN FORUMS PASTE --->
[code]
                                                                                                                Total   Video                                            
Title                                                           Codec   Length  Movie Size      Disc Size       Bitrate Bitrate Main Audio Track                          Secondary Audio Track
-----                                                           ------  ------- --------------  --------------  ------- ------- ------------------                        ---------------------
00008.MPLS                                                      MPEG-2  0:05:35 284 878 848     28 089 584 471  6,79    6,00    DD AC3 3.0 320Kbps                       
[/code]

[code]

DISC INFO:

Disc Title:     V boy idut odni stariki (1973)
Disc Size:      28 089 584 471 bytes
Protection:     AACS
BD-Java:        No
BDInfo:         0.5.6

PLAYLIST REPORT:

Name:                   00008.MPLS
Length:                 0:05:35 (h:m:s)
Size:                   284 878 848 bytes
Total Bitrate:          6,79 Mbps

VIDEO:

Codec                   Bitrate             Description    
-----                   -------             -----------    
MPEG-2 Video            5998 kbps           576i / 25 fps / 4:3

AUDIO:

Codec                           Language        Bitrate         Description    
-----                           --------        -------         -----------    
Dolby Digital Audio             Russian         320 kbps        3.0 / 48 kHz / 320 kbps / DN -4dB

SUBTITLES:

Codec                           Language        Bitrate         Description    
-----                           --------        -------         -----------    
Presentation Graphics           Russian         37,049 kbps                    
Presentation Graphics           Russian         25,397 kbps                    

FILES:

Name            Time In         Length          Size            Total Bitrate  
----            -------         ------          ----            -------------  
00011.M2TS      0:00:00.000     0:05:35.720     284 878 848     6 788          

CHAPTERS:

Number          Time In         Length          Avg Video Rate  Max 1-Sec Rate  Max 1-Sec Time  Max 5-Sec Rate  Max 5-Sec Time  Max 10Sec Rate  Max 10Sec Time  Avg Frame Size  Max Frame Size  Max Frame Time 
------          -------         ------          --------------  --------------  --------------  --------------  --------------  --------------  --------------  --------------  --------------  -------------- 
1               0:00:00.000     0:05:35.720     5 998 kbps      6 725 kbps      00:00:33.399    6 191 kbps      00:00:30.200    6 087 kbps      00:00:23.960    29 991 bytes    87 472 bytes    00:04:00.080   

STREAM DIAGNOSTICS:

File            PID             Type            Codec           Language                Seconds                 Bitrate                 Bytes           Packets        
----            ---             ----            -----           --------                --------------          --------------          -------------   -----          
00011.M2TS      4113 (0x1011)   0x02            MPEG-2                                  335,640                 6 000                   251 712 544     1 373 002      
00011.M2TS      4352 (0x1100)   0x81            AC3             rus (Russian)           335,640                 320                     13 409 280      83 808         
00011.M2TS      4608 (0x1200)   0x90            PGS             rus (Russian)           335,640                 37                      1 554 753       9 163          
00011.M2TS      4609 (0x1201)   0x90            PGS             rus (Russian)           335,640                 25                      1 065 771       6 504          

[/code]
<---- END FORUMS PASTE ---->

QUICK SUMMARY:

Disc Title: V boy idut odni stariki (1973)
Disc Size: 28 089 584 471 bytes
Protection: AACS
BD-Java: No
Playlist: 00008.MPLS
Size: 284 878 848 bytes
Length: 0:05:35
Total Bitrate: 6,79 Mbps
Video: MPEG-2 Video / 5998 kbps / 576i / 25 fps / 4:3
Audio: Russian / Dolby Digital Audio / 3.0 / 48 kHz / 320 kbps / DN -4dB
Subtitle: Russian / 37,049 kbps
Subtitle: Russian / 25,397 kbps


********************
PLAYLIST: 00010.MPLS
********************

<--- BEGIN FORUMS PASTE --->
[code]
                                                                                                                Total   Video                                            
Title                                                           Codec   Length  Movie Size      Disc Size       Bitrate Bitrate Main Audio Track                          Secondary Audio Track
-----                                                           ------  ------- --------------  --------------  ------- ------- ------------------                        ---------------------
00010.MPLS                                                      MPEG-2  0:02:00 117 706 752     28 089 584 471  7,85    7,00    DD AC3 5.1 448Kbps                       
[/code]

[code]

DISC INFO:

Disc Title:     V boy idut odni stariki (1973)
Disc Size:      28 089 584 471 bytes
Protection:     AACS
BD-Java:        No
BDInfo:         0.5.6

PLAYLIST REPORT:

Name:                   00010.MPLS
Length:                 0:02:00 (h:m:s)
Size:                   117 706 752 bytes
Total Bitrate:          7,85 Mbps

VIDEO:

Codec                   Bitrate             Description    
-----                   -------             -----------    
MPEG-2 Video            7001 kbps           576i / 25 fps / 4:3

AUDIO:

Codec                           Language        Bitrate         Description    
-----                           --------        -------         -----------    
Dolby Digital Audio             Russian         448 kbps        5.1 / 48 kHz / 448 kbps / DN -4dB

SUBTITLES:

Codec                           Language        Bitrate         Description    
-----                           --------        -------         -----------    
Presentation Graphics           Undetermined    1,020 kbps                     
Presentation Graphics           Undetermined    1,020 kbps                     

FILES:

Name            Time In         Length          Size            Total Bitrate  
----            -------         ------          ----            -------------  
00013.M2TS      0:00:00.000     0:02:00.000     117 706 752     7 847          

CHAPTERS:

Number          Time In         Length          Avg Video Rate  Max 1-Sec Rate  Max 1-Sec Time  Max 5-Sec Rate  Max 5-Sec Time  Max 10Sec Rate  Max 10Sec Time  Avg Frame Size  Max Frame Size  Max Frame Time 
------          -------         ------          --------------  --------------  --------------  --------------  --------------  --------------  --------------  --------------  --------------  -------------- 
1               0:00:00.000     0:02:00.000     7 001 kbps      7 958 kbps      00:00:30.720    7 219 kbps      00:01:10.039    7 106 kbps      00:00:00.120    35 003 bytes    180 806 bytes   00:00:01.720   

STREAM DIAGNOSTICS:

File            PID             Type            Codec           Language                Seconds                 Bitrate                 Bytes           Packets        
----            ---             ----            -----           --------                --------------          --------------          -------------   -----          
00013.M2TS      4113 (0x1011)   0x02            MPEG-2                                  119,880                 7 008                   105 007 568     572 390        
00013.M2TS      4352 (0x1100)   0x81            AC3             rus (Russian)           119,880                 436                     6 530 048       36 440         
00013.M2TS      4608 (0x1200)   0x90            PGS             und (Undetermined)      119,880                 1                       15 303          90             
00013.M2TS      4609 (0x1201)   0x90            PGS             und (Undetermined)      119,880                 1                       15 303          90             

[/code]
<---- END FORUMS PASTE ---->

QUICK SUMMARY:

Disc Title: V boy idut odni stariki (1973)
Disc Size: 28 089 584 471 bytes
Protection: AACS
BD-Java: No
Playlist: 00010.MPLS
Size: 117 706 752 bytes
Length: 0:02:00
Total Bitrate: 7,85 Mbps
Video: MPEG-2 Video / 7001 kbps / 576i / 25 fps / 4:3
Audio: Russian / Dolby Digital Audio / 5.1 / 48 kHz / 448 kbps / DN -4dB
Subtitle: Undetermined / 1,020 kbps
Subtitle: Undetermined / 1,020 kbps


********************
PLAYLIST: 00014.MPLS
********************

<--- BEGIN FORUMS PASTE --->
[code]
                                                                                                                Total   Video                                            
Title                                                           Codec   Length  Movie Size      Disc Size       Bitrate Bitrate Main Audio Track                          Secondary Audio Track
-----                                                           ------  ------- --------------  --------------  ------- ------- ------------------                        ---------------------
00014.MPLS                                                      MPEG-2  0:01:10 59 725 824      28 089 584 471  6,83    6,00    DD AC3 5.1 448Kbps                       
[/code]

[code]

DISC INFO:

Disc Title:     V boy idut odni stariki (1973)
Disc Size:      28 089 584 471 bytes
Protection:     AACS
BD-Java:        No
BDInfo:         0.5.6

PLAYLIST REPORT:

Name:                   00014.MPLS
Length:                 0:01:10 (h:m:s)
Size:                   59 725 824 bytes
Total Bitrate:          6,83 Mbps

VIDEO:

Codec                   Bitrate             Description    
-----                   -------             -----------    
MPEG-2 Video            6000 kbps           576p / 25 fps / 4:3

AUDIO:

Codec                           Language        Bitrate         Description    
-----                           --------        -------         -----------    
Dolby Digital Audio             English         448 kbps        5.1 / 48 kHz / 448 kbps / DN -4dB

SUBTITLES:

Codec                           Language        Bitrate         Description    
-----                           --------        -------         -----------    
Presentation Graphics           Undetermined    1,749 kbps                     
Presentation Graphics           Undetermined    1,749 kbps                     

FILES:

Name            Time In         Length          Size            Total Bitrate  
----            -------         ------          ----            -------------  
00061.M2TS      0:00:00.000     0:01:10.000     59 725 824      6 826          

CHAPTERS:

Number          Time In         Length          Avg Video Rate  Max 1-Sec Rate  Max 1-Sec Time  Max 5-Sec Rate  Max 5-Sec Time  Max 10Sec Rate  Max 10Sec Time  Avg Frame Size  Max Frame Size  Max Frame Time 
------          -------         ------          --------------  --------------  --------------  --------------  --------------  --------------  --------------  --------------  --------------  -------------- 
1               0:00:00.000     0:01:10.000     6 000 kbps      6 924 kbps      00:00:20.039    6 222 kbps      00:00:15.999    6 098 kbps      00:00:10.960    30 000 bytes    109 898 bytes   00:00:14.919   

STREAM DIAGNOSTICS:

File            PID             Type            Codec           Language                Seconds                 Bitrate                 Bytes           Packets        
----            ---             ----            -----           --------                --------------          --------------          -------------   -----          
00061.M2TS      4113 (0x1011)   0x02            MPEG-2                                  69,840                  6 014                   52 500 534      286 644        
00061.M2TS      4352 (0x1100)   0x81            AC3             eng (English)           69,840                  449                     3 919 104       21 870         
00061.M2TS      4608 (0x1200)   0x90            PGS             und (Undetermined)      69,840                  2                       15 303          90             
00061.M2TS      4609 (0x1201)   0x90            PGS             und (Undetermined)      69,840                  2                       15 303          90             

[/code]
<---- END FORUMS PASTE ---->

QUICK SUMMARY:

Disc Title: V boy idut odni stariki (1973)
Disc Size: 28 089 584 471 bytes
Protection: AACS
BD-Java: No
Playlist: 00014.MPLS
Size: 59 725 824 bytes
Length: 0:01:10
Total Bitrate: 6,83 Mbps
Video: MPEG-2 Video / 6000 kbps / 576p / 25 fps / 4:3
Audio: English / Dolby Digital Audio / 5.1 / 48 kHz / 448 kbps / DN -4dB
Subtitle: Undetermined / 1,749 kbps
Subtitle: Undetermined / 1,749 kbps


********************
PLAYLIST: 00009.MPLS
********************

<--- BEGIN FORUMS PASTE --->
[code]
                                                                                                                Total   Video                                            
Title                                                           Codec   Length  Movie Size      Disc Size       Bitrate Bitrate Main Audio Track                          Secondary Audio Track
-----                                                           ------  ------- --------------  --------------  ------- ------- ------------------                        ---------------------
00009.MPLS                                                      MPEG-2  0:01:08 64 911 360      28 089 584 471  7,63    7,01    DD AC3 2.0 224Kbps                       
[/code]

[code]

DISC INFO:

Disc Title:     V boy idut odni stariki (1973)
Disc Size:      28 089 584 471 bytes
Protection:     AACS
BD-Java:        No
BDInfo:         0.5.6

PLAYLIST REPORT:

Name:                   00009.MPLS
Length:                 0:01:08 (h:m:s)
Size:                   64 911 360 bytes
Total Bitrate:          7,63 Mbps

VIDEO:

Codec                   Bitrate             Description    
-----                   -------             -----------    
MPEG-2 Video            7009 kbps           576i / 25 fps / 4:3

AUDIO:

Codec                           Language        Bitrate         Description    
-----                           --------        -------         -----------    
Dolby Digital Audio             Russian         224 kbps        2.0 / 48 kHz / 224 kbps / DN -4dB

SUBTITLES:

Codec                           Language        Bitrate         Description    
-----                           --------        -------         -----------    
Presentation Graphics           Undetermined    1,799 kbps                     
Presentation Graphics           Undetermined    1,799 kbps                     

FILES:

Name            Time In         Length          Size            Total Bitrate  
----            -------         ------          ----            -------------  
00012.M2TS      0:00:00.000     0:01:08.039     64 911 360      7 632          

CHAPTERS:

Number          Time In         Length          Avg Video Rate  Max 1-Sec Rate  Max 1-Sec Time  Max 5-Sec Rate  Max 5-Sec Time  Max 10Sec Rate  Max 10Sec Time  Avg Frame Size  Max Frame Size  Max Frame Time 
------          -------         ------          --------------  --------------  --------------  --------------  --------------  --------------  --------------  --------------  --------------  -------------- 
1               0:00:00.000     0:01:08.039     7 009 kbps      7 556 kbps      00:00:05.240    7 118 kbps      00:00:47.320    7 064 kbps      00:00:02.800    35 045 bytes    106 680 bytes   00:00:00.000   

STREAM DIAGNOSTICS:

File            PID             Type            Codec           Language                Seconds                 Bitrate                 Bytes           Packets        
----            ---             ----            -----           --------                --------------          --------------          -------------   -----          
00012.M2TS      4113 (0x1011)   0x02            MPEG-2                                  67,920                  7 021                   59 612 004      324 946        
00012.M2TS      4352 (0x1100)   0x81            AC3             rus (Russian)           67,920                  224                     1 904 000       10 625         
00012.M2TS      4608 (0x1200)   0x90            PGS             und (Undetermined)      67,920                  2                       15 303          90             
00012.M2TS      4609 (0x1201)   0x90            PGS             und (Undetermined)      67,920                  2                       15 303          90             

[/code]
<---- END FORUMS PASTE ---->

QUICK SUMMARY:

Disc Title: V boy idut odni stariki (1973)
Disc Size: 28 089 584 471 bytes
Protection: AACS
BD-Java: No
Playlist: 00009.MPLS
Size: 64 911 360 bytes
Length: 0:01:08
Total Bitrate: 7,63 Mbps
Video: MPEG-2 Video / 7009 kbps / 576i / 25 fps / 4:3
Audio: Russian / Dolby Digital Audio / 2.0 / 48 kHz / 224 kbps / DN -4dB
Subtitle: Undetermined / 1,799 kbps
Subtitle: Undetermined / 1,799 kbps