CopyPastehas never been so tasty!

Star.Wars.Episode.I.1999.BDRip.720p.x264

by jasses

  • 0
  • 0
  • 0
225 views

Общее

Уникальный идентификатор : 251904839877611426869606579403751190296 (0xBD831B803F1AF91AA0D2F262785C6F18)
Полное имя : Star.Wars.Episode.I.1999.BDRip.720p.x264-jasses.mkv
Формат : Matroska
Версия формата : Version 2
Размер файла : 7,50 Гбайт
Продолжительность : 2 ч. 16 м.
Общий поток : 7880 Кбит/сек
Название фильма : = HDTracker.org = jasses =
Дата кодирования : UTC 2012-03-20 13:43:52
Программа кодирования : mkvmerge v4.9.1 ('Ich will') сборка от Jul 11 2011 23:53:15
Библиотека кодирования : libebml v1.2.1 + libmatroska v1.1.1

 

Видео

Идентификатор : 1
Формат : AVC
Формат/Информация : Advanced Video Codec
Профиль формата : High@L4.1
Параметр CABAC формата : Да
Параметр ReFrames формата : 9 кадров
Идентификатор кодека : V_MPEG4/ISO/AVC
Продолжительность : 2 ч. 16 м.
Битрейт : 4090 Кбит/сек
Ширина : 1280 пикселей
Высота : 544 пикселя
Соотношение сторон : 2,35:1
Частота кадров : 23,976 кадра/сек
Цветовое пространство : YUV
Субдискретизация насыщенности : 4:2:0
Битовая глубина : 8 бит
Тип развёртки : Прогрессивная
Бит/(Пиксели*Кадры) : 0.245
Размер потока : 3,76 Гбайт (50%)
Библиотека кодирования : x264 core 116 r2074 2641b9e
Настройки программы : cabac=1 / ref=9 / deblock=1:-3:-3 / analyse=0x3:0x113 / me=tesa / subme=11 / psy=1 / psy_rd=1.00:0.00 / mixed_ref=1 / me_range=32 / chroma_me=1 / trellis=2 / 8x8dct=1 / cqm=0 / deadzone=21,11 / fast_pskip=0 / chroma_qp_offset=-2 / threads=12 / sliced_threads=0 / nr=0 / decimate=1 / interlaced=0 / bluray_compat=0 / constrained_intra=0 / bframes=9 / b_pyramid=2 / b_adapt=2 / b_bias=0 / direct=3 / weightb=1 / open_gop=0 / weightp=2 / keyint=250 / keyint_min=24 / scenecut=40 / intra_refresh=0 / rc_lookahead=60 / rc=2pass / mbtree=1 / bitrate=4090 / ratetol=1.0 / qcomp=0.70 / qpmin=0 / qpmax=69 / qpstep=4 / cplxblur=20.0 / qblur=0.5 / vbv_maxrate=50000 / vbv_bufsize=50000 / nal_hrd=none / ip_ratio=1.40 / aq=1:1.00
Язык : English

 

Аудио #1

Идентификатор : 2
Формат : DTS
Формат/Информация : Digital Theater Systems
Идентификатор кодека : A_DTS
Продолжительность : 2 ч. 16 м.
Вид битрейта : Постоянный
Битрейт : 755 Кбит/сек
Каналы : 6 каналов
Расположение каналов : Front: L C R, Side: L R, LFE
Частота : 48,0 КГц
Битовая глубина : 24 бит
Метод сжатия : С потерями
Размер потока : 735 Мбайт (10%)
Заголовок : DTS - Дубляж
Язык : Russian

 

Аудио #2

Идентификатор : 3
Формат : DTS
Формат/Информация : Digital Theater Systems
Профиль формата : ES
Идентификатор кодека : A_DTS
Продолжительность : 2 ч. 16 м.
Вид битрейта : Постоянный
Битрейт : 1510 Кбит/сек
Каналы : 7 каналов / 6 каналов
Расположение каналов : Front: L C R, Side: L R, Back: C, LFE / Front: L C R, Side: L R, LFE
Частота : 48,0 КГц
Битовая глубина : 24 бит
Метод сжатия : С потерями
Размер потока : 1,44 Гбайт (19%)
Заголовок : DTS-ES 6.1 - Tycoon
Язык : Russian

 

Аудио #3

Идентификатор : 4
Формат : DTS
Формат/Информация : Digital Theater Systems
Профиль формата : ES
Идентификатор кодека : A_DTS
Продолжительность : 2 ч. 16 м.
Вид битрейта : Постоянный
Битрейт : 1510 Кбит/сек
Каналы : 7 каналов / 6 каналов
Расположение каналов : Front: L C R, Side: L R, Back: C, LFE / Front: L C R, Side: L R, LFE
Частота : 48,0 КГц
Битовая глубина : 24 бит
Метод сжатия : С потерями
Размер потока : 1,44 Гбайт (19%)
Заголовок : English DTS-ES 6.1 @ 1509 Kbps
Язык : English

 

Текст #1

Идентификатор : 5
Формат : UTF-8
Идентификатор кодека : S_TEXT/UTF8
Идентификатор кодека/Информация : UTF-8 Plain Text
Заголовок : Blu-ray CEE
Язык : Russian

 

Текст #2

Идентификатор : 6
Формат : UTF-8
Идентификатор кодека : S_TEXT/UTF8
Идентификатор кодека/Информация : UTF-8 Plain Text
Заголовок : Tycoon
Язык : Russian

 

Текст #3

Идентификатор : 7
Формат : UTF-8
Идентификатор кодека : S_TEXT/UTF8
Идентификатор кодека/Информация : UTF-8 Plain Text
Заголовок : Forced
Язык : Russian

 

Текст #4

Идентификатор : 8
Формат : UTF-8
Идентификатор кодека : S_TEXT/UTF8
Идентификатор кодека/Информация : UTF-8 Plain Text
Заголовок : Full
Язык : English

 

Текст #5

Идентификатор : 9
Формат : UTF-8
Идентификатор кодека : S_TEXT/UTF8
Идентификатор кодека/Информация : UTF-8 Plain Text
Заголовок : English Forced
Язык : English

 

Меню

00:00:00.000 : :1. Opening Logos
00:00:21.104 : :2. The Phantom Menace
00:01:52.738 : :3. Short Negotiations
00:07:55.350 : :4. Queen Amidala
00:09:55.970 : :5. Landing on Naboo
00:11:18.761 : :6. Jar Jar Binks
00:13:24.178 : :7. Otoh Gunga
00:14:49.806 : :8. Boss Nass
00:17:14.242 : :9. The Planet Core
00:20:40.948 : :10. Invasion of Theed
00:22:25.302 : :11. Surprise Rescue
00:25:12.886 : :12. Running the Blockade
00:29:32.813 : :13. Tatooine
00:31:41.483 : :14. Watto's Shop
00:35:51.733 : :15. Fateful Meetings
00:40:48.571 : :16. Dinner Conversation
00:44:16.320 : :17. Preparing for the Race
00:52:04.580 : :18. A Wager With Watto
00:55:03.842 : :19. Meet the Podracers
00:58:27.921 : :20. "Begin the Race"
01:02:27.702 : :21. Lap Two
01:05:33.012 : :22. Home Stretch
01:10:06.911 : :23. Collecting the Prize
01:11:17.940 : :24. Choosing a New Path
01:16:20.951 : :25. Darth Maul Attacks
01:18:08.100 : :26. The Queen's Worries
01:20:26.363 : :27. Arrival on Coruscant
01:24:18.178 : :28. The Jedi Council
01:26:44.783 : :29. Senate Session
01:29:54.723 : :30. Testing Anakin
01:31:02.415 : :31. Palpatine's Nomination
01:33:08.541 : :32. Anakin's Future
01:37:21.419 : :33. The Queen's Gambit
01:39:06.315 : :34. A Plea to the Gungans
01:42:33.731 : :35. Battle Plans
01:44:41.567 : :36. "Wipe Them Out"
01:46:19.248 : :37. Retaking the Palace
01:48:07.731 : :38. The Conflict Continues
01:50:24.952 : :39. Duel of the Fates
01:56:47.667 : :40. Gungan Retreat
01:59:13.063 : :41. Qui-Gon Vs. Darth Maul
02:00:31.391 : :42. Capturing the Viceroy
02:01:21.316 : :43. Obi-Wan Vs. Darth Maul
02:02:23.378 : :44. Control Ship Destroyed
02:03:56.971 : :45. A Sith Vanquished
02:05:15.133 : :46. Chancellor Palpatine Arrives
02:06:25.995 : :47. New Knight, New Apprentice
02:07:23.177 : :48. Farewell to a Jedi
02:08:28.993 : :49. Naboo Celebration
02:09:53.536 : :50. End Credits

---------------------------------------------------------------------------

x264 [info]: frame I:1830  Avg QP:14.19  size:116419
x264 [info]: frame P:47001 Avg QP:15.84  size: 40835
x264 [info]: frame B:147074 Avg QP:18.11  size: 13902

Add A Comment: