CopyPastehas never been so tasty!

hd

by anonymous

  • 0
  • 0
  • 0
403 views

Общее

   
Полное имя : Black.Swan.2010.Remux.mkv
Формат : Matroska
Версия формата : Version 2
Размер файла : 24,7 Гбайт
Продолжительность : 1 ч. 48 м.
Общий поток : 32,7 Мбит/сек
Название фильма : = hdtracker.org = jasses =
Дата кодирования : UTC 2011-08-21 22:01:39
Программа кодирования : mkvmerge v4.3.0 ('Escape from the Island') сборка от Sep 5 2010 10:30:51
Библиотека кодирования : libebml v1.0.0 + libmatroska v1.0.0

 

Видео

Идентификатор : 1
Формат : AVC
Формат/Информация : Advanced Video Codec
Профиль формата : High@L4.1
Параметр CABAC формата : Да
Параметр ReFrames формата : 4 кадра
Идентификатор кодека : V_MPEG4/ISO/AVC
Продолжительность : 1 ч. 48 м.
Вид битрейта : Переменный
Битрейт : 29,5 Мбит/сек
Максимальный битрейт : 34,0 Мбит/сек
Ширина : 1920 пикселей
Высота : 1080 пикселей
Соотношение сторон : 16:9
Частота кадров : 23,976 кадра/сек
Цветовое пространство : YUV
Субдискретизация насыщенности : 4:2:0
Битовая глубина : 8 бит
Тип развёртки : Прогрессивная
Бит/(Пиксели*Кадры) : 0.593
Размер потока : 22,3 Гбайт (90%)
Основные цвета : BT.709-5, BT.1361, IEC 61966-2-4, SMPTE RP177
Характеристики трансфера : BT.709-5, BT.1361
Коэффициенты матрицы : BT.709-5, BT.1361, IEC 61966-2-4 709, SMPTE RP177

 

Аудио #1

Идентификатор : 2
Формат : DTS
Формат/Информация : Digital Theater Systems
Идентификатор кодека : A_DTS
Продолжительность : 1 ч. 48 м.
Вид битрейта : Постоянный
Битрейт : 755 Кбит/сек
Каналы : 6 каналов
Расположение каналов : Front: L C R, Side: L R, LFE
Частота : 48,0 КГц
Битовая глубина : 24 бит
Метод сжатия : С потерями
Задержка видео : 11 мс.
Размер потока : 584 Мбайт (2%)
Заголовок : DTS
Язык : Russian

 

Аудио #2

Идентификатор : 3
Формат : DTS
Формат/Информация : Digital Theater Systems
Профиль формата : MA / Core
Идентификатор кодека : A_DTS
Продолжительность : 1 ч. 48 м.
Вид битрейта : Переменный
Битрейт : 1858 Кбит/сек / 1510 Кбит/сек
Каналы : 6 каналов
Расположение каналов : Front: L C R, Side: L R, LFE
Частота : 48,0 КГц
Битовая глубина : 24 бит
Метод сжатия : Без потерь / Lossy
Заголовок : DTS-HD MA
Язык : English

 

Текст #1

Идентификатор : 4
Формат : UTF-8
Идентификатор кодека : S_TEXT/UTF8
Идентификатор кодека/Информация : UTF-8 Plain Text
Язык : Russian

 

Текст #2

Идентификатор : 5
Формат : UTF-8
Идентификатор кодека : S_TEXT/UTF8
Идентификатор кодека/Информация : UTF-8 Plain Text
Язык : English

 

Меню

00:00:00.000 : :00:00:00.000
00:06:18.044 : :00:06:18.044
00:12:54.732 : :00:12:54.732
00:16:35.077 : :00:16:35.077
00:19:06.687 : :00:19:06.687
00:21:53.020 : :00:21:53.020
00:26:33.592 : :00:26:33.592
00:29:43.865 : :00:29:43.865
00:32:18.812 : :00:32:18.812
00:36:05.872 : :00:36:05.872
00:40:42.607 : :00:40:42.607
00:43:52.129 : :00:43:52.129
00:46:39.839 : :00:46:39.839
00:49:33.679 : :00:49:33.679
00:52:38.489 : :00:52:38.489
00:55:47.886 : :00:55:47.886
00:58:23.875 : :00:58:23.875
01:06:56.095 : :01:06:56.095
01:10:15.795 : :01:10:15.795
01:13:26.485 : :01:13:26.485
01:18:28.370 : :01:18:28.370
01:22:49.798 : :01:22:49.798
01:25:31.793 : :01:25:31.793
01:28:40.565 : :01:28:40.565
01:32:53.234 : :01:32:53.234
01:34:35.044 : :01:34:35.044
01:37:47.445 : :01:37:47.445
01:42:57.797 : :01:42:57.797

 

Add A Comment: