CopyPastehas never been so tasty!

9 рота

by anonymous

  • 0
  • 0
211 views

Disc Title:     9 рота (2005)
Disc Size:      31 401 463 408 bytes
Protection:     AACS
BD-Java:        No
BDInfo:         0.5.6

Notes:         

BDINFO HOME:
  Cinema Squid
    http://www.cinemasquid.com/blu-ray/tools/bdinfo

INCLUDES FORUMS REPORT FOR:
  AVS Forum Blu-ray Audio and Video Specifications Thread
    http://www.avsforum.com/avs-vb/showthread.php?t=1155731


********************
PLAYLIST: 00001.MPLS
********************

<--- BEGIN FORUMS PASTE --->
[code]
                                                                                                                Total   Video                                            
Title                                                           Codec   Length  Movie Size      Disc Size       Bitrate Bitrate Main Audio Track                          Secondary Audio Track
-----                                                           ------  ------- --------------  --------------  ------- ------- ------------------                        ---------------------
00001.MPLS                                                      VC-1    2:19:14 23 834 597 376  31 401 463 408  22,82   18,00   DTS-HD Master 5.1 2136Kbps (48kHz/16-bit) DD AC3 5.1 640Kbps
[/code]

[code]

DISC INFO:

Disc Title:     9 рота (2005)
Disc Size:      31 401 463 408 bytes
Protection:     AACS
BD-Java:        No
BDInfo:         0.5.6

PLAYLIST REPORT:

Name:                   00001.MPLS
Length:                 2:19:14 (h:m:s)
Size:                   23 834 597 376 bytes
Total Bitrate:          22,82 Mbps

VIDEO:

Codec                   Bitrate             Description    
-----                   -------             -----------    
VC-1 Video              17996 kbps          1080p / 23,976 fps / 16:9 / Advanced Profile 3

AUDIO:

Codec                           Language        Bitrate         Description    
-----                           --------        -------         -----------    
DTS-HD Master Audio             Russian         2136 kbps       5.1 / 48 kHz / 2136 kbps / 16-bit (DTS Core: 5.1 / 48 kHz / 1509 kbps / 16-bit)
Dolby Digital Audio             French          640 kbps        5.1 / 48 kHz / 640 kbps
Dolby Digital Audio             Russian         640 kbps        5.1 / 48 kHz / 640 kbps

SUBTITLES:

Codec                           Language        Bitrate         Description    
-----                           --------        -------         -----------    
Presentation Graphics           Dutch           29,957 kbps                    
Presentation Graphics           French          28,927 kbps                    

FILES:

Name            Time In         Length          Size            Total Bitrate  
----            -------         ------          ----            -------------  
00000.M2TS      0:00:00.000     2:19:14.346     23 834 597 376  22 824         

CHAPTERS:

Number          Time In         Length          Avg Video Rate  Max 1-Sec Rate  Max 1-Sec Time  Max 5-Sec Rate  Max 5-Sec Time  Max 10Sec Rate  Max 10Sec Time  Avg Frame Size  Max Frame Size  Max Frame Time 
------          -------         ------          --------------  --------------  --------------  --------------  --------------  --------------  --------------  --------------  --------------  -------------- 
1               0:00:00.000     0:10:05.646     16 799 kbps     53 695 kbps     00:09:51.716    38 071 kbps     00:09:47.837    35 672 kbps     00:09:21.269    87 577 bytes    593 169 bytes   00:09:52.592   
2               0:10:05.646     0:12:29.874     16 976 kbps     45 487 kbps     00:14:42.798    38 608 kbps     00:14:41.422    34 072 kbps     00:14:38.168    88 504 bytes    487 646 bytes   00:16:31.031   
3               0:22:35.520     0:11:08.959     17 219 kbps     47 007 kbps     00:24:23.086    38 267 kbps     00:24:22.043    33 987 kbps     00:29:21.676    89 770 bytes    535 952 bytes   00:24:07.362   
4               0:33:44.480     0:11:20.513     15 556 kbps     45 051 kbps     00:35:41.180    31 789 kbps     00:35:37.969    29 300 kbps     00:43:57.176    81 103 bytes    478 254 bytes   00:35:42.014   
5               0:45:04.993     0:11:49.625     16 808 kbps     54 363 kbps     00:46:57.856    34 450 kbps     00:47:54.955    33 261 kbps     00:47:53.829    87 628 bytes    481 996 bytes   00:46:58.524   
6               0:56:54.619     0:09:57.138     16 674 kbps     42 698 kbps     01:06:12.760    33 032 kbps     01:05:45.900    30 883 kbps     01:05:45.524    86 930 bytes    399 065 bytes   01:00:26.914   
7               1:06:51.757     0:10:45.478     18 197 kbps     45 790 kbps     01:13:10.803    35 292 kbps     01:14:37.556    33 927 kbps     01:14:32.509    94 869 bytes    519 310 bytes   01:13:04.129   
8               1:17:37.235     0:13:26.305     21 642 kbps     53 044 kbps     01:25:33.294    38 429 kbps     01:19:51.828    35 714 kbps     01:19:53.914    112 829 bytes   654 164 bytes   01:26:13.918   
9               1:31:03.541     0:08:06.736     20 795 kbps     52 103 kbps     01:35:55.124    38 328 kbps     01:35:15.209    35 765 kbps     01:35:10.413    108 415 bytes   613 252 bytes   01:34:52.478   
10              1:39:10.277     0:12:29.206     19 643 kbps     52 479 kbps     01:42:42.823    36 367 kbps     01:39:30.255    33 256 kbps     01:42:59.423    102 411 bytes   496 776 bytes   01:42:53.083   
11              1:51:39.484     0:11:05.998     17 495 kbps     44 031 kbps     02:00:28.930    32 854 kbps     02:00:24.967    32 124 kbps     02:00:19.837    91 213 bytes    589 180 bytes   01:57:23.244   
12              2:02:45.483     0:12:01.220     21 473 kbps     43 486 kbps     02:07:39.485    38 073 kbps     02:09:26.884    35 656 kbps     02:09:25.299    111 949 bytes   480 540 bytes   02:09:31.513   
13              2:14:46.703     0:04:27.642     8 530 kbps      19 462 kbps     02:16:55.832    16 074 kbps     02:16:54.456    14 632 kbps     02:17:48.176    44 486 bytes    188 076 bytes   02:17:53.890   

STREAM DIAGNOSTICS:

File            PID             Type            Codec           Language                Seconds                 Bitrate                 Bytes           Packets        
----            ---             ----            -----           --------                --------------          --------------          -------------   -----          
00000.M2TS      4113 (0x1011)   0xEA            VC-1                                    8354,221                17 997                  18 793 484 576  102 258 480    
00000.M2TS      4352 (0x1100)   0x81            AC3             rus (Russian)           8354,221                640                     668 349 440     3 916 110      
00000.M2TS      4353 (0x1101)   0x86            DTS-HD MA       rus (Russian)           8354,221                2 136                   2 230 799 388   13 416 326     
00000.M2TS      4354 (0x1102)   0x81            AC3             fra (French)            8354,221                640                     668 349 440     3 916 110      
00000.M2TS      4608 (0x1200)   0x90            PGS             nld (Dutch)             8354,221                30                      31 284 072      179 149        
00000.M2TS      4609 (0x1201)   0x90            PGS             fra (French)            8354,221                29                      30 208 772      172 466        

[/code]
<---- END FORUMS PASTE ---->

QUICK SUMMARY:

Disc Title: 9 рота (2005)
Disc Size: 31 401 463 408 bytes
Protection: AACS
BD-Java: No
Playlist: 00001.MPLS
Size: 23 834 597 376 bytes
Length: 2:19:14
Total Bitrate: 22,82 Mbps
Video: VC-1 Video / 17996 kbps / 1080p / 23,976 fps / 16:9 / Advanced Profile 3
Audio: Russian / DTS-HD Master Audio / 5.1 / 48 kHz / 2136 kbps / 16-bit (DTS Core: 5.1 / 48 kHz / 1509 kbps / 16-bit)
Audio: French / Dolby Digital Audio / 5.1 / 48 kHz / 640 kbps
Audio: Russian / Dolby Digital Audio / 5.1 / 48 kHz / 640 kbps
Subtitle: Dutch / 29,957 kbps
Subtitle: French / 28,927 kbps


********************
PLAYLIST: 00006.MPLS
********************

<--- BEGIN FORUMS PASTE --->
[code]
                                                                                                                Total   Video                                            
Title                                                           Codec   Length  Movie Size      Disc Size       Bitrate Bitrate Main Audio Track                          Secondary Audio Track
-----                                                           ------  ------- --------------  --------------  ------- ------- ------------------                        ---------------------
00006.MPLS                                                      AVC     0:38:56 3 605 360 640   31 401 463 408  12,35   11,51   DD AC3 2.0 192Kbps                       
[/code]

[code]

DISC INFO:

Disc Title:     9 рота (2005)
Disc Size:      31 401 463 408 bytes
Protection:     AACS
BD-Java:        No
BDInfo:         0.5.6

PLAYLIST REPORT:

Name:                   00006.MPLS
Length:                 0:38:56 (h:m:s)
Size:                   3 605 360 640 bytes
Total Bitrate:          12,35 Mbps

VIDEO:

Codec                   Bitrate             Description    
-----                   -------             -----------    
MPEG-4 AVC Video        11513 kbps          576i / 25 fps / 4:3 / High Profile 4.1

AUDIO:

Codec                           Language        Bitrate         Description    
-----                           --------        -------         -----------    
Dolby Digital Audio             Russian         192 kbps        2.0 / 48 kHz / 192 kbps

FILES:

Name            Time In         Length          Size            Total Bitrate  
----            -------         ------          ----            -------------  
00006.M2TS      0:00:00.000     0:38:56.000     3 605 360 640   12 347         

CHAPTERS:

Number          Time In         Length          Avg Video Rate  Max 1-Sec Rate  Max 1-Sec Time  Max 5-Sec Rate  Max 5-Sec Time  Max 10Sec Rate  Max 10Sec Time  Avg Frame Size  Max Frame Size  Max Frame Time 
------          -------         ------          --------------  --------------  --------------  --------------  --------------  --------------  --------------  --------------  --------------  -------------- 
1               0:00:00.000     0:07:56.400     11 259 kbps     19 275 kbps     00:06:03.960    17 606 kbps     00:02:21.200    16 053 kbps     00:07:44.520    56 288 bytes    169 192 bytes   00:06:23.120   
2               0:07:56.400     0:11:27.639     11 454 kbps     20 805 kbps     00:11:33.960    17 466 kbps     00:11:25.559    17 209 kbps     00:11:26.000    57 270 bytes    170 332 bytes   00:14:06.160   
3               0:19:24.040     0:11:01.199     12 221 kbps     20 558 kbps     00:19:40.000    18 699 kbps     00:19:37.119    16 985 kbps     00:19:37.120    61 104 bytes    168 549 bytes   00:25:25.199   
4               0:30:25.239     0:06:51.960     11 466 kbps     18 723 kbps     00:35:19.040    17 683 kbps     00:35:19.320    16 036 kbps     00:30:34.920    57 329 bytes    171 986 bytes   00:36:10.600   
5               0:37:17.200     0:01:38.800     8 622 kbps      13 110 kbps     00:38:43.880    11 610 kbps     00:38:41.360    10 219 kbps     00:38:38.120    43 127 bytes    116 759 bytes   00:38:44.719   

STREAM DIAGNOSTICS:

File            PID             Type            Codec           Language                Seconds                 Bitrate                 Bytes           Packets        
----            ---             ----            -----           --------                --------------          --------------          -------------   -----          
00006.M2TS      4113 (0x1011)   0x1B            AVC                                     2335,880                11 514                  3 361 924 264   18 334 625     
00006.M2TS      4352 (0x1100)   0x81            AC3             rus (Russian)           2335,880                192                     56 064 768      365 005        

[/code]
<---- END FORUMS PASTE ---->

QUICK SUMMARY:

Disc Title: 9 рота (2005)
Disc Size: 31 401 463 408 bytes
Protection: AACS
BD-Java: No
Playlist: 00006.MPLS
Size: 3 605 360 640 bytes
Length: 0:38:56
Total Bitrate: 12,35 Mbps
Video: MPEG-4 AVC Video / 11513 kbps / 576i / 25 fps / 4:3 / High Profile 4.1
Audio: Russian / Dolby Digital Audio / 2.0 / 48 kHz / 192 kbps


********************
PLAYLIST: 00005.MPLS
********************

<--- BEGIN FORUMS PASTE --->
[code]
                                                                                                                Total   Video                                            
Title                                                           Codec   Length  Movie Size      Disc Size       Bitrate Bitrate Main Audio Track                          Secondary Audio Track
-----                                                           ------  ------- --------------  --------------  ------- ------- ------------------                        ---------------------
00005.MPLS                                                      AVC     0:29:51 2 877 308 928   31 401 463 408  12,85   12,00   DD AC3 2.0 192Kbps                       
[/code]

[code]

DISC INFO:

Disc Title:     9 рота (2005)
Disc Size:      31 401 463 408 bytes
Protection:     AACS
BD-Java:        No
BDInfo:         0.5.6

PLAYLIST REPORT:

Name:                   00005.MPLS
Length:                 0:29:51 (h:m:s)
Size:                   2 877 308 928 bytes
Total Bitrate:          12,85 Mbps

VIDEO:

Codec                   Bitrate             Description    
-----                   -------             -----------    
MPEG-4 AVC Video        11998 kbps          576i / 25 fps / 4:3 / High Profile 4.1

AUDIO:

Codec                           Language        Bitrate         Description    
-----                           --------        -------         -----------    
Dolby Digital Audio             Russian         192 kbps        2.0 / 48 kHz / 192 kbps

FILES:

Name            Time In         Length          Size            Total Bitrate  
----            -------         ------          ----            -------------  
00005.M2TS      0:00:00.000     0:29:51.000     2 877 308 928   12 852         

CHAPTERS:

Number          Time In         Length          Avg Video Rate  Max 1-Sec Rate  Max 1-Sec Time  Max 5-Sec Rate  Max 5-Sec Time  Max 10Sec Rate  Max 10Sec Time  Avg Frame Size  Max Frame Size  Max Frame Time 
------          -------         ------          --------------  --------------  --------------  --------------  --------------  --------------  --------------  --------------  --------------  -------------- 
1               0:00:00.000     0:04:31.120     11 189 kbps     20 714 kbps     00:02:09.080    17 486 kbps     00:02:07.799    16 284 kbps     00:02:05.160    55 935 bytes    157 652 bytes   00:02:09.279   
2               0:04:31.120     0:01:57.760     10 556 kbps     15 352 kbps     00:05:41.039    14 008 kbps     00:06:13.840    13 311 kbps     00:06:10.960    52 778 bytes    105 202 bytes   00:06:18.799   
3               0:06:28.880     0:01:49.760     10 071 kbps     16 156 kbps     00:08:02.559    15 391 kbps     00:08:01.280    13 715 kbps     00:08:00.720    50 355 bytes    112 040 bytes   00:08:06.400   
4               0:08:18.640     0:03:04.000     12 333 kbps     17 166 kbps     00:08:19.280    16 371 kbps     00:08:19.319    14 967 kbps     00:08:18.640    61 664 bytes    166 151 bytes   00:09:20.319   
5               0:11:22.640     0:03:33.279     14 003 kbps     16 831 kbps     00:12:14.760    15 933 kbps     00:12:11.640    15 656 kbps     00:12:09.559    70 017 bytes    164 678 bytes   00:13:03.760   
6               0:14:55.920     0:04:58.279     13 110 kbps     16 884 kbps     00:16:44.640    15 981 kbps     00:16:42.080    15 866 kbps     00:16:41.960    65 548 bytes    157 900 bytes   00:19:49.160   
7               0:19:54.200     0:09:56.800     11 628 kbps     17 432 kbps     00:20:54.600    15 671 kbps     00:20:51.440    14 639 kbps     00:28:32.639    58 145 bytes    130 878 bytes   00:28:59.440   

STREAM DIAGNOSTICS:

File            PID             Type            Codec           Language                Seconds                 Bitrate                 Bytes           Packets        
----            ---             ----            -----           --------                --------------          --------------          -------------   -----          
00005.M2TS      4113 (0x1011)   0x1B            AVC                                     1790,920                11 998                  2 685 980 603   14 646 117     
00005.M2TS      4352 (0x1100)   0x81            AC3             rus (Russian)           1790,920                192                     42 984 960      279 850        

[/code]
<---- END FORUMS PASTE ---->

QUICK SUMMARY:

Disc Title: 9 рота (2005)
Disc Size: 31 401 463 408 bytes
Protection: AACS
BD-Java: No
Playlist: 00005.MPLS
Size: 2 877 308 928 bytes
Length: 0:29:51
Total Bitrate: 12,85 Mbps
Video: MPEG-4 AVC Video / 11998 kbps / 576i / 25 fps / 4:3 / High Profile 4.1
Audio: Russian / Dolby Digital Audio / 2.0 / 48 kHz / 192 kbps


********************
PLAYLIST: 00007.MPLS
********************

<--- BEGIN FORUMS PASTE --->
[code]
                                                                                                                Total   Video                                            
Title                                                           Codec   Length  Movie Size      Disc Size       Bitrate Bitrate Main Audio Track                          Secondary Audio Track
-----                                                           ------  ------- --------------  --------------  ------- ------- ------------------                        ---------------------
00007.MPLS                                                      AVC     0:08:55 859 453 440     31 401 463 408  12,85   12,00   DD AC3 2.0 192Kbps                       
[/code]

[code]

DISC INFO:

Disc Title:     9 рота (2005)
Disc Size:      31 401 463 408 bytes
Protection:     AACS
BD-Java:        No
BDInfo:         0.5.6

PLAYLIST REPORT:

Name:                   00007.MPLS
Length:                 0:08:55 (h:m:s)
Size:                   859 453 440 bytes
Total Bitrate:          12,85 Mbps

VIDEO:

Codec                   Bitrate             Description    
-----                   -------             -----------    
MPEG-4 AVC Video        11997 kbps          576i / 25 fps / 4:3 / High Profile 4.1

AUDIO:

Codec                           Language        Bitrate         Description    
-----                           --------        -------         -----------    
Dolby Digital Audio             Russian         192 kbps        2.0 / 48 kHz / 192 kbps

FILES:

Name            Time In         Length          Size            Total Bitrate  
----            -------         ------          ----            -------------  
00007.M2TS      0:00:00.000     0:08:55.000     859 453 440     12 852         

CHAPTERS:

Number          Time In         Length          Avg Video Rate  Max 1-Sec Rate  Max 1-Sec Time  Max 5-Sec Rate  Max 5-Sec Time  Max 10Sec Rate  Max 10Sec Time  Avg Frame Size  Max Frame Size  Max Frame Time 
------          -------         ------          --------------  --------------  --------------  --------------  --------------  --------------  --------------  --------------  --------------  -------------- 
1               0:00:00.000     0:06:12.960     12 057 kbps     15 183 kbps     00:00:04.080    14 489 kbps     00:00:02.080    14 093 kbps     00:00:01.519    60 279 bytes    123 236 bytes   00:05:58.760   
2               0:06:12.960     0:02:42.039     11 859 kbps     13 957 kbps     00:06:37.200    13 309 kbps     00:06:21.799    13 197 kbps     00:06:17.840    59 310 bytes    117 597 bytes   00:06:54.000   

STREAM DIAGNOSTICS:

File            PID             Type            Codec           Language                Seconds                 Bitrate                 Bytes           Packets        
----            ---             ----            -----           --------                --------------          --------------          -------------   -----          
00007.M2TS      4113 (0x1011)   0x1B            AVC                                     534,920                 11 999                  802 303 241     4 374 775      
00007.M2TS      4352 (0x1100)   0x81            AC3             rus (Russian)           534,920                 192                     12 840 192      83 595         

[/code]
<---- END FORUMS PASTE ---->

QUICK SUMMARY:

Disc Title: 9 рота (2005)
Disc Size: 31 401 463 408 bytes
Protection: AACS
BD-Java: No
Playlist: 00007.MPLS
Size: 859 453 440 bytes
Length: 0:08:55
Total Bitrate: 12,85 Mbps
Video: MPEG-4 AVC Video / 11997 kbps / 576i / 25 fps / 4:3 / High Profile 4.1
Audio: Russian / Dolby Digital Audio / 2.0 / 48 kHz / 192 kbps


********************
PLAYLIST: 00002.MPLS
********************

<--- BEGIN FORUMS PASTE --->
[code]
                                                                                                                Total   Video                                            
Title                                                           Codec   Length  Movie Size      Disc Size       Bitrate Bitrate Main Audio Track                          Secondary Audio Track
-----                                                           ------  ------- --------------  --------------  ------- ------- ------------------                        ---------------------
00002.MPLS                                                      VC-1    0:00:38 84 363 264      31 401 463 408  17,51   16,50   DD AC3 2.0 224Kbps                       
[/code]

[code]

DISC INFO:

Disc Title:     9 рота (2005)
Disc Size:      31 401 463 408 bytes
Protection:     AACS
BD-Java:        No
BDInfo:         0.5.6

PLAYLIST REPORT:

Name:                   00002.MPLS
Length:                 0:00:38 (h:m:s)
Size:                   84 363 264 bytes
Total Bitrate:          17,51 Mbps

VIDEO:

Codec                   Bitrate             Description    
-----                   -------             -----------    
VC-1 Video              16503 kbps          1080p / 23,976 fps / 16:9 / Advanced Profile 3

AUDIO:

Codec                           Language        Bitrate         Description    
-----                           --------        -------         -----------    
Dolby Digital Audio             English         224 kbps        2.0 / 48 kHz / 224 kbps

FILES:

Name            Time In         Length          Size            Total Bitrate  
----            -------         ------          ----            -------------  
00002.M2TS      0:00:00.000     0:00:32.032     82 053 120      20 493         
00012.M2TS      0:00:32.032     0:00:06.506     2 310 144       2 840          

CHAPTERS:

Number          Time In         Length          Avg Video Rate  Max 1-Sec Rate  Max 1-Sec Time  Max 5-Sec Rate  Max 5-Sec Time  Max 10Sec Rate  Max 10Sec Time  Avg Frame Size  Max Frame Size  Max Frame Time 
------          -------         ------          --------------  --------------  --------------  --------------  --------------  --------------  --------------  --------------  --------------  -------------- 
1               0:00:00.000     0:00:38.538     16 503 kbps     30 647 kbps     00:00:14.806    29 335 kbps     00:00:12.679    26 008 kbps     00:00:07.674    86 227 bytes    308 507 bytes   00:00:14.431   

STREAM DIAGNOSTICS:

File            PID             Type            Codec           Language                Seconds                 Bitrate                 Bytes           Packets        
----            ---             ----            -----           --------                --------------          --------------          -------------   -----          
00002.M2TS      4113 (0x1011)   0xEA            VC-1                                    31,949                  19 368                  77 346 708      420 838        
00002.M2TS      4352 (0x1100)   0x81            AC3             eng (English)           31,949                  240                     957 824         5 345          
00012.M2TS      4113 (0x1011)   0xEA            VC-1                                    6,381                   2 702                   2 155 005       11 788         

[/code]
<---- END FORUMS PASTE ---->

QUICK SUMMARY:

Disc Title: 9 рота (2005)
Disc Size: 31 401 463 408 bytes
Protection: AACS
BD-Java: No
Playlist: 00002.MPLS
Size: 84 363 264 bytes
Length: 0:00:38
Total Bitrate: 17,51 Mbps
Video: VC-1 Video / 16503 kbps / 1080p / 23,976 fps / 16:9 / Advanced Profile 3
Audio: English / Dolby Digital Audio / 2.0 / 48 kHz / 224 kbps


********************
PLAYLIST: 00004.MPLS
********************

<--- BEGIN FORUMS PASTE --->
[code]
                                                                                                                Total   Video                                            
Title                                                           Codec   Length  Movie Size      Disc Size       Bitrate Bitrate Main Audio Track                          Secondary Audio Track
-----                                                           ------  ------- --------------  --------------  ------- ------- ------------------                        ---------------------
00004.MPLS                                                      VC-1    0:00:30 18 548 736      31 401 463 408  4,94    4,67                                             
[/code]

[code]

DISC INFO:

Disc Title:     9 рота (2005)
Disc Size:      31 401 463 408 bytes
Protection:     AACS
BD-Java:        No
BDInfo:         0.5.6

PLAYLIST REPORT:

Name:                   00004.MPLS
Length:                 0:00:30 (h:m:s)
Size:                   18 548 736 bytes
Total Bitrate:          4,94 Mbps

VIDEO:

Codec                   Bitrate             Description    
-----                   -------             -----------    
VC-1 Video              4668 kbps           1080p / 23,976 fps / 16:9 / Advanced Profile 3

FILES:

Name            Time In         Length          Size            Total Bitrate  
----            -------         ------          ----            -------------  
00001.M2TS      0:00:00.000     0:00:30.029     18 548 736      4 941          

CHAPTERS:

Number          Time In         Length          Avg Video Rate  Max 1-Sec Rate  Max 1-Sec Time  Max 5-Sec Rate  Max 5-Sec Time  Max 10Sec Rate  Max 10Sec Time  Avg Frame Size  Max Frame Size  Max Frame Time 
------          -------         ------          --------------  --------------  --------------  --------------  --------------  --------------  --------------  --------------  --------------  -------------- 
1               0:00:00.000     0:00:30.029     4 668 kbps      5 931 kbps      00:00:02.752    5 186 kbps      00:00:04.004    5 093 kbps      00:00:02.752    24 338 bytes    142 621 bytes   00:00:03.003   

STREAM DIAGNOSTICS:

File            PID             Type            Codec           Language                Seconds                 Bitrate                 Bytes           Packets        
----            ---             ----            -----           --------                --------------          --------------          -------------   -----          
00001.M2TS      4113 (0x1011)   0xEA            VC-1                                    29,905                  4 688                   17 523 414      95 595         

[/code]
<---- END FORUMS PASTE ---->

QUICK SUMMARY:

Disc Title: 9 рота (2005)
Disc Size: 31 401 463 408 bytes
Protection: AACS
BD-Java: No
Playlist: 00004.MPLS
Size: 18 548 736 bytes
Length: 0:00:30
Total Bitrate: 4,94 Mbps
Video: VC-1 Video / 4668 kbps / 1080p / 23,976 fps / 16:9 / Advanced Profile 3