CopyPastehas never been so tasty!

Girl.With.Dragon.Tattoo.2011.BDRip.1080p.x264

by jasses

  • 0
  • 0
  • 0
208 views

Общее

Уникальный идентификатор : 227523822428644646322628041653496943177 (0xAB2B7E885394934B87A2723B245D9249)
Полное имя : Girl.With.Dragon.Tattoo.2011.BDRip.1080p.x264-jasses.mkv
Формат : Matroska
Версия формата : Version 2
Размер файла : 7,14 Гбайт
Продолжительность : 2 ч. 38 м.
Общий поток : 6460 Кбит/сек
Название фильма : = HDTracker.org = jasses =
Дата кодирования : UTC 2012-03-05 16:12:51
Программа кодирования : mkvmerge v4.9.1 ('Ich will') сборка от Jul 11 2011 23:53:15
Библиотека кодирования : libebml v1.2.1 + libmatroska v1.1.1

 

Видео

Идентификатор : 1
Формат : AVC
Формат/Информация : Advanced Video Codec
Профиль формата : High@L4.1
Параметр CABAC формата : Да
Параметр ReFrames формата : 5 кадров
Идентификатор кодека : V_MPEG4/ISO/AVC
Продолжительность : 2 ч. 38 м.
Битрейт : 4500 Кбит/сек
Ширина : 1920 пикселей
Высота : 798 пикселей
Соотношение сторон : 2,40:1
Частота кадров : 23,976 кадра/сек
Цветовое пространство : YUV
Субдискретизация насыщенности : 4:2:0
Битовая глубина : 8 бит
Тип развёртки : Прогрессивная
Бит/(Пиксели*Кадры) : 0.122
Размер потока : 4,83 Гбайт (68%)
Библиотека кодирования : x264 core 116 r2074 2641b9e
Настройки программы : cabac=1 / ref=5 / deblock=1:-3:-3 / analyse=0x3:0x113 / me=tesa / subme=11 / psy=1 / psy_rd=1.00:0.00 / mixed_ref=1 / me_range=32 / chroma_me=1 / trellis=2 / 8x8dct=1 / cqm=0 / deadzone=21,11 / fast_pskip=0 / chroma_qp_offset=-2 / threads=12 / sliced_threads=0 / nr=0 / decimate=1 / interlaced=0 / bluray_compat=0 / constrained_intra=0 / bframes=9 / b_pyramid=2 / b_adapt=2 / b_bias=0 / direct=3 / weightb=1 / open_gop=0 / weightp=2 / keyint=250 / keyint_min=24 / scenecut=40 / intra_refresh=0 / rc_lookahead=60 / rc=2pass / mbtree=1 / bitrate=4500 / ratetol=1.0 / qcomp=0.65 / qpmin=0 / qpmax=69 / qpstep=4 / cplxblur=20.0 / qblur=0.5 / vbv_maxrate=50000 / vbv_bufsize=50000 / nal_hrd=none / ip_ratio=1.40 / aq=1:1.00
Язык : English

 

Аудио #1

Идентификатор : 2
Формат : AC-3
Формат/Информация : Audio Coding 3
Расширение режима : CM (complete main)
Идентификатор кодека : A_AC3
Продолжительность : 2 ч. 38 м.
Вид битрейта : Постоянный
Битрейт : 448 Кбит/сек
Каналы : 6 каналов
Расположение каналов : Front: L C R, Side: L R, LFE
Частота : 48,0 КГц
Битовая глубина : 16 бит
Метод сжатия : С потерями
Размер потока : 507 Мбайт (7%)
Заголовок : AC3 - Дубляж
Язык : Russian

 

Аудио #2

Идентификатор : 3
Формат : DTS
Формат/Информация : Digital Theater Systems
Идентификатор кодека : A_DTS
Продолжительность : 2 ч. 38 м.
Вид битрейта : Постоянный
Битрейт : 1510 Кбит/сек
Каналы : 6 каналов
Расположение каналов : Front: L C R, Side: L R, LFE
Частота : 48,0 КГц
Битовая глубина : 16 бит
Метод сжатия : С потерями
Размер потока : 1,67 Гбайт (23%)
Заголовок : DTS
Язык : English

 

Текст #1

Идентификатор : 4
Формат : UTF-8
Идентификатор кодека : S_TEXT/UTF8
Идентификатор кодека/Информация : UTF-8 Plain Text
Заголовок : Full
Язык : Russian

 

Текст #2

Идентификатор : 5
Формат : UTF-8
Идентификатор кодека : S_TEXT/UTF8
Идентификатор кодека/Информация : UTF-8 Plain Text
Заголовок : Forced
Язык : Russian

 

Текст #3

Идентификатор : 6
Формат : UTF-8
Идентификатор кодека : S_TEXT/UTF8
Идентификатор кодека/Информация : UTF-8 Plain Text
Язык : English

 

Меню

00:00:00.000 : en:00:00:00.000
00:09:53.884 : en:00:09:53.884
00:22:05.699 : en:00:22:05.699
00:28:24.786 : en:00:28:24.786
00:38:09.745 : en:00:38:09.745
00:48:00.919 : en:00:48:00.919
00:55:07.345 : en:00:55:07.345
01:01:06.204 : en:01:01:06.204
01:09:22.032 : en:01:09:22.032
01:16:12.859 : en:01:16:12.859
01:23:27.711 : en:01:23:27.711
01:32:49.730 : en:01:32:49.730
01:41:35.005 : en:01:41:35.005
01:58:54.210 : en:01:58:54.210
02:14:42.532 : en:02:14:42.532
02:23:15.837 : en:02:23:15.837

--------------------------------------------------------------------------------

x264 [info]: frame I:2240  Avg QP:14.21  size:135212
x264 [info]: frame P:46299 Avg QP:15.71  size: 43644
x264 [info]: frame B:178957 Avg QP:16.80  size: 16840

Add A Comment: