CopyPastehas never been so tasty!

hd

by anonymous

  • 0
  • 0
  • 0
566 views

General
Complete name                    : Black.Swan.2010.BDRip.720p.x264-jasses.mkv
Format                           : Matroska
File size                        : 9.35 GiB
Duration                         : 1h 48mn
Overall bit rate                 : 12.4 Mbps
Movie name                       : = hdtracker.org = jasses =
Encoded date                     : UTC 2010-01-04 15:15:39
Writing application              : mkvmerge v4.3.0 ('Escape from the Island') сборка от Sep  5 2010 10:30:51
Writing library                  : libebml v1.0.0 + libmatroska v1.0.0

Video
ID                               : 1
Format                           : AVC
Format/Info                      : Advanced Video Codec
Format profile                   : High@L4.1
Format settings, CABAC           : Yes
Format settings, ReFrames        : 9 frames
Format settings, GOP             : M=1, N=51
Codec ID                         : V_MPEG4/ISO/AVC
Duration                         : 1h 48mn
Bit rate                         : 10.1 Mbps
Width                            : 1 280 pixels
Height                           : 534 pixels
Display aspect ratio             : 2.35:1
Frame rate                       : 23.976 fps
Color space                      : YUV
Chroma subsampling               : 4:2:0
Bit depth                        : 8 bits
Scan type                        : Progressive
Bits/(Pixel*Frame)               : 0.616
Stream size                      : 7.45 GiB (80%)
Writing library                  : x264 core 115 r1936 7a9e08d
Encoding settings                : cabac=1 / ref=9 / deblock=1:-3:-2 / analyse=0x3:0x113 / me=umh / subme=10 / psy=1 / psy_rd=1.00:0.00 / mixed_ref=1 / me_range=32 / chroma_me=1 / trellis=2 / 8x8dct=1 / cqm=0 / deadzone=21,11 / fast_pskip=0 / chroma_qp_offset=-2 / threads=12 / sliced_threads=0 / nr=0 / decimate=0 / interlaced=0 / bluray_compat=0 / constrained_intra=0 / bframes=8 / b_pyramid=2 / b_adapt=2 / b_bias=0 / direct=3 / weightb=1 / open_gop=0 / weightp=2 / keyint=250 / keyint_min=23 / scenecut=40 / intra_refresh=0 / rc_lookahead=60 / rc=2pass / mbtree=1 / bitrate=10100 / ratetol=1.0 / qcomp=0.70 / qpmin=0 / qpmax=69 / qpstep=4 / cplxblur=20.0 / qblur=0.5 / vbv_maxrate=17500 / vbv_bufsize=14000 / nal_hrd=none / ip_ratio=1.40 / aq=1:0.80

Audio #1
ID                               : 2
Format                           : DTS
Format/Info                      : Digital Theater Systems
Codec ID                         : A_DTS
Duration                         : 1h 48mn
Bit rate mode                    : Constant
Bit rate                         : 755 Kbps
Channel(s)                       : 6 channels
Channel positions                : Front: L C R, Side: L R, LFE
Sampling rate                    : 48.0 KHz
Bit depth                        : 24 bits
Compression mode                 : Lossy
Stream size                      : 584 MiB (6%)
Title                            : DTS
Language                         : Russian

Audio #2
ID                               : 3
Format                           : DTS
Format/Info                      : Digital Theater Systems
Codec ID                         : A_DTS
Duration                         : 1h 48mn
Bit rate mode                    : Constant
Bit rate                         : 1 510 Kbps
Channel(s)                       : 6 channels
Channel positions                : Front: L C R, Side: L R, LFE
Sampling rate                    : 48.0 KHz
Bit depth                        : 24 bits
Compression mode                 : Lossy
Stream size                      : 1.14 GiB (12%)
Title                            : DTS
Language                         : English

Text #1
ID                               : 4
Format                           : UTF-8
Codec ID                         : S_TEXT/UTF8
Codec ID/Info                    : UTF-8 Plain Text
Language                         : Russian

Text #2
ID                               : 5
Format                           : UTF-8
Codec ID                         : S_TEXT/UTF8
Codec ID/Info                    : UTF-8 Plain Text
Language                         : English

Menu
00:00:00.000                     : :00:00:00.000
00:06:18.044                     : :00:06:18.044
00:12:54.732                     : :00:12:54.732
00:16:35.077                     : :00:16:35.077
00:19:06.687                     : :00:19:06.687
00:21:53.020                     : :00:21:53.020
00:26:33.592                     : :00:26:33.592
00:29:43.865                     : :00:29:43.865
00:32:18.812                     : :00:32:18.812
00:36:05.872                     : :00:36:05.872
00:40:42.607                     : :00:40:42.607
00:43:52.129                     : :00:43:52.129
00:46:39.839                     : :00:46:39.839
00:49:33.679                     : :00:49:33.679
00:52:38.489                     : :00:52:38.489
00:55:47.886                     : :00:55:47.886
00:58:23.875                     : :00:58:23.875
01:06:56.095                     : :01:06:56.095
01:10:15.795                     : :01:10:15.795
01:13:26.485                     : :01:13:26.485
01:18:28.370                     : :01:18:28.370
01:22:49.798                     : :01:22:49.798
01:25:31.793                     : :01:25:31.793
01:28:40.565                     : :01:28:40.565
01:32:53.234                     : :01:32:53.234
01:34:35.044                     : :01:34:35.044
01:37:47.445                     : :01:37:47.445
01:42:57.797                     : :01:42:57.797

 

 -----------------------------------------------------------------------------

x264 [info]: frame I:959   Avg QP:19.60  size:100695
x264 [info]: frame P:31064 Avg QP:20.86  size: 63138
x264 [info]: frame B:123521 Avg QP:22.26  size: 49629

 

Add A Comment: