CopyPastehas never been so tasty!

Journey to the Edge of the Universe (2008)

by anonymous

  • 0
  • 0
302 views

Disc Title:     Journey to the Edge of the Universe (2008)
Disc Size:      21 813 167 260 bytes
Protection:     AACS
BD-Java:        No
BDInfo:         0.5.6

Notes:         

BDINFO HOME:
  Cinema Squid
    http://www.cinemasquid.com/blu-ray/tools/bdinfo

INCLUDES FORUMS REPORT FOR:
  AVS Forum Blu-ray Audio and Video Specifications Thread
    http://www.avsforum.com/avs-vb/showthread.php?t=1155731


********************
PLAYLIST: 00000.MPLS
********************

<--- BEGIN FORUMS PASTE --->
[code]
                                                                                                                Total   Video                                            
Title                                                           Codec   Length  Movie Size      Disc Size       Bitrate Bitrate Main Audio Track                          Secondary Audio Track
-----                                                           ------  ------- --------------  --------------  ------- ------- ------------------                        ---------------------
00000.MPLS                                                      VC-1    0:01:19 155 645 952     21 813 167 260  15,63   14,44   DD AC3 2.0 192Kbps                       
[/code]

[code]

DISC INFO:

Disc Title:     Journey to the Edge of the Universe (2008)
Disc Size:      21 813 167 260 bytes
Protection:     AACS
BD-Java:        No
BDInfo:         0.5.6

PLAYLIST REPORT:

Name:                   00000.MPLS
Length:                 0:01:19 (h:m:s)
Size:                   155 645 952 bytes
Total Bitrate:          15,63 Mbps

VIDEO:

Codec                   Bitrate             Description    
-----                   -------             -----------    
VC-1 Video              14439 kbps          1080i / 29,970 fps / 16:9 / Advanced Profile 3

AUDIO:

Codec                           Language        Bitrate         Description    
-----                           --------        -------         -----------    
Dolby Digital Audio             English         192 kbps        2.0 / 48 kHz / 192 kbps / DN -4dB
Dolby Digital Audio             English         192 kbps        2.0 / 48 kHz / 192 kbps / DN -4dB

FILES:

Name            Time In         Length          Size            Total Bitrate  
----            -------         ------          ----            -------------  
00005.M2TS      0:00:00.000     0:01:19.679     155 645 952     15 627         

CHAPTERS:

Number          Time In         Length          Avg Video Rate  Max 1-Sec Rate  Max 1-Sec Time  Max 5-Sec Rate  Max 5-Sec Time  Max 10Sec Rate  Max 10Sec Time  Avg Frame Size  Max Frame Size  Max Frame Time 
------          -------         ------          --------------  --------------  --------------  --------------  --------------  --------------  --------------  --------------  --------------  -------------- 
1               0:00:00.000     0:01:19.679     14 439 kbps     26 575 kbps     00:00:16.883    20 569 kbps     00:00:13.580    17 997 kbps     00:00:15.648    60 964 bytes    265 428 bytes   00:00:17.384   

STREAM DIAGNOSTICS:

File            PID             Type            Codec           Language                Seconds                 Bitrate                 Bytes           Packets        
----            ---             ----            -----           --------                --------------          --------------          -------------   -----          
00005.M2TS      4113 (0x1011)   0xEA            VC-1                                    79,580                  14 457                  143 814 524     783 051        
00005.M2TS      4352 (0x1100)   0x81            AC3             eng (English)           79,580                  192                     1 912 320       12 450         
00005.M2TS      4353 (0x1101)   0x81            AC3             eng (English)           79,580                  192                     1 912 320       12 450         

[/code]
<---- END FORUMS PASTE ---->

QUICK SUMMARY:

Disc Title: Journey to the Edge of the Universe (2008)
Disc Size: 21 813 167 260 bytes
Protection: AACS
BD-Java: No
Playlist: 00000.MPLS
Size: 155 645 952 bytes
Length: 0:01:19
Total Bitrate: 15,63 Mbps
Video: VC-1 Video / 14439 kbps / 1080i / 29,970 fps / 16:9 / Advanced Profile 3
Audio: English / Dolby Digital Audio / 2.0 / 48 kHz / 192 kbps / DN -4dB
Audio: English / Dolby Digital Audio / 2.0 / 48 kHz / 192 kbps / DN -4dB


********************
PLAYLIST: 00002.MPLS
********************

<--- BEGIN FORUMS PASTE --->
[code]
                                                                                                                Total   Video                                            
Title                                                           Codec   Length  Movie Size      Disc Size       Bitrate Bitrate Main Audio Track                          Secondary Audio Track
-----                                                           ------  ------- --------------  --------------  ------- ------- ------------------                        ---------------------
00002.MPLS                                                      VC-1    0:01:08 130 590 720     21 813 167 260  15,21   14,04   DD AC3 2.0 192Kbps                       
[/code]

[code]

DISC INFO:

Disc Title:     Journey to the Edge of the Universe (2008)
Disc Size:      21 813 167 260 bytes
Protection:     AACS
BD-Java:        No
BDInfo:         0.5.6

PLAYLIST REPORT:

Name:                   00002.MPLS
Length:                 0:01:08 (h:m:s)
Size:                   130 590 720 bytes
Total Bitrate:          15,21 Mbps

VIDEO:

Codec                   Bitrate             Description    
-----                   -------             -----------    
VC-1 Video              14043 kbps          1080p / 23,976 fps / 16:9 / Advanced Profile 3

AUDIO:

Codec                           Language        Bitrate         Description    
-----                           --------        -------         -----------    
Dolby Digital Audio             English         192 kbps        2.0 / 48 kHz / 192 kbps / DN -4dB
Dolby Digital Audio             English         192 kbps        2.0 / 48 kHz / 192 kbps / DN -4dB

FILES:

Name            Time In         Length          Size            Total Bitrate  
----            -------         ------          ----            -------------  
00007.M2TS      0:00:00.000     0:01:08.693     130 590 720     15 208         

CHAPTERS:

Number          Time In         Length          Avg Video Rate  Max 1-Sec Rate  Max 1-Sec Time  Max 5-Sec Rate  Max 5-Sec Time  Max 10Sec Rate  Max 10Sec Time  Avg Frame Size  Max Frame Size  Max Frame Time 
------          -------         ------          --------------  --------------  --------------  --------------  --------------  --------------  --------------  --------------  --------------  -------------- 
1               0:00:00.000     0:01:08.693     14 043 kbps     35 062 kbps     00:00:26.192    29 884 kbps     00:00:07.173    26 723 kbps     00:00:02.460    73 215 bytes    354 670 bytes   00:00:09.259   

STREAM DIAGNOSTICS:

File            PID             Type            Codec           Language                Seconds                 Bitrate                 Bytes           Packets        
----            ---             ----            -----           --------                --------------          --------------          -------------   -----          
00007.M2TS      4113 (0x1011)   0xEA            VC-1                                    68,610                  14 060                  120 585 680     656 373        
00007.M2TS      4352 (0x1100)   0x81            AC3             eng (English)           68,610                  192                     1 648 896       10 735         
00007.M2TS      4353 (0x1101)   0x81            AC3             eng (English)           68,610                  192                     1 648 896       10 735         

[/code]
<---- END FORUMS PASTE ---->

QUICK SUMMARY:

Disc Title: Journey to the Edge of the Universe (2008)
Disc Size: 21 813 167 260 bytes
Protection: AACS
BD-Java: No
Playlist: 00002.MPLS
Size: 130 590 720 bytes
Length: 0:01:08
Total Bitrate: 15,21 Mbps
Video: VC-1 Video / 14043 kbps / 1080p / 23,976 fps / 16:9 / Advanced Profile 3
Audio: English / Dolby Digital Audio / 2.0 / 48 kHz / 192 kbps / DN -4dB
Audio: English / Dolby Digital Audio / 2.0 / 48 kHz / 192 kbps / DN -4dB


********************
PLAYLIST: 00005.MPLS
********************

<--- BEGIN FORUMS PASTE --->
[code]
                                                                                                                Total   Video                                            
Title                                                           Codec   Length  Movie Size      Disc Size       Bitrate Bitrate Main Audio Track                          Secondary Audio Track
-----                                                           ------  ------- --------------  --------------  ------- ------- ------------------                        ---------------------
00005.MPLS                                                      MPEG-2  0:01:02 60 966 912      21 813 167 260  7,86    7,00    DD AC3 2.0 192Kbps                       
[/code]

[code]

DISC INFO:

Disc Title:     Journey to the Edge of the Universe (2008)
Disc Size:      21 813 167 260 bytes
Protection:     AACS
BD-Java:        No
BDInfo:         0.5.6

PLAYLIST REPORT:

Name:                   00005.MPLS
Length:                 0:01:02 (h:m:s)
Size:                   60 966 912 bytes
Total Bitrate:          7,86 Mbps

VIDEO:

Codec                   Bitrate             Description    
-----                   -------             -----------    
MPEG-2 Video            6996 kbps           480i / 29,970 fps / 4:3

AUDIO:

Codec                           Language        Bitrate         Description    
-----                           --------        -------         -----------    
Dolby Digital Audio             English         192 kbps        2.0 / 48 kHz / 192 kbps
Dolby Digital Audio             English         192 kbps        2.0 / 48 kHz / 192 kbps

FILES:

Name            Time In         Length          Size            Total Bitrate  
----            -------         ------          ----            -------------  
00010.M2TS      0:00:00.000     0:01:02.062     60 966 912      7 859          

CHAPTERS:

Number          Time In         Length          Avg Video Rate  Max 1-Sec Rate  Max 1-Sec Time  Max 5-Sec Rate  Max 5-Sec Time  Max 10Sec Rate  Max 10Sec Time  Avg Frame Size  Max Frame Size  Max Frame Time 
------          -------         ------          --------------  --------------  --------------  --------------  --------------  --------------  --------------  --------------  --------------  -------------- 
1               0:00:00.000     0:01:02.062     6 996 kbps      8 049 kbps      00:00:53.019    7 182 kbps      00:00:46.012    7 107 kbps      00:00:46.179    29 179 bytes    124 860 bytes   00:00:59.559   

STREAM DIAGNOSTICS:

File            PID             Type            Codec           Language                Seconds                 Bitrate                 Bytes           Packets        
----            ---             ----            -----           --------                --------------          --------------          -------------   -----          
00010.M2TS      4113 (0x1011)   0x02            MPEG-2                                  61,962                  7 007                   54 272 530      296 044        
00010.M2TS      4352 (0x1100)   0x81            AC3             eng (English)           61,962                  192                     1 489 152       9 695          
00010.M2TS      4353 (0x1101)   0x81            AC3             eng (English)           61,962                  192                     1 489 152       9 695          

[/code]
<---- END FORUMS PASTE ---->

QUICK SUMMARY:

Disc Title: Journey to the Edge of the Universe (2008)
Disc Size: 21 813 167 260 bytes
Protection: AACS
BD-Java: No
Playlist: 00005.MPLS
Size: 60 966 912 bytes
Length: 0:01:02
Total Bitrate: 7,86 Mbps
Video: MPEG-2 Video / 6996 kbps / 480i / 29,970 fps / 4:3
Audio: English / Dolby Digital Audio / 2.0 / 48 kHz / 192 kbps
Audio: English / Dolby Digital Audio / 2.0 / 48 kHz / 192 kbps


********************
PLAYLIST: 00001.MPLS
********************

<--- BEGIN FORUMS PASTE --->
[code]
                                                                                                                Total   Video                                            
Title                                                           Codec   Length  Movie Size      Disc Size       Bitrate Bitrate Main Audio Track                          Secondary Audio Track
-----                                                           ------  ------- --------------  --------------  ------- ------- ------------------                        ---------------------
00001.MPLS                                                      VC-1    0:00:38 73 070 592      21 813 167 260  15,37   14,19   DD AC3 2.0 192Kbps                       
[/code]

[code]

DISC INFO:

Disc Title:     Journey to the Edge of the Universe (2008)
Disc Size:      21 813 167 260 bytes
Protection:     AACS
BD-Java:        No
BDInfo:         0.5.6

PLAYLIST REPORT:

Name:                   00001.MPLS
Length:                 0:00:38 (h:m:s)
Size:                   73 070 592 bytes
Total Bitrate:          15,37 Mbps

VIDEO:

Codec                   Bitrate             Description    
-----                   -------             -----------    
VC-1 Video              14190 kbps          1080i / 29,970 fps / 16:9 / Advanced Profile 3

AUDIO:

Codec                           Language        Bitrate         Description    
-----                           --------        -------         -----------    
Dolby Digital Audio             English         192 kbps        2.0 / 48 kHz / 192 kbps / DN -4dB
Dolby Digital Audio             English         192 kbps        2.0 / 48 kHz / 192 kbps / DN -4dB

FILES:

Name            Time In         Length          Size            Total Bitrate  
----            -------         ------          ----            -------------  
00006.M2TS      0:00:00.000     0:00:38.038     73 070 592      15 368         

CHAPTERS:

Number          Time In         Length          Avg Video Rate  Max 1-Sec Rate  Max 1-Sec Time  Max 5-Sec Rate  Max 5-Sec Time  Max 10Sec Rate  Max 10Sec Time  Avg Frame Size  Max Frame Size  Max Frame Time 
------          -------         ------          --------------  --------------  --------------  --------------  --------------  --------------  --------------  --------------  --------------  -------------- 
1               0:00:00.000     0:00:38.038     14 190 kbps     20 835 kbps     00:00:13.780    18 052 kbps     00:00:29.262    15 804 kbps     00:00:25.458    60 839 bytes    198 105 bytes   00:00:12.846   

STREAM DIAGNOSTICS:

File            PID             Type            Codec           Language                Seconds                 Bitrate                 Bytes           Packets        
----            ---             ----            -----           --------                --------------          --------------          -------------   -----          
00006.M2TS      4113 (0x1011)   0xEA            VC-1                                    37,938                  14 228                  67 470 675      367 387        
00006.M2TS      4352 (0x1100)   0x81            AC3             eng (English)           37,938                  193                     913 152         5 945          
00006.M2TS      4353 (0x1101)   0x81            AC3             eng (English)           37,938                  193                     913 152         5 945          

[/code]
<---- END FORUMS PASTE ---->

QUICK SUMMARY:

Disc Title: Journey to the Edge of the Universe (2008)
Disc Size: 21 813 167 260 bytes
Protection: AACS
BD-Java: No
Playlist: 00001.MPLS
Size: 73 070 592 bytes
Length: 0:00:38
Total Bitrate: 15,37 Mbps
Video: VC-1 Video / 14190 kbps / 1080i / 29,970 fps / 16:9 / Advanced Profile 3
Audio: English / Dolby Digital Audio / 2.0 / 48 kHz / 192 kbps / DN -4dB
Audio: English / Dolby Digital Audio / 2.0 / 48 kHz / 192 kbps / DN -4dB


********************
PLAYLIST: 00004.MPLS
********************

<--- BEGIN FORUMS PASTE --->
[code]
                                                                                                                Total   Video                                            
Title                                                           Codec   Length  Movie Size      Disc Size       Bitrate Bitrate Main Audio Track                          Secondary Audio Track
-----                                                           ------  ------- --------------  --------------  ------- ------- ------------------                        ---------------------
00004.MPLS                                                      MPEG-2  0:00:31 18 702 336      21 813 167 260  4,76    4,02    DD AC3 2.0 192Kbps                       
[/code]

[code]

DISC INFO:

Disc Title:     Journey to the Edge of the Universe (2008)
Disc Size:      21 813 167 260 bytes
Protection:     AACS
BD-Java:        No
BDInfo:         0.5.6

PLAYLIST REPORT:

Name:                   00004.MPLS
Length:                 0:00:31 (h:m:s)
Size:                   18 702 336 bytes
Total Bitrate:          4,76 Mbps

VIDEO:

Codec                   Bitrate             Description    
-----                   -------             -----------    
MPEG-2 Video            4021 kbps           480i / 29,970 fps / 4:3

AUDIO:

Codec                           Language        Bitrate         Description    
-----                           --------        -------         -----------    
Dolby Digital Audio             English         192 kbps        2.0 / 48 kHz / 192 kbps / DN -1dB
Dolby Digital Audio             English         192 kbps        2.0 / 48 kHz / 192 kbps / DN -1dB

FILES:

Name            Time In         Length          Size            Total Bitrate  
----            -------         ------          ----            -------------  
00009.M2TS      0:00:00.000     0:00:31.464     18 702 336      4 755          

CHAPTERS:

Number          Time In         Length          Avg Video Rate  Max 1-Sec Rate  Max 1-Sec Time  Max 5-Sec Rate  Max 5-Sec Time  Max 10Sec Rate  Max 10Sec Time  Avg Frame Size  Max Frame Size  Max Frame Time 
------          -------         ------          --------------  --------------  --------------  --------------  --------------  --------------  --------------  --------------  --------------  -------------- 
1               0:00:00.000     0:00:31.464     4 021 kbps      7 304 kbps      00:00:29.195    5 519 kbps      00:00:12.946    5 173 kbps      00:00:14.280    16 770 bytes    112 684 bytes   00:00:02.469   

STREAM DIAGNOSTICS:

File            PID             Type            Codec           Language                Seconds                 Bitrate                 Bytes           Packets        
----            ---             ----            -----           --------                --------------          --------------          -------------   -----          
00009.M2TS      4113 (0x1011)   0x02            MPEG-2                                  31,398                  4 029                   15 814 054      86 488         
00009.M2TS      4352 (0x1100)   0x81            AC3             eng (English)           31,398                  192                     754 944         4 915          
00009.M2TS      4353 (0x1101)   0x81            AC3             eng (English)           31,398                  192                     754 944         4 915          

[/code]
<---- END FORUMS PASTE ---->

QUICK SUMMARY:

Disc Title: Journey to the Edge of the Universe (2008)
Disc Size: 21 813 167 260 bytes
Protection: AACS
BD-Java: No
Playlist: 00004.MPLS
Size: 18 702 336 bytes
Length: 0:00:31
Total Bitrate: 4,76 Mbps
Video: MPEG-2 Video / 4021 kbps / 480i / 29,970 fps / 4:3
Audio: English / Dolby Digital Audio / 2.0 / 48 kHz / 192 kbps / DN -1dB
Audio: English / Dolby Digital Audio / 2.0 / 48 kHz / 192 kbps / DN -1dB


********************
PLAYLIST: 00003.MPLS
********************

<--- BEGIN FORUMS PASTE --->
[code]
                                                                                                                Total   Video                                            
Title                                                           Codec   Length  Movie Size      Disc Size       Bitrate Bitrate Main Audio Track                          Secondary Audio Track
-----                                                           ------  ------- --------------  --------------  ------- ------- ------------------                        ---------------------
00003.MPLS                                                      MPEG-2  0:00:30 31 512 576      21 813 167 260  8,30    7,42    DD AC3 2.0 192Kbps                       
[/code]

[code]

DISC INFO:

Disc Title:     Journey to the Edge of the Universe (2008)
Disc Size:      21 813 167 260 bytes
Protection:     AACS
BD-Java:        No
BDInfo:         0.5.6

PLAYLIST REPORT:

Name:                   00003.MPLS
Length:                 0:00:30 (h:m:s)
Size:                   31 512 576 bytes
Total Bitrate:          8,30 Mbps

VIDEO:

Codec                   Bitrate             Description    
-----                   -------             -----------    
MPEG-2 Video            7420 kbps           480i / 29,970 fps / 4:3

AUDIO:

Codec                           Language        Bitrate         Description    
-----                           --------        -------         -----------    
Dolby Digital Audio             English         192 kbps        2.0 / 48 kHz / 192 kbps / DN -5dB
Dolby Digital Audio             English         192 kbps        2.0 / 48 kHz / 192 kbps / DN -5dB

FILES:

Name            Time In         Length          Size            Total Bitrate  
----            -------         ------          ----            -------------  
00008.M2TS      0:00:00.000     0:00:30.363     31 512 576      8 303          

CHAPTERS:

Number          Time In         Length          Avg Video Rate  Max 1-Sec Rate  Max 1-Sec Time  Max 5-Sec Rate  Max 5-Sec Time  Max 10Sec Rate  Max 10Sec Time  Avg Frame Size  Max Frame Size  Max Frame Time 
------          -------         ------          --------------  --------------  --------------  --------------  --------------  --------------  --------------  --------------  --------------  -------------- 
1               0:00:00.000     0:00:30.363     7 420 kbps      9 084 kbps      00:00:11.578    8 253 kbps      00:00:10.810    7 936 kbps      00:00:10.710    30 949 bytes    117 154 bytes   00:00:03.470   

STREAM DIAGNOSTICS:

File            PID             Type            Codec           Language                Seconds                 Bitrate                 Bytes           Packets        
----            ---             ----            -----           --------                --------------          --------------          -------------   -----          
00008.M2TS      4113 (0x1011)   0x02            MPEG-2                                  30,230                  7 453                   28 163 822      153 592        
00008.M2TS      4352 (0x1100)   0x81            AC3             eng (English)           30,230                  193                     728 832         4 745          
00008.M2TS      4353 (0x1101)   0x81            AC3             eng (English)           30,230                  193                     728 832         4 745          

[/code]
<---- END FORUMS PASTE ---->

QUICK SUMMARY:

Disc Title: Journey to the Edge of the Universe (2008)
Disc Size: 21 813 167 260 bytes
Protection: AACS
BD-Java: No
Playlist: 00003.MPLS
Size: 31 512 576 bytes
Length: 0:00:30
Total Bitrate: 8,30 Mbps
Video: MPEG-2 Video / 7420 kbps / 480i / 29,970 fps / 4:3
Audio: English / Dolby Digital Audio / 2.0 / 48 kHz / 192 kbps / DN -5dB
Audio: English / Dolby Digital Audio / 2.0 / 48 kHz / 192 kbps / DN -5dB


********************
PLAYLIST: 00009.MPLS
********************

<--- BEGIN FORUMS PASTE --->
[code]
                                                                                                                Total   Video                                            
Title                                                           Codec   Length  Movie Size      Disc Size       Bitrate Bitrate Main Audio Track                          Secondary Audio Track
-----                                                           ------  ------- --------------  --------------  ------- ------- ------------------                        ---------------------
00009.MPLS                                                      VC-1    0:00:23 15 347 712      21 813 167 260  5,28    4,98                                             
[/code]

[code]

DISC INFO:

Disc Title:     Journey to the Edge of the Universe (2008)
Disc Size:      21 813 167 260 bytes
Protection:     AACS
BD-Java:        No
BDInfo:         0.5.6

PLAYLIST REPORT:

Name:                   00009.MPLS
Length:                 0:00:23 (h:m:s)
Size:                   15 347 712 bytes
Total Bitrate:          5,28 Mbps

VIDEO:

Codec                   Bitrate             Description    
-----                   -------             -----------    
VC-1 Video              4983 kbps           1080p / 23,976 fps / 16:9 / Advanced Profile 3

FILES:

Name            Time In         Length          Size            Total Bitrate  
----            -------         ------          ----            -------------  
00014.M2TS      0:00:00.000     0:00:23.273     15 347 712      5 276          

CHAPTERS:

Number          Time In         Length          Avg Video Rate  Max 1-Sec Rate  Max 1-Sec Time  Max 5-Sec Rate  Max 5-Sec Time  Max 10Sec Rate  Max 10Sec Time  Avg Frame Size  Max Frame Size  Max Frame Time 
------          -------         ------          --------------  --------------  --------------  --------------  --------------  --------------  --------------  --------------  --------------  -------------- 
1               0:00:00.000     0:00:23.273     4 983 kbps      11 000 kbps     00:00:11.845    6 967 kbps      00:00:11.428    6 299 kbps      00:00:10.969    26 944 bytes    365 663 bytes   00:00:16.891   

STREAM DIAGNOSTICS:

File            PID             Type            Codec           Language                Seconds                 Bitrate                 Bytes           Packets        
----            ---             ----            -----           --------                --------------          --------------          -------------   -----          
00014.M2TS      4113 (0x1011)   0xEA            VC-1                                    23,148                  5 010                   14 495 803      79 129         

[/code]
<---- END FORUMS PASTE ---->

QUICK SUMMARY:

Disc Title: Journey to the Edge of the Universe (2008)
Disc Size: 21 813 167 260 bytes
Protection: AACS
BD-Java: No
Playlist: 00009.MPLS
Size: 15 347 712 bytes
Length: 0:00:23
Total Bitrate: 5,28 Mbps
Video: VC-1 Video / 4983 kbps / 1080p / 23,976 fps / 16:9 / Advanced Profile 3