CopyPastehas never been so tasty!

The Bone Collector (1999)

by anonymous

  • 0
  • 0
336 views

Disc Title:     Bone Collector, The (1999)
Disc Size:      37 362 333 959 bytes
Protection:     AACS
BD-Java:        No
BDInfo:         0.5.6

Notes:         

BDINFO HOME:
  Cinema Squid
    http://www.cinemasquid.com/blu-ray/tools/bdinfo

INCLUDES FORUMS REPORT FOR:
  AVS Forum Blu-ray Audio and Video Specifications Thread
    http://www.avsforum.com/avs-vb/showthread.php?t=1155731


********************
PLAYLIST: 00011.MPLS
********************

<--- BEGIN FORUMS PASTE --->
[code]
                                                                                                                Total   Video                                            
Title                                                           Codec   Length  Movie Size      Disc Size       Bitrate Bitrate Main Audio Track                          Secondary Audio Track
-----                                                           ------  ------- --------------  --------------  ------- ------- ------------------                        ---------------------
00011.MPLS                                                      AVC     1:57:57 35 621 935 104  37 362 333 959  40,27   26,92   Dolby TrueHD 5.1 1429Kbps (48kHz/16-bit) 
[/code]

[code]

DISC INFO:

Disc Title:     Bone Collector, The (1999)
Disc Size:      37 362 333 959 bytes
Protection:     AACS
BD-Java:        No
BDInfo:         0.5.6

PLAYLIST REPORT:

Name:                   00011.MPLS
Length:                 1:57:57 (h:m:s)
Size:                   35 621 935 104 bytes
Total Bitrate:          40,27 Mbps

VIDEO:

Codec                   Bitrate             Description    
-----                   -------             -----------    
MPEG-4 AVC Video        26918 kbps          1080p / 23,976 fps / 16:9 / High Profile 4.1

AUDIO:

Codec                           Language        Bitrate         Description    
-----                           --------        -------         -----------    
Dolby TrueHD Audio              English         1429 kbps       5.1 / 48 kHz / 1429 kbps / 16-bit (AC3 Embedded: 5.1 / 48 kHz / 640 kbps)
Dolby TrueHD Audio              German          1519 kbps       5.1 / 48 kHz / 1519 kbps / 16-bit (AC3 Embedded: 5.1 / 48 kHz / 640 kbps)
Dolby TrueHD Audio              Italian         1523 kbps       5.1 / 48 kHz / 1523 kbps / 16-bit (AC3 Embedded: 5.1 / 48 kHz / 640 kbps)
Dolby Digital Audio             Czech           640 kbps        5.1 / 48 kHz / 640 kbps / DN -2dB
Dolby Digital Audio             Russian         384 kbps        5.1 / 48 kHz / 384 kbps / DN -4dB
Dolby Digital Audio             Russian         640 kbps        5.1 / 48 kHz / 640 kbps
Dolby Digital Audio             English         192 kbps        2.0 / 48 kHz / 192 kbps / DN -1dB / Dolby Surround

SUBTITLES:

Codec                           Language        Bitrate         Description    
-----                           --------        -------         -----------    
Presentation Graphics           English         26,519 kbps                    
Presentation Graphics           English         23,057 kbps                    
Presentation Graphics           English         52,811 kbps                    
Presentation Graphics           Arabic          14,817 kbps                    
Presentation Graphics           Bulgarian       25,231 kbps                    
Presentation Graphics           Croatian        21,561 kbps                    
Presentation Graphics           Czech           24,493 kbps                    
Presentation Graphics           Danish          21,636 kbps                    
Presentation Graphics           Dutch           25,482 kbps                    
Presentation Graphics           Dutch           47,495 kbps                    
Presentation Graphics           Finnish         22,748 kbps                    
Presentation Graphics           German          30,596 kbps                    
Presentation Graphics           German          57,678 kbps                    
Presentation Graphics           Greek           23,693 kbps                    
Presentation Graphics           Hebrew          20,477 kbps                    
Presentation Graphics           Hindi           25,498 kbps                    
Presentation Graphics           Hungarian       22,923 kbps                    
Presentation Graphics           Icelandic       26,972 kbps                    
Presentation Graphics           Italian         23,786 kbps                    
Presentation Graphics           Italian         49,032 kbps                    
Presentation Graphics           Norwegian       22,607 kbps                    
Presentation Graphics           Romanian        24,735 kbps                    
Presentation Graphics           Russian         32,347 kbps                    
Presentation Graphics           Slovenian       22,659 kbps                    
Presentation Graphics           Swedish         21,275 kbps                    
Presentation Graphics           Turkish         25,232 kbps                    

FILES:

Name            Time In         Length          Size            Total Bitrate  
----            -------         ------          ----            -------------  
00011.M2TS      0:00:00.000     1:57:57.070     35 621 935 104  40 267         

CHAPTERS:

Number          Time In         Length          Avg Video Rate  Max 1-Sec Rate  Max 1-Sec Time  Max 5-Sec Rate  Max 5-Sec Time  Max 10Sec Rate  Max 10Sec Time  Avg Frame Size  Max Frame Size  Max Frame Time 
------          -------         ------          --------------  --------------  --------------  --------------  --------------  --------------  --------------  --------------  --------------  -------------- 
1               0:00:00.000     0:03:43.056     26 561 kbps     44 354 kbps     00:02:59.137    30 760 kbps     00:00:24.566    29 764 kbps     00:00:50.049    138 452 bytes   607 719 bytes   00:02:59.846   
2               0:03:43.056     0:03:48.686     26 432 kbps     40 433 kbps     00:07:05.424    30 190 kbps     00:05:13.688    29 401 kbps     00:05:13.688    137 805 bytes   487 181 bytes   00:04:12.752   
3               0:07:31.742     0:06:59.460     28 491 kbps     35 800 kbps     00:10:48.981    31 021 kbps     00:10:46.562    30 434 kbps     00:10:48.773    148 537 bytes   540 598 bytes   00:10:54.028   
4               0:14:31.203     0:10:55.988     26 315 kbps     38 814 kbps     00:22:05.907    32 718 kbps     00:21:40.882    31 170 kbps     00:21:40.924    137 193 bytes   652 228 bytes   00:18:15.636   
5               0:25:27.192     0:04:36.776     27 220 kbps     39 714 kbps     00:29:55.084    33 086 kbps     00:29:54.918    30 458 kbps     00:29:49.621    141 912 bytes   527 563 bytes   00:26:04.396   
6               0:30:03.968     0:13:43.072     27 025 kbps     36 921 kbps     00:43:44.121    31 905 kbps     00:33:44.939    31 214 kbps     00:33:43.187    140 896 bytes   583 332 bytes   00:34:53.883   
7               0:43:47.041     0:10:00.558     26 622 kbps     40 071 kbps     00:53:42.802    30 703 kbps     00:45:26.515    29 735 kbps     00:47:12.454    138 796 bytes   600 881 bytes   00:50:39.745   
8               0:53:47.599     0:09:08.172     27 084 kbps     39 953 kbps     01:01:26.557    32 245 kbps     01:01:23.054    30 088 kbps     00:54:50.203    141 204 bytes   780 853 bytes   01:01:25.139   
9               1:02:55.772     0:06:18.920     27 111 kbps     37 277 kbps     01:04:49.135    31 634 kbps     01:04:30.616    31 368 kbps     01:04:25.611    141 346 bytes   623 177 bytes   01:05:05.276   
10              1:09:14.692     0:06:45.154     26 279 kbps     38 194 kbps     01:11:29.410    31 002 kbps     01:15:07.294    29 597 kbps     01:15:07.085    137 005 bytes   569 172 bytes   01:14:30.090   
11              1:15:59.846     0:09:41.831     27 329 kbps     37 163 kbps     01:23:22.539    30 927 kbps     01:23:02.602    30 500 kbps     01:22:57.347    142 479 bytes   586 323 bytes   01:22:55.261   
12              1:25:41.678     0:03:48.728     26 949 kbps     36 023 kbps     01:26:45.283    31 920 kbps     01:25:44.097    30 976 kbps     01:25:41.678    140 497 bytes   534 857 bytes   01:25:49.018   
13              1:29:30.406     0:03:58.947     27 417 kbps     39 589 kbps     01:30:34.887    32 097 kbps     01:30:34.887    30 890 kbps     01:30:34.887    142 939 bytes   513 288 bytes   01:30:48.651   
14              1:33:29.353     0:08:28.216     26 399 kbps     41 715 kbps     01:41:21.992    33 061 kbps     01:41:21.992    31 247 kbps     01:41:21.950    137 630 bytes   569 483 bytes   01:37:40.646   
15              1:41:57.569     0:07:17.687     27 411 kbps     36 495 kbps     01:47:28.442    30 733 kbps     01:43:42.716    29 463 kbps     01:47:28.275    142 906 bytes   487 991 bytes   01:44:24.258   
16              1:49:15.257     0:08:41.812     26 367 kbps     38 824 kbps     01:49:39.489    31 658 kbps     01:49:39.489    30 880 kbps     01:49:38.905    137 489 bytes   634 659 bytes   01:49:22.430   

STREAM DIAGNOSTICS:

File            PID             Type            Codec           Language                Seconds                 Bitrate                 Bytes           Packets        
----            ---             ----            -----           --------                --------------          --------------          -------------   -----          
00011.M2TS      4113 (0x1011)   0x1B            AVC                                     7076,987                26 919                  23 812 816 404  129 517 209    
00011.M2TS      4352 (0x1100)   0x83            TrueHD          eng (English)           7076,987                2 069                   1 830 270 766   13 538 134     
00011.M2TS      4353 (0x1101)   0x83            TrueHD          deu (German)            7076,987                2 159                   1 909 722 090   14 326 381     
00011.M2TS      4354 (0x1102)   0x83            TrueHD          ita (Italian)           7076,987                2 163                   1 913 569 996   14 357 928     
00011.M2TS      4355 (0x1103)   0x81            AC3             ces (Czech)             7076,987                640                     566 167 040     3 317 385      
00011.M2TS      4356 (0x1104)   0x81            AC3             rus (Russian)           7076,987                384                     339 700 224     1 990 431      
00011.M2TS      4357 (0x1105)   0x81            AC3             rus (Russian)           7076,987                640                     566 167 040     3 317 385      
00011.M2TS      4358 (0x1106)   0x81            AC3             eng (English)           7076,987                192                     169 850 112     1 105 795      
00011.M2TS      4608 (0x1200)   0x90            PGS             eng (English)           7076,987                27                      23 459 541      135 577        
00011.M2TS      4609 (0x1201)   0x90            PGS             eng (English)           7076,987                23                      20 397 190      120 303        
00011.M2TS      4610 (0x1202)   0x90            PGS             deu (German)            7076,987                31                      27 066 620      155 239        
00011.M2TS      4611 (0x1203)   0x90            PGS             ita (Italian)           7076,987                24                      21 042 081      122 600        
00011.M2TS      4612 (0x1204)   0x90            PGS             nld (Dutch)             7076,987                25                      22 541 976      130 617        
00011.M2TS      4613 (0x1205)   0x90            PGS             ara (Arabic)            7076,987                15                      13 107 219      79 335         
00011.M2TS      4614 (0x1206)   0x90            PGS             bul (Bulgarian)         7076,987                25                      22 320 093      129 391        
00011.M2TS      4615 (0x1207)   0x90            PGS             hrv (Croatian)          7076,987                22                      19 073 777      109 309        
00011.M2TS      4616 (0x1208)   0x90            PGS             ces (Czech)             7076,987                24                      21 667 211      125 805        
00011.M2TS      4617 (0x1209)   0x90            PGS             dan (Danish)            7076,987                22                      19 140 244      109 607        
00011.M2TS      4618 (0x120A)   0x90            PGS             fin (Finnish)           7076,987                23                      20 123 427      114 980        
00011.M2TS      4619 (0x120B)   0x90            PGS             ell (Greek)             7076,987                24                      20 959 246      121 987        
00011.M2TS      4620 (0x120C)   0x90            PGS             heb (Hebrew)            7076,987                20                      18 114 433      106 594        
00011.M2TS      4621 (0x120D)   0x90            PGS             hin (Hindi)             7076,987                25                      22 556 116      130 733        
00011.M2TS      4622 (0x120E)   0x90            PGS             hun (Hungarian)         7076,987                23                      20 278 388      118 265        
00011.M2TS      4623 (0x120F)   0x90            PGS             isl (Icelandic)         7076,987                27                      23 860 560      137 777        
00011.M2TS      4624 (0x1210)   0x90            PGS             nor (Norwegian)         7076,987                23                      19 998 992      114 281        
00011.M2TS      4625 (0x1211)   0x90            PGS             rus (Russian)           7076,987                32                      28 614 991      163 473        
00011.M2TS      4626 (0x1212)   0x90            PGS             ron (Romanian)          7076,987                25                      21 881 348      126 956        
00011.M2TS      4627 (0x1213)   0x90            PGS             slv (Slovenian)         7076,987                23                      20 044 774      117 004        
00011.M2TS      4628 (0x1214)   0x90            PGS             swe (Swedish)           7076,987                21                      18 820 416      107 847        
00011.M2TS      4629 (0x1215)   0x90            PGS             tur (Turkish)           7076,987                25                      22 321 074      129 365        
00011.M2TS      4630 (0x1216)   0x90            PGS             eng (English)           7076,987                53                      46 718 722      265 491        
00011.M2TS      4631 (0x1217)   0x90            PGS             deu (German)            7076,987                58                      51 023 675      288 740        
00011.M2TS      4632 (0x1218)   0x90            PGS             ita (Italian)           7076,987                49                      43 375 375      247 005        
00011.M2TS      4633 (0x1219)   0x90            PGS             nld (Dutch)             7076,987                47                      42 015 429      239 563        

[/code]
<---- END FORUMS PASTE ---->

QUICK SUMMARY:

Disc Title: Bone Collector, The (1999)
Disc Size: 37 362 333 959 bytes
Protection: AACS
BD-Java: No
Playlist: 00011.MPLS
Size: 35 621 935 104 bytes
Length: 1:57:57
Total Bitrate: 40,27 Mbps
Video: MPEG-4 AVC Video / 26918 kbps / 1080p / 23,976 fps / 16:9 / High Profile 4.1
Audio: English / Dolby TrueHD Audio / 5.1 / 48 kHz / 1429 kbps / 16-bit (AC3 Embedded: 5.1 / 48 kHz / 640 kbps)
Audio: German / Dolby TrueHD Audio / 5.1 / 48 kHz / 1519 kbps / 16-bit (AC3 Embedded: 5.1 / 48 kHz / 640 kbps)
Audio: Italian / Dolby TrueHD Audio / 5.1 / 48 kHz / 1523 kbps / 16-bit (AC3 Embedded: 5.1 / 48 kHz / 640 kbps)
Audio: Czech / Dolby Digital Audio / 5.1 / 48 kHz / 640 kbps / DN -2dB
Audio: Russian / Dolby Digital Audio / 5.1 / 48 kHz / 384 kbps / DN -4dB
Audio: Russian / Dolby Digital Audio / 5.1 / 48 kHz / 640 kbps
Audio: English / Dolby Digital Audio / 2.0 / 48 kHz / 192 kbps / DN -1dB / Dolby Surround
Subtitle: English / 26,519 kbps
Subtitle: English / 23,057 kbps
Subtitle: English / 52,811 kbps
Subtitle: Arabic / 14,817 kbps
Subtitle: Bulgarian / 25,231 kbps
Subtitle: Croatian / 21,561 kbps
Subtitle: Czech / 24,493 kbps
Subtitle: Danish / 21,636 kbps
Subtitle: Dutch / 25,482 kbps
Subtitle: Dutch / 47,495 kbps
Subtitle: Finnish / 22,748 kbps
Subtitle: German / 30,596 kbps
Subtitle: German / 57,678 kbps
Subtitle: Greek / 23,693 kbps
Subtitle: Hebrew / 20,477 kbps
Subtitle: Hindi / 25,498 kbps
Subtitle: Hungarian / 22,923 kbps
Subtitle: Icelandic / 26,972 kbps
Subtitle: Italian / 23,786 kbps
Subtitle: Italian / 49,032 kbps
Subtitle: Norwegian / 22,607 kbps
Subtitle: Romanian / 24,735 kbps
Subtitle: Russian / 32,347 kbps
Subtitle: Slovenian / 22,659 kbps
Subtitle: Swedish / 21,275 kbps
Subtitle: Turkish / 25,232 kbps


********************
PLAYLIST: 00200.MPLS
********************

<--- BEGIN FORUMS PASTE --->
[code]
                                                                                                                Total   Video                                            
Title                                                           Codec   Length  Movie Size      Disc Size       Bitrate Bitrate Main Audio Track                          Secondary Audio Track
-----                                                           ------  ------- --------------  --------------  ------- ------- ------------------                        ---------------------
00200.MPLS                                                      MPEG-2  0:22:37 1 118 822 400   37 362 333 959  6,59    5,93    DD AC3 2.0 192Kbps                       
[/code]

[code]

DISC INFO:

Disc Title:     Bone Collector, The (1999)
Disc Size:      37 362 333 959 bytes
Protection:     AACS
BD-Java:        No
BDInfo:         0.5.6

PLAYLIST REPORT:

Name:                   00200.MPLS
Length:                 0:22:37 (h:m:s)
Size:                   1 118 822 400 bytes
Total Bitrate:          6,59 Mbps

VIDEO:

Codec                   Bitrate             Description    
-----                   -------             -----------    
MPEG-2 Video            5930 kbps           480i / 29,970 fps / 4:3

AUDIO:

Codec                           Language        Bitrate         Description    
-----                           --------        -------         -----------    
Dolby Digital Audio             English         192 kbps        2.0 / 48 kHz / 192 kbps / DN -3dB

SUBTITLES:

Codec                           Language        Bitrate         Description    
-----                           --------        -------         -----------    
Presentation Graphics           English         18,075 kbps                    
Presentation Graphics           Dutch           17,989 kbps                    
Presentation Graphics           German          18,327 kbps                    
Presentation Graphics           Italian         16,890 kbps                    

FILES:

Name            Time In         Length          Size            Total Bitrate  
----            -------         ------          ----            -------------  
00098.M2TS      0:00:00.000     0:22:37.856     1 118 822 400   6 592          

CHAPTERS:

Number          Time In         Length          Avg Video Rate  Max 1-Sec Rate  Max 1-Sec Time  Max 5-Sec Rate  Max 5-Sec Time  Max 10Sec Rate  Max 10Sec Time  Avg Frame Size  Max Frame Size  Max Frame Time 
------          -------         ------          --------------  --------------  --------------  --------------  --------------  --------------  --------------  --------------  --------------  -------------- 
1               0:00:00.000     0:22:37.856     5 930 kbps      11 880 kbps     00:08:20.299    9 816 kbps      00:08:20.266    8 207 kbps      00:08:16.929    24 734 bytes    152 469 bytes   00:03:29.342   

STREAM DIAGNOSTICS:

File            PID             Type            Codec           Language                Seconds                 Bitrate                 Bytes           Packets        
----            ---             ----            -----           --------                --------------          --------------          -------------   -----          
00098.M2TS      4113 (0x1011)   0x02            MPEG-2                                  1357,756                5 931                   1 006 560 555   5 494 058      
00098.M2TS      4352 (0x1100)   0x81            AC3             eng (English)           1357,756                192                     32 589 312      212 170        
00098.M2TS      4608 (0x1200)   0x90            PGS             eng (English)           1357,756                18                      3 067 982       19 086         
00098.M2TS      4609 (0x1201)   0x90            PGS             deu (German)            1357,756                18                      3 110 641       19 339         
00098.M2TS      4610 (0x1202)   0x90            PGS             ita (Italian)           1357,756                17                      2 866 731       18 005         
00098.M2TS      4611 (0x1203)   0x90            PGS             nld (Dutch)             1357,756                18                      3 053 327       19 019         

[/code]
<---- END FORUMS PASTE ---->

QUICK SUMMARY:

Disc Title: Bone Collector, The (1999)
Disc Size: 37 362 333 959 bytes
Protection: AACS
BD-Java: No
Playlist: 00200.MPLS
Size: 1 118 822 400 bytes
Length: 0:22:37
Total Bitrate: 6,59 Mbps
Video: MPEG-2 Video / 5930 kbps / 480i / 29,970 fps / 4:3
Audio: English / Dolby Digital Audio / 2.0 / 48 kHz / 192 kbps / DN -3dB
Subtitle: English / 18,075 kbps
Subtitle: Dutch / 17,989 kbps
Subtitle: German / 18,327 kbps
Subtitle: Italian / 16,890 kbps


********************
PLAYLIST: 00102.MPLS
********************

<--- BEGIN FORUMS PASTE --->
[code]
                                                                                                                Total   Video                                            
Title                                                           Codec   Length  Movie Size      Disc Size       Bitrate Bitrate Main Audio Track                          Secondary Audio Track
-----                                                           ------  ------- --------------  --------------  ------- ------- ------------------                        ---------------------
00102.MPLS                                                      MPEG-2  0:01:00 118 216 704     37 362 333 959  15,75   15,01                                            
[/code]

[code]

DISC INFO:

Disc Title:     Bone Collector, The (1999)
Disc Size:      37 362 333 959 bytes
Protection:     AACS
BD-Java:        No
BDInfo:         0.5.6

PLAYLIST REPORT:

Name:                   00102.MPLS
Length:                 0:01:00 (h:m:s)
Size:                   118 216 704 bytes
Total Bitrate:          15,75 Mbps

VIDEO:

Codec                   Bitrate             Description    
-----                   -------             -----------    
MPEG-2 Video            15013 kbps          1080p / 23,976 fps / 16:9

FILES:

Name            Time In         Length          Size            Total Bitrate  
----            -------         ------          ----            -------------  
00081.M2TS      0:00:00.000     0:01:00.059     118 216 704     15 746         

CHAPTERS:

Number          Time In         Length          Avg Video Rate  Max 1-Sec Rate  Max 1-Sec Time  Max 5-Sec Rate  Max 5-Sec Time  Max 10Sec Rate  Max 10Sec Time  Avg Frame Size  Max Frame Size  Max Frame Time 
------          -------         ------          --------------  --------------  --------------  --------------  --------------  --------------  --------------  --------------  --------------  -------------- 
1               0:00:00.000     0:00:15.014     15 272 kbps     19 624 kbps     00:00:13.930    15 925 kbps     00:00:09.926    15 462 kbps     00:00:04.921    79 401 bytes    663 627 bytes   00:00:14.931   
2               0:00:15.014     0:00:15.014     14 775 kbps     15 185 kbps     00:00:16.433    15 033 kbps     00:00:16.433    15 017 kbps     00:00:16.433    77 031 bytes    674 417 bytes   00:00:15.432   
3               0:00:30.029     0:00:15.014     15 005 kbps     15 922 kbps     00:00:43.960    15 184 kbps     00:00:39.956    15 092 kbps     00:00:34.951    78 232 bytes    253 660 bytes   00:00:44.961   
4               0:00:45.044     0:00:15.014     15 001 kbps     15 033 kbps     00:00:45.045    15 007 kbps     00:00:45.044    15 003 kbps     00:00:45.044    78 424 bytes    253 660 bytes   00:00:45.462   

STREAM DIAGNOSTICS:

File            PID             Type            Codec           Language                Seconds                 Bitrate                 Bytes           Packets        
----            ---             ----            -----           --------                --------------          --------------          -------------   -----          
00081.M2TS      4113 (0x1011)   0x02            MPEG-2                                  59,935                  15 045                  112 712 665     613 678        

[/code]
<---- END FORUMS PASTE ---->

QUICK SUMMARY:

Disc Title: Bone Collector, The (1999)
Disc Size: 37 362 333 959 bytes
Protection: AACS
BD-Java: No
Playlist: 00102.MPLS
Size: 118 216 704 bytes
Length: 0:01:00
Total Bitrate: 15,75 Mbps
Video: MPEG-2 Video / 15013 kbps / 1080p / 23,976 fps / 16:9


********************
PLAYLIST: 00201.MPLS
********************

<--- BEGIN FORUMS PASTE --->
[code]
                                                                                                                Total   Video                                            
Title                                                           Codec   Length  Movie Size      Disc Size       Bitrate Bitrate Main Audio Track                          Secondary Audio Track
-----                                                           ------  ------- --------------  --------------  ------- ------- ------------------                        ---------------------
00201.MPLS                                                      MPEG-2  0:00:32 85 831 680      37 362 333 959  21,27   19,48   DD AC3 5.1 640Kbps                       
[/code]

[code]

DISC INFO:

Disc Title:     Bone Collector, The (1999)
Disc Size:      37 362 333 959 bytes
Protection:     AACS
BD-Java:        No
BDInfo:         0.5.6

PLAYLIST REPORT:

Name:                   00201.MPLS
Length:                 0:00:32 (h:m:s)
Size:                   85 831 680 bytes
Total Bitrate:          21,27 Mbps

VIDEO:

Codec                   Bitrate             Description    
-----                   -------             -----------    
MPEG-2 Video            19477 kbps          1080p / 23,976 fps / 16:9

AUDIO:

Codec                           Language        Bitrate         Description    
-----                           --------        -------         -----------    
Dolby Digital Audio             English         640 kbps        5.1 / 48 kHz / 640 kbps / DN -10dB

SUBTITLES:

Codec                           Language        Bitrate         Description    
-----                           --------        -------         -----------    
Presentation Graphics           Dutch           44,527 kbps                    
Presentation Graphics           German          51,277 kbps                    
Presentation Graphics           Italian         44,197 kbps                    

FILES:

Name            Time In         Length          Size            Total Bitrate  
----            -------         ------          ----            -------------  
00099.M2TS      0:00:00.000     0:00:32.282     85 831 680      21 270         

CHAPTERS:

Number          Time In         Length          Avg Video Rate  Max 1-Sec Rate  Max 1-Sec Time  Max 5-Sec Rate  Max 5-Sec Time  Max 10Sec Rate  Max 10Sec Time  Avg Frame Size  Max Frame Size  Max Frame Time 
------          -------         ------          --------------  --------------  --------------  --------------  --------------  --------------  --------------  --------------  --------------  -------------- 
1               0:00:00.000     0:00:32.282     19 477 kbps     34 564 kbps     00:00:04.254    30 262 kbps     00:00:04.254    27 132 kbps     00:00:04.254    101 544 bytes   325 377 bytes   00:00:14.931   

STREAM DIAGNOSTICS:

File            PID             Type            Codec           Language                Seconds                 Bitrate                 Bytes           Packets        
----            ---             ----            -----           --------                --------------          --------------          -------------   -----          
00099.M2TS      4113 (0x1011)   0x02            MPEG-2                                  32,157                  19 553                  78 595 067      427 590        
00099.M2TS      4352 (0x1100)   0x81            AC3             eng (English)           32,157                  643                     2 583 040       15 135         
00099.M2TS      4608 (0x1200)   0x90            PGS             deu (German)            32,157                  51                      206 919         1 169          
00099.M2TS      4609 (0x1201)   0x90            PGS             ita (Italian)           32,157                  44                      178 347         1 008          
00099.M2TS      4610 (0x1202)   0x90            PGS             nld (Dutch)             32,157                  45                      179 678         1 015          

[/code]
<---- END FORUMS PASTE ---->

QUICK SUMMARY:

Disc Title: Bone Collector, The (1999)
Disc Size: 37 362 333 959 bytes
Protection: AACS
BD-Java: No
Playlist: 00201.MPLS
Size: 85 831 680 bytes
Length: 0:00:32
Total Bitrate: 21,27 Mbps
Video: MPEG-2 Video / 19477 kbps / 1080p / 23,976 fps / 16:9
Audio: English / Dolby Digital Audio / 5.1 / 48 kHz / 640 kbps / DN -10dB
Subtitle: Dutch / 44,527 kbps
Subtitle: German / 51,277 kbps
Subtitle: Italian / 44,197 kbps


********************
PLAYLIST: 00186.MPLS
********************

<--- BEGIN FORUMS PASTE --->
[code]
                                                                                                                Total   Video                                            
Title                                                           Codec   Length  Movie Size      Disc Size       Bitrate Bitrate Main Audio Track                          Secondary Audio Track
-----                                                           ------  ------- --------------  --------------  ------- ------- ------------------                        ---------------------
00186.MPLS                                                      MPEG-2  0:00:30 1 710 144       37 362 333 959  0,45    0,19                                             
[/code]

[code]

DISC INFO:

Disc Title:     Bone Collector, The (1999)
Disc Size:      37 362 333 959 bytes
Protection:     AACS
BD-Java:        No
BDInfo:         0.5.6

PLAYLIST REPORT:

Name:                   00186.MPLS
Length:                 0:00:30 (h:m:s)
Size:                   1 710 144 bytes
Total Bitrate:          0,45 Mbps

VIDEO:

Codec                   Bitrate             Description    
-----                   -------             -----------    
MPEG-2 Video            193 kbps            1080p / 23,976 fps / 16:9

FILES:

Name            Time In         Length          Size            Total Bitrate  
----            -------         ------          ----            -------------  
00090.M2TS      0:00:00.000     0:00:06.005     269 376         180            
00090.M2TS      0:00:06.005     0:00:06.005     256 512         171            
00090.M2TS      0:00:12.011     0:00:06.006     229 248         153            
00090.M2TS      0:00:18.018     0:00:06.005     287 232         192            
00090.M2TS      0:00:24.024     0:00:06.005     475 200         318            
00090.M2TS      0:00:30.029     0:00:00.041     192 576         36 935         

CHAPTERS:

Number          Time In         Length          Avg Video Rate  Max 1-Sec Rate  Max 1-Sec Time  Max 5-Sec Rate  Max 5-Sec Time  Max 10Sec Rate  Max 10Sec Time  Avg Frame Size  Max Frame Size  Max Frame Time 
------          -------         ------          --------------  --------------  --------------  --------------  --------------  --------------  --------------  --------------  --------------  -------------- 
1               0:00:00.000     0:00:06.005     572 kbps        278 kbps        00:00:05.964    278 kbps        00:00:05.964    0 kbps          00:00:00.000    214 649 bytes   220 714 bytes   00:00:05.964   
2               0:00:06.005     0:00:06.005     243 kbps        243 kbps        00:00:11.970    243 kbps        00:00:11.970    0 kbps          00:00:00.000    182 481 bytes   182 481 bytes   00:00:17.976   
3               0:00:12.011     0:00:06.006     317 kbps        317 kbps        00:00:17.976    317 kbps        00:00:17.976    0 kbps          00:00:00.000    238 288 bytes   238 288 bytes   00:00:23.982   
4               0:00:18.018     0:00:06.005     311 kbps        311 kbps        00:00:23.982    311 kbps        00:00:23.982    0 kbps          00:00:00.000    233 513 bytes   233 513 bytes   00:00:29.988   
5               0:00:24.024     0:00:06.047     4 388 kbps      557 kbps        00:00:17.934    557 kbps        00:00:17.934    434 kbps        00:00:17.976    207 334 bytes   238 288 bytes   00:00:23.982   

STREAM DIAGNOSTICS:

File            PID             Type            Codec           Language                Seconds                 Bitrate                 Bytes           Packets        
----            ---             ----            -----           --------                --------------          --------------          -------------   -----          
00090.M2TS      4113 (0x1011)   0x02            MPEG-2                                  24,024                  422                     1 266 060       6 884          

[/code]
<---- END FORUMS PASTE ---->

QUICK SUMMARY:

Disc Title: Bone Collector, The (1999)
Disc Size: 37 362 333 959 bytes
Protection: AACS
BD-Java: No
Playlist: 00186.MPLS
Size: 1 710 144 bytes
Length: 0:00:30
Total Bitrate: 0,45 Mbps
Video: MPEG-2 Video / 193 kbps / 1080p / 23,976 fps / 16:9