CopyPastehas never been so tasty!

S.W.A.T. (2003)

by anonymous

  • 0
  • 0
329 views

Disc Title:     S.W.A.T. (2003)
Disc Size:      24 131 018 143 bytes
Protection:     AACS
BD-Java:        No
BDInfo:         0.5.6

Notes:         

BDINFO HOME:
  Cinema Squid
    http://www.cinemasquid.com/blu-ray/tools/bdinfo

INCLUDES FORUMS REPORT FOR:
  AVS Forum Blu-ray Audio and Video Specifications Thread
    http://www.avsforum.com/avs-vb/showthread.php?t=1155731


********************
PLAYLIST: 00011.MPLS
********************

<--- BEGIN FORUMS PASTE --->
[code]
                                                                                                                Total   Video                                            
Title                                                           Codec   Length  Movie Size      Disc Size       Bitrate Bitrate Main Audio Track                          Secondary Audio Track
-----                                                           ------  ------- --------------  --------------  ------- ------- ------------------                        ---------------------
00011.MPLS                                                      MPEG-2  1:57:17 22 048 481 280  24 131 018 143  25,07   16,28   Dolby TrueHD 5.1 1755Kbps (48kHz/16-bit) 
[/code]

[code]

DISC INFO:

Disc Title:     S.W.A.T. (2003)
Disc Size:      24 131 018 143 bytes
Protection:     AACS
BD-Java:        No
BDInfo:         0.5.6

PLAYLIST REPORT:

Name:                   00011.MPLS
Length:                 1:57:17 (h:m:s)
Size:                   22 048 481 280 bytes
Total Bitrate:          25,07 Mbps

VIDEO:

Codec                   Bitrate             Description    
-----                   -------             -----------    
MPEG-2 Video            16283 kbps          1080p / 23,976 fps / 16:9

AUDIO:

Codec                           Language        Bitrate         Description    
-----                           --------        -------         -----------    
Dolby TrueHD Audio              English         1755 kbps       5.1 / 48 kHz / 1755 kbps / 16-bit (AC3 Embedded: 5.1 / 48 kHz / 448 kbps / DN -3dB)
Dolby Digital Audio             Polish          640 kbps        5.1 / 48 kHz / 640 kbps / DN -5dB
Dolby Digital Audio             Russian         384 kbps        5.1 / 48 kHz / 384 kbps / DN -4dB
Dolby Digital Audio             Russian         384 kbps        5.1 / 48 kHz / 384 kbps
Dolby Digital Audio             Russian         640 kbps        5.1 / 48 kHz / 640 kbps / DN -2dB
Dolby Digital Audio             Spanish         640 kbps        5.1 / 48 kHz / 640 kbps / DN -3dB
Dolby Digital Audio             Thai            640 kbps        5.1 / 48 kHz / 640 kbps / DN -5dB
Dolby Digital Audio             Ukrainian       256 kbps        2.0 / 48 kHz / 256 kbps

SUBTITLES:

Codec                           Language        Bitrate         Description    
-----                           --------        -------         -----------    
Presentation Graphics           English         53,835 kbps                    
Presentation Graphics           Bulgarian       31,595 kbps                    
Presentation Graphics           Chinese         24,792 kbps                    
Presentation Graphics           Chinese         26,083 kbps                    
Presentation Graphics           Croatian        21,521 kbps                    
Presentation Graphics           Czech           24,980 kbps                    
Presentation Graphics           Hungarian       25,779 kbps                    
Presentation Graphics           Icelandic       28,276 kbps                    
Presentation Graphics           Polish          42,254 kbps                    
Presentation Graphics           Romanian        25,430 kbps                    
Presentation Graphics           Russian         45,039 kbps                    
Presentation Graphics           Russian         0,002 kbps                     
Presentation Graphics           Serbian         27,677 kbps                    
Presentation Graphics           Slovenian       23,741 kbps                    
Presentation Graphics           Spanish         27,903 kbps                    
Presentation Graphics           Thai            41,154 kbps                    

FILES:

Name            Time In         Length          Size            Total Bitrate  
----            -------         ------          ----            -------------  
00011.M2TS      0:00:00.000     1:57:17.030     22 048 481 280  25 066         

CHAPTERS:

Number          Time In         Length          Avg Video Rate  Max 1-Sec Rate  Max 1-Sec Time  Max 5-Sec Rate  Max 5-Sec Time  Max 10Sec Rate  Max 10Sec Time  Avg Frame Size  Max Frame Size  Max Frame Time 
------          -------         ------          --------------  --------------  --------------  --------------  --------------  --------------  --------------  --------------  --------------  -------------- 
1               0:00:00.000     0:08:58.371     17 448 kbps     31 082 kbps     00:03:07.854    26 175 kbps     00:00:58.683    24 999 kbps     00:00:59.017    90 958 bytes    514 213 bytes   00:07:24.735   
2               0:08:58.371     0:07:16.936     15 116 kbps     25 212 kbps     00:13:50.454    21 809 kbps     00:14:17.356    20 705 kbps     00:14:12.309    78 806 bytes    512 343 bytes   00:15:48.364   
3               0:16:15.307     0:06:37.313     16 945 kbps     27 542 kbps     00:17:18.829    26 092 kbps     00:17:19.788    25 258 kbps     00:17:18.537    88 343 bytes    543 980 bytes   00:17:18.579   
4               0:22:52.621     0:07:25.319     18 126 kbps     31 300 kbps     00:27:57.092    25 753 kbps     00:30:12.435    24 862 kbps     00:30:07.430    94 501 bytes    569 289 bytes   00:26:46.271   
5               0:30:17.941     0:05:03.428     16 256 kbps     27 984 kbps     00:30:25.573    25 208 kbps     00:30:21.569    24 776 kbps     00:30:23.112    84 752 bytes    553 032 bytes   00:30:20.860   
6               0:35:21.369     0:05:32.540     15 773 kbps     24 479 kbps     00:38:28.556    21 805 kbps     00:38:24.552    20 905 kbps     00:38:19.547    82 233 bytes    503 967 bytes   00:40:33.973   
7               0:40:53.909     0:06:52.703     16 729 kbps     25 705 kbps     00:41:10.217    22 300 kbps     00:41:52.801    21 033 kbps     00:41:01.333    87 216 bytes    566 328 bytes   00:42:37.596   
8               0:47:46.613     0:07:16.602     16 401 kbps     31 255 kbps     00:48:20.647    23 216 kbps     00:48:16.643    22 028 kbps     00:48:17.895    85 505 bytes    529 095 bytes   00:48:14.308   
9               0:55:03.216     0:08:30.176     17 274 kbps     30 159 kbps     00:58:34.636    26 907 kbps     00:58:34.636    26 101 kbps     00:58:34.636    90 057 bytes    560 298 bytes   00:58:32.926   
10              1:03:33.392     0:06:38.689     17 842 kbps     29 364 kbps     01:08:14.840    23 943 kbps     01:07:17.658    22 828 kbps     01:07:13.863    93 020 bytes    521 250 bytes   01:04:27.405   
11              1:10:12.082     0:10:40.556     15 782 kbps     28 968 kbps     01:12:03.652    23 210 kbps     01:12:03.193    22 453 kbps     01:11:57.062    82 282 bytes    540 766 bytes   01:13:20.938   
12              1:20:52.639     0:07:07.176     16 564 kbps     29 111 kbps     01:22:57.555    22 304 kbps     01:27:38.836    21 081 kbps     01:27:49.264    86 357 bytes    471 517 bytes   01:25:14.901   
13              1:27:59.816     0:10:52.693     15 704 kbps     28 868 kbps     01:34:56.607    23 954 kbps     01:28:21.296    22 941 kbps     01:28:19.502    81 874 bytes    501 581 bytes   01:28:26.009   
14              1:38:52.509     0:04:34.357     15 557 kbps     29 170 kbps     01:42:02.074    21 507 kbps     01:43:16.148    20 440 kbps     01:43:15.731    81 109 bytes    439 719 bytes   01:43:25.032   
15              1:43:26.867     0:02:47.750     15 575 kbps     28 929 kbps     01:43:28.493    19 382 kbps     01:46:04.024    18 723 kbps     01:43:28.410    81 201 bytes    431 037 bytes   01:46:04.316   
16              1:46:14.618     0:11:02.411     14 034 kbps     26 945 kbps     01:52:18.022    25 382 kbps     01:49:55.797    22 852 kbps     01:49:50.792    73 171 bytes    550 725 bytes   01:50:06.933   

STREAM DIAGNOSTICS:

File            PID             Type            Codec           Language                Seconds                 Bitrate                 Bytes           Packets        
----            ---             ----            -----           --------                --------------          --------------          -------------   -----          
00011.M2TS      4113 (0x1011)   0x02            MPEG-2                                  7036,947                16 283                  14 322 896 265  77 940 084     
00011.M2TS      4352 (0x1100)   0x83            TrueHD          eng (English)           7036,947                2 204                   1 938 259 768   15 736 056     
00011.M2TS      4353 (0x1101)   0x81            AC3             spa (Spanish)           7036,947                640                     562 964 480     3 298 620      
00011.M2TS      4354 (0x1102)   0x81            AC3             ukr (Ukrainian)         7036,947                256                     225 185 792     1 319 448      
00011.M2TS      4355 (0x1103)   0x81            AC3             rus (Russian)           7036,947                384                     337 778 688     1 979 172      
00011.M2TS      4356 (0x1104)   0x81            AC3             rus (Russian)           7036,947                384                     337 778 688     1 979 172      
00011.M2TS      4357 (0x1105)   0x81            AC3             pol (Polish)            7036,947                640                     562 964 480     3 298 620      
00011.M2TS      4358 (0x1106)   0x81            AC3             rus (Russian)           7036,947                640                     562 964 480     3 298 620      
00011.M2TS      4359 (0x1107)   0x81            AC3             tha (Thai)              7036,947                640                     562 964 480     3 298 620      
00011.M2TS      4608 (0x1200)   0x90            PGS             eng (English)           7036,947                54                      47 354 908      265 901        
00011.M2TS      4609 (0x1201)   0x90            PGS             spa (Spanish)           7036,947                28                      24 544 671      141 599        
00011.M2TS      4610 (0x1202)   0x90            PGS             rus (Russian)           7036,947                45                      39 617 705      225 200        
00011.M2TS      4611 (0x1203)   0x90            PGS             bul (Bulgarian)         7036,947                32                      27 792 133      159 630        
00011.M2TS      4612 (0x1204)   0x90            PGS             zho (Chinese)           7036,947                25                      21 807 963      128 214        
00011.M2TS      4613 (0x1205)   0x90            PGS             zho (Chinese)           7036,947                26                      22 943 653      134 363        
00011.M2TS      4614 (0x1206)   0x90            PGS             hrv (Croatian)          7036,947                22                      18 930 833      111 427        
00011.M2TS      4615 (0x1207)   0x90            PGS             ces (Czech)             7036,947                25                      21 972 689      127 571        
00011.M2TS      4616 (0x1208)   0x90            PGS             hun (Hungarian)         7036,947                26                      22 675 556      131 800        
00011.M2TS      4617 (0x1209)   0x90            PGS             isl (Icelandic)         7036,947                28                      24 872 624      143 216        
00011.M2TS      4618 (0x120A)   0x90            PGS             pol (Polish)            7036,947                42                      37 168 160      209 973        
00011.M2TS      4619 (0x120B)   0x90            PGS             ron (Romanian)          7036,947                25                      22 369 379      129 761        
00011.M2TS      4620 (0x120C)   0x90            PGS             srp (Serbian)           7036,947                28                      24 345 570      140 516        
00011.M2TS      4621 (0x120D)   0x90            PGS             slv (Slovenian)         7036,947                24                      20 883 478      122 063        
00011.M2TS      4622 (0x120E)   0x90            PGS             tha (Thai)              7036,947                41                      36 200 089      205 529        
00011.M2TS      4623 (0x120F)   0x90            PGS             rus (Russian)           7036,947                0                       1 462           15             

[/code]
<---- END FORUMS PASTE ---->

QUICK SUMMARY:

Disc Title: S.W.A.T. (2003)
Disc Size: 24 131 018 143 bytes
Protection: AACS
BD-Java: No
Playlist: 00011.MPLS
Size: 22 048 481 280 bytes
Length: 1:57:17
Total Bitrate: 25,07 Mbps
Video: MPEG-2 Video / 16283 kbps / 1080p / 23,976 fps / 16:9
Audio: English / Dolby TrueHD Audio / 5.1 / 48 kHz / 1755 kbps / 16-bit (AC3 Embedded: 5.1 / 48 kHz / 448 kbps / DN -3dB)
Audio: Polish / Dolby Digital Audio / 5.1 / 48 kHz / 640 kbps / DN -5dB
Audio: Russian / Dolby Digital Audio / 5.1 / 48 kHz / 384 kbps / DN -4dB
Audio: Russian / Dolby Digital Audio / 5.1 / 48 kHz / 384 kbps
Audio: Russian / Dolby Digital Audio / 5.1 / 48 kHz / 640 kbps / DN -2dB
Audio: Spanish / Dolby Digital Audio / 5.1 / 48 kHz / 640 kbps / DN -3dB
Audio: Thai / Dolby Digital Audio / 5.1 / 48 kHz / 640 kbps / DN -5dB
Audio: Ukrainian / Dolby Digital Audio / 2.0 / 48 kHz / 256 kbps
Subtitle: English / 53,835 kbps
Subtitle: Bulgarian / 31,595 kbps
Subtitle: Chinese / 24,792 kbps
Subtitle: Chinese / 26,083 kbps
Subtitle: Croatian / 21,521 kbps
Subtitle: Czech / 24,980 kbps
Subtitle: Hungarian / 25,779 kbps
Subtitle: Icelandic / 28,276 kbps
Subtitle: Polish / 42,254 kbps
Subtitle: Romanian / 25,430 kbps
Subtitle: Russian / 45,039 kbps
Subtitle: Russian / 0,002 kbps
Subtitle: Serbian / 27,677 kbps
Subtitle: Slovenian / 23,741 kbps
Subtitle: Spanish / 27,903 kbps
Subtitle: Thai / 41,154 kbps


********************
PLAYLIST: 00210.MPLS
********************

<--- BEGIN FORUMS PASTE --->
[code]
                                                                                                                Total   Video                                            
Title                                                           Codec   Length  Movie Size      Disc Size       Bitrate Bitrate Main Audio Track                          Secondary Audio Track
-----                                                           ------  ------- --------------  --------------  ------- ------- ------------------                        ---------------------
00210.MPLS                                                      MPEG-2  0:07:46 461 641 728     24 131 018 143  7,91    7,25    DD AC3 2.0 192Kbps                       
[/code]

[code]

DISC INFO:

Disc Title:     S.W.A.T. (2003)
Disc Size:      24 131 018 143 bytes
Protection:     AACS
BD-Java:        No
BDInfo:         0.5.6

PLAYLIST REPORT:

Name:                   00210.MPLS
Length:                 0:07:46 (h:m:s)
Size:                   461 641 728 bytes
Total Bitrate:          7,91 Mbps

VIDEO:

Codec                   Bitrate             Description    
-----                   -------             -----------    
MPEG-2 Video            7246 kbps           480i / 29,970 fps / 4:3

AUDIO:

Codec                           Language        Bitrate         Description    
-----                           --------        -------         -----------    
Dolby Digital Audio             English         192 kbps        2.0 / 48 kHz / 192 kbps

SUBTITLES:

Codec                           Language        Bitrate         Description    
-----                           --------        -------         -----------    
Presentation Graphics           Russian         0,265 kbps                     
Presentation Graphics           Spanish         26,270 kbps                    

FILES:

Name            Time In         Length          Size            Total Bitrate  
----            -------         ------          ----            -------------  
00104.M2TS      0:00:00.000     0:00:52.819     55 572 480      8 417          
00105.M2TS      0:00:52.819     0:00:26.993     22 548 480      6 683          
00106.M2TS      0:01:19.813     0:01:31.424     74 612 736      6 529          
00107.M2TS      0:02:51.237     0:00:19.419     19 046 400      7 846          
00108.M2TS      0:03:10.657     0:01:58.918     124 360 704     8 366          
00109.M2TS      0:05:09.575     0:01:20.346     85 420 032      8 505          
00110.M2TS      0:06:29.922     0:00:31.030     33 269 760      8 577          
00111.M2TS      0:07:00.953     0:00:45.945     46 811 136      8 151          

CHAPTERS:

Number          Time In         Length          Avg Video Rate  Max 1-Sec Rate  Max 1-Sec Time  Max 5-Sec Rate  Max 5-Sec Time  Max 10Sec Rate  Max 10Sec Time  Avg Frame Size  Max Frame Size  Max Frame Time 
------          -------         ------          --------------  --------------  --------------  --------------  --------------  --------------  --------------  --------------  --------------  -------------- 
1               0:00:00.000     0:00:52.819     7 729 kbps      12 259 kbps     00:00:01.000    10 189 kbps     00:00:01.000    9 234 kbps      00:00:01.000    32 214 bytes    88 335 bytes    00:00:01.034   
2               0:00:52.819     0:00:26.993     6 046 kbps      8 035 kbps      00:00:55.555    7 313 kbps      00:00:54.821    6 749 kbps      00:01:08.435    25 216 bytes    76 392 bytes    00:01:09.269   
3               0:01:19.813     0:01:31.424     5 914 kbps      10 297 kbps     00:01:30.590    8 546 kbps      00:02:05.291    7 788 kbps      00:02:03.022    24 668 bytes    92 940 bytes    00:01:40.366   
4               0:02:51.237     0:00:19.419     7 191 kbps      12 668 kbps     00:02:56.442    9 965 kbps      00:02:54.741    9 035 kbps      00:02:52.238    29 994 bytes    125 617 bytes   00:02:59.379   
5               0:03:10.657     0:01:58.918     7 685 kbps      11 616 kbps     00:04:08.615    9 132 kbps      00:04:07.680    8 731 kbps      00:04:02.675    32 053 bytes    100 763 bytes   00:04:19.058   
6               0:05:09.575     0:01:20.346     7 827 kbps      10 367 kbps     00:05:22.855    9 361 kbps      00:06:03.196    9 271 kbps      00:06:02.495    32 643 bytes    74 893 bytes    00:05:54.554   
7               0:06:29.922     0:00:31.030     7 901 kbps      11 096 kbps     00:06:35.928    10 785 kbps     00:06:33.559    10 477 kbps     00:06:32.859    32 955 bytes    76 862 bytes    00:06:41.868   
8               0:07:00.953     0:00:45.945     7 472 kbps      10 338 kbps     00:07:43.896    9 276 kbps      00:07:27.780    8 924 kbps      00:07:27.780    31 186 bytes    88 228 bytes    00:07:34.720   

STREAM DIAGNOSTICS:

File            PID             Type            Codec           Language                Seconds                 Bitrate                 Bytes           Packets        
----            ---             ----            -----           --------                --------------          --------------          -------------   -----          
00104.M2TS      4113 (0x1011)   0x02            MPEG-2                                  52,753                  7 737                   51 019 372      278 203        
00104.M2TS      4352 (0x1100)   0x81            AC3             eng (English)           52,753                  192                     1 267 968       8 255          
00104.M2TS      4608 (0x1200)   0x90            PGS             spa (Spanish)           52,753                  30                      200 110         1 183          
00104.M2TS      4609 (0x1201)   0x90            PGS             rus (Russian)           52,753                  0                       1 936           18             
00105.M2TS      4113 (0x1011)   0x02            MPEG-2                                  26,927                  6 061                   20 399 582      111 319        
00105.M2TS      4352 (0x1100)   0x81            AC3             eng (English)           26,927                  193                     648 192         4 220          
00105.M2TS      4608 (0x1200)   0x90            PGS             spa (Spanish)           26,927                  47                      158 488         941            
00105.M2TS      4609 (0x1201)   0x90            PGS             rus (Russian)           26,927                  1                       1 936           18             
00106.M2TS      4113 (0x1011)   0x02            MPEG-2                                  91,291                  5 923                   67 590 719      368 893        
00106.M2TS      4352 (0x1100)   0x81            AC3             eng (English)           91,291                  192                     2 194 944       14 290         
00106.M2TS      4608 (0x1200)   0x90            PGS             spa (Spanish)           91,291                  34                      391 849         2 323          
00106.M2TS      4609 (0x1201)   0x90            PGS             rus (Russian)           91,291                  0                       1 936           18             
00107.M2TS      4113 (0x1011)   0x02            MPEG-2                                  19,319                  7 229                   17 456 404      95 197         
00107.M2TS      4352 (0x1100)   0x81            AC3             eng (English)           19,319                  193                     466 176         3 035          
00107.M2TS      4608 (0x1200)   0x90            PGS             spa (Spanish)           19,319                  19                      44 794          272            
00107.M2TS      4609 (0x1201)   0x90            PGS             rus (Russian)           19,319                  1                       1 936           18             
00108.M2TS      4113 (0x1011)   0x02            MPEG-2                                  118,819                 7 691                   114 235 351     622 901        
00108.M2TS      4352 (0x1100)   0x81            AC3             eng (English)           118,819                 192                     2 854 656       18 585         
00108.M2TS      4608 (0x1200)   0x90            PGS             spa (Spanish)           118,819                 24                      360 781         2 193          
00108.M2TS      4609 (0x1201)   0x90            PGS             rus (Russian)           118,819                 0                       1 936           18             
00109.M2TS      4113 (0x1011)   0x02            MPEG-2                                  80,280                  7 833                   78 604 511      428 589        
00109.M2TS      4352 (0x1100)   0x81            AC3             eng (English)           80,280                  192                     1 928 448       12 555         
00109.M2TS      4608 (0x1200)   0x90            PGS             spa (Spanish)           80,280                  16                      163 678         1 007          
00109.M2TS      4609 (0x1201)   0x90            PGS             rus (Russian)           80,280                  0                       1 936           18             
00110.M2TS      4113 (0x1011)   0x02            MPEG-2                                  30,931                  7 927                   30 647 900      167 074        
00110.M2TS      4352 (0x1100)   0x81            AC3             eng (English)           30,931                  193                     744 960         4 850          
00110.M2TS      4608 (0x1200)   0x90            PGS             spa (Spanish)           30,931                  13                      48 955          287            
00110.M2TS      4609 (0x1201)   0x90            PGS             rus (Russian)           30,931                  1                       1 936           18             
00111.M2TS      4113 (0x1011)   0x02            MPEG-2                                  45,846                  7 489                   42 920 046      234 040        
00111.M2TS      4352 (0x1100)   0x81            AC3             eng (English)           45,846                  192                     1 102 848       7 180          
00111.M2TS      4608 (0x1200)   0x90            PGS             spa (Spanish)           45,846                  29                      164 537         1 001          
00111.M2TS      4609 (0x1201)   0x90            PGS             rus (Russian)           45,846                  0                       1 936           18             

[/code]
<---- END FORUMS PASTE ---->

QUICK SUMMARY:

Disc Title: S.W.A.T. (2003)
Disc Size: 24 131 018 143 bytes
Protection: AACS
BD-Java: No
Playlist: 00210.MPLS
Size: 461 641 728 bytes
Length: 0:07:46
Total Bitrate: 7,91 Mbps
Video: MPEG-2 Video / 7246 kbps / 480i / 29,970 fps / 4:3
Audio: English / Dolby Digital Audio / 2.0 / 48 kHz / 192 kbps
Subtitle: Russian / 0,265 kbps
Subtitle: Spanish / 26,270 kbps


********************
PLAYLIST: 00206.MPLS
********************

<--- BEGIN FORUMS PASTE --->
[code]
                                                                                                                Total   Video                                            
Title                                                           Codec   Length  Movie Size      Disc Size       Bitrate Bitrate Main Audio Track                          Secondary Audio Track
-----                                                           ------  ------- --------------  --------------  ------- ------- ------------------                        ---------------------
00206.MPLS                                                      MPEG-2  0:01:58 124 360 704     24 131 018 143  8,37    7,68    DD AC3 2.0 192Kbps                       
[/code]

[code]

DISC INFO:

Disc Title:     S.W.A.T. (2003)
Disc Size:      24 131 018 143 bytes
Protection:     AACS
BD-Java:        No
BDInfo:         0.5.6

PLAYLIST REPORT:

Name:                   00206.MPLS
Length:                 0:01:58 (h:m:s)
Size:                   124 360 704 bytes
Total Bitrate:          8,37 Mbps

VIDEO:

Codec                   Bitrate             Description    
-----                   -------             -----------    
MPEG-2 Video            7685 kbps           480i / 29,970 fps / 4:3

AUDIO:

Codec                           Language        Bitrate         Description    
-----                           --------        -------         -----------    
Dolby Digital Audio             English         192 kbps        2.0 / 48 kHz / 192 kbps

SUBTITLES:

Codec                           Language        Bitrate         Description    
-----                           --------        -------         -----------    
Presentation Graphics           Russian         0,130 kbps                     
Presentation Graphics           Spanish         24,271 kbps                    

FILES:

Name            Time In         Length          Size            Total Bitrate  
----            -------         ------          ----            -------------  
00108.M2TS      0:00:00.000     0:01:58.918     124 360 704     8 366          

CHAPTERS:

Number          Time In         Length          Avg Video Rate  Max 1-Sec Rate  Max 1-Sec Time  Max 5-Sec Rate  Max 5-Sec Time  Max 10Sec Rate  Max 10Sec Time  Avg Frame Size  Max Frame Size  Max Frame Time 
------          -------         ------          --------------  --------------  --------------  --------------  --------------  --------------  --------------  --------------  --------------  -------------- 
1               0:00:00.000     0:01:58.918     7 685 kbps      11 616 kbps     00:00:57.957    9 132 kbps      00:00:57.023    8 731 kbps      00:00:52.018    32 053 bytes    100 763 bytes   00:01:08.401   

STREAM DIAGNOSTICS:

File            PID             Type            Codec           Language                Seconds                 Bitrate                 Bytes           Packets        
----            ---             ----            -----           --------                --------------          --------------          -------------   -----          
00108.M2TS      4113 (0x1011)   0x02            MPEG-2                                  118,819                 7 691                   114 235 351     622 901        
00108.M2TS      4352 (0x1100)   0x81            AC3             eng (English)           118,819                 192                     2 854 656       18 585         
00108.M2TS      4608 (0x1200)   0x90            PGS             spa (Spanish)           118,819                 24                      360 781         2 193          
00108.M2TS      4609 (0x1201)   0x90            PGS             rus (Russian)           118,819                 0                       1 936           18             

[/code]
<---- END FORUMS PASTE ---->

QUICK SUMMARY:

Disc Title: S.W.A.T. (2003)
Disc Size: 24 131 018 143 bytes
Protection: AACS
BD-Java: No
Playlist: 00206.MPLS
Size: 124 360 704 bytes
Length: 0:01:58
Total Bitrate: 8,37 Mbps
Video: MPEG-2 Video / 7685 kbps / 480i / 29,970 fps / 4:3
Audio: English / Dolby Digital Audio / 2.0 / 48 kHz / 192 kbps
Subtitle: Russian / 0,130 kbps
Subtitle: Spanish / 24,271 kbps


********************
PLAYLIST: 00204.MPLS
********************

<--- BEGIN FORUMS PASTE --->
[code]
                                                                                                                Total   Video                                            
Title                                                           Codec   Length  Movie Size      Disc Size       Bitrate Bitrate Main Audio Track                          Secondary Audio Track
-----                                                           ------  ------- --------------  --------------  ------- ------- ------------------                        ---------------------
00204.MPLS                                                      MPEG-2  0:01:31 74 612 736      24 131 018 143  6,53    5,91    DD AC3 2.0 192Kbps                       
[/code]

[code]

DISC INFO:

Disc Title:     S.W.A.T. (2003)
Disc Size:      24 131 018 143 bytes
Protection:     AACS
BD-Java:        No
BDInfo:         0.5.6

PLAYLIST REPORT:

Name:                   00204.MPLS
Length:                 0:01:31 (h:m:s)
Size:                   74 612 736 bytes
Total Bitrate:          6,53 Mbps

VIDEO:

Codec                   Bitrate             Description    
-----                   -------             -----------    
MPEG-2 Video            5914 kbps           480i / 29,970 fps / 4:3

AUDIO:

Codec                           Language        Bitrate         Description    
-----                           --------        -------         -----------    
Dolby Digital Audio             English         192 kbps        2.0 / 48 kHz / 192 kbps / DN -4dB

SUBTITLES:

Codec                           Language        Bitrate         Description    
-----                           --------        -------         -----------    
Presentation Graphics           Russian         0,169 kbps                     
Presentation Graphics           Spanish         34,288 kbps                    

FILES:

Name            Time In         Length          Size            Total Bitrate  
----            -------         ------          ----            -------------  
00106.M2TS      0:00:00.000     0:01:31.424     74 612 736      6 529          

CHAPTERS:

Number          Time In         Length          Avg Video Rate  Max 1-Sec Rate  Max 1-Sec Time  Max 5-Sec Rate  Max 5-Sec Time  Max 10Sec Rate  Max 10Sec Time  Avg Frame Size  Max Frame Size  Max Frame Time 
------          -------         ------          --------------  --------------  --------------  --------------  --------------  --------------  --------------  --------------  --------------  -------------- 
1               0:00:00.000     0:01:31.424     5 914 kbps      10 297 kbps     00:00:10.777    8 546 kbps      00:00:45.478    7 788 kbps      00:00:43.209    24 668 bytes    92 940 bytes    00:00:20.553   

STREAM DIAGNOSTICS:

File            PID             Type            Codec           Language                Seconds                 Bitrate                 Bytes           Packets        
----            ---             ----            -----           --------                --------------          --------------          -------------   -----          
00106.M2TS      4113 (0x1011)   0x02            MPEG-2                                  91,291                  5 923                   67 590 719      368 893        
00106.M2TS      4352 (0x1100)   0x81            AC3             eng (English)           91,291                  192                     2 194 944       14 290         
00106.M2TS      4608 (0x1200)   0x90            PGS             spa (Spanish)           91,291                  34                      391 849         2 323          
00106.M2TS      4609 (0x1201)   0x90            PGS             rus (Russian)           91,291                  0                       1 936           18             

[/code]
<---- END FORUMS PASTE ---->

QUICK SUMMARY:

Disc Title: S.W.A.T. (2003)
Disc Size: 24 131 018 143 bytes
Protection: AACS
BD-Java: No
Playlist: 00204.MPLS
Size: 74 612 736 bytes
Length: 0:01:31
Total Bitrate: 6,53 Mbps
Video: MPEG-2 Video / 5914 kbps / 480i / 29,970 fps / 4:3
Audio: English / Dolby Digital Audio / 2.0 / 48 kHz / 192 kbps / DN -4dB
Subtitle: Russian / 0,169 kbps
Subtitle: Spanish / 34,288 kbps


********************
PLAYLIST: 00207.MPLS
********************

<--- BEGIN FORUMS PASTE --->
[code]
                                                                                                                Total   Video                                            
Title                                                           Codec   Length  Movie Size      Disc Size       Bitrate Bitrate Main Audio Track                          Secondary Audio Track
-----                                                           ------  ------- --------------  --------------  ------- ------- ------------------                        ---------------------
00207.MPLS                                                      MPEG-2  0:01:20 85 420 032      24 131 018 143  8,51    7,83    DD AC3 2.0 192Kbps                       
[/code]

[code]

DISC INFO:

Disc Title:     S.W.A.T. (2003)
Disc Size:      24 131 018 143 bytes
Protection:     AACS
BD-Java:        No
BDInfo:         0.5.6

PLAYLIST REPORT:

Name:                   00207.MPLS
Length:                 0:01:20 (h:m:s)
Size:                   85 420 032 bytes
Total Bitrate:          8,51 Mbps

VIDEO:

Codec                   Bitrate             Description    
-----                   -------             -----------    
MPEG-2 Video            7827 kbps           480i / 29,970 fps / 4:3

AUDIO:

Codec                           Language        Bitrate         Description    
-----                           --------        -------         -----------    
Dolby Digital Audio             English         192 kbps        2.0 / 48 kHz / 192 kbps

SUBTITLES:

Codec                           Language        Bitrate         Description    
-----                           --------        -------         -----------    
Presentation Graphics           Russian         0,193 kbps                     
Presentation Graphics           Spanish         16,297 kbps                    

FILES:

Name            Time In         Length          Size            Total Bitrate  
----            -------         ------          ----            -------------  
00109.M2TS      0:00:00.000     0:01:20.346     85 420 032      8 505          

CHAPTERS:

Number          Time In         Length          Avg Video Rate  Max 1-Sec Rate  Max 1-Sec Time  Max 5-Sec Rate  Max 5-Sec Time  Max 10Sec Rate  Max 10Sec Time  Avg Frame Size  Max Frame Size  Max Frame Time 
------          -------         ------          --------------  --------------  --------------  --------------  --------------  --------------  --------------  --------------  --------------  -------------- 
1               0:00:00.000     0:01:20.346     7 827 kbps      10 367 kbps     00:00:13.279    9 361 kbps      00:00:53.620    9 271 kbps      00:00:52.919    32 643 bytes    74 893 bytes    00:00:44.978   

STREAM DIAGNOSTICS:

File            PID             Type            Codec           Language                Seconds                 Bitrate                 Bytes           Packets        
----            ---             ----            -----           --------                --------------          --------------          -------------   -----          
00109.M2TS      4113 (0x1011)   0x02            MPEG-2                                  80,280                  7 833                   78 604 511      428 589        
00109.M2TS      4352 (0x1100)   0x81            AC3             eng (English)           80,280                  192                     1 928 448       12 555         
00109.M2TS      4608 (0x1200)   0x90            PGS             spa (Spanish)           80,280                  16                      163 678         1 007          
00109.M2TS      4609 (0x1201)   0x90            PGS             rus (Russian)           80,280                  0                       1 936           18             

[/code]
<---- END FORUMS PASTE ---->

QUICK SUMMARY:

Disc Title: S.W.A.T. (2003)
Disc Size: 24 131 018 143 bytes
Protection: AACS
BD-Java: No
Playlist: 00207.MPLS
Size: 85 420 032 bytes
Length: 0:01:20
Total Bitrate: 8,51 Mbps
Video: MPEG-2 Video / 7827 kbps / 480i / 29,970 fps / 4:3
Audio: English / Dolby Digital Audio / 2.0 / 48 kHz / 192 kbps
Subtitle: Russian / 0,193 kbps
Subtitle: Spanish / 16,297 kbps


********************
PLAYLIST: 00202.MPLS
********************

<--- BEGIN FORUMS PASTE --->
[code]
                                                                                                                Total   Video                                            
Title                                                           Codec   Length  Movie Size      Disc Size       Bitrate Bitrate Main Audio Track                          Secondary Audio Track
-----                                                           ------  ------- --------------  --------------  ------- ------- ------------------                        ---------------------
00202.MPLS                                                      MPEG-2  0:00:52 55 572 480      24 131 018 143  8,42    7,73    DD AC3 2.0 192Kbps                       
[/code]

[code]

DISC INFO:

Disc Title:     S.W.A.T. (2003)
Disc Size:      24 131 018 143 bytes
Protection:     AACS
BD-Java:        No
BDInfo:         0.5.6

PLAYLIST REPORT:

Name:                   00202.MPLS
Length:                 0:00:52 (h:m:s)
Size:                   55 572 480 bytes
Total Bitrate:          8,42 Mbps

VIDEO:

Codec                   Bitrate             Description    
-----                   -------             -----------    
MPEG-2 Video            7727 kbps           480i / 29,970 fps / 4:3

AUDIO:

Codec                           Language        Bitrate         Description    
-----                           --------        -------         -----------    
Dolby Digital Audio             English         192 kbps        2.0 / 48 kHz / 192 kbps / DN -4dB

SUBTITLES:

Codec                           Language        Bitrate         Description    
-----                           --------        -------         -----------    
Presentation Graphics           Russian         0,293 kbps                     
Presentation Graphics           Spanish         30,309 kbps                    

FILES:

Name            Time In         Length          Size            Total Bitrate  
----            -------         ------          ----            -------------  
00104.M2TS      0:00:00.000     0:00:52.819     55 572 480      8 417          

CHAPTERS:

Number          Time In         Length          Avg Video Rate  Max 1-Sec Rate  Max 1-Sec Time  Max 5-Sec Rate  Max 5-Sec Time  Max 10Sec Rate  Max 10Sec Time  Avg Frame Size  Max Frame Size  Max Frame Time 
------          -------         ------          --------------  --------------  --------------  --------------  --------------  --------------  --------------  --------------  --------------  -------------- 
1               0:00:00.000     0:00:52.819     7 727 kbps      12 259 kbps     00:00:01.000    10 189 kbps     00:00:01.000    9 234 kbps      00:00:01.000    32 230 bytes    88 335 bytes    00:00:01.034   

STREAM DIAGNOSTICS:

File            PID             Type            Codec           Language                Seconds                 Bitrate                 Bytes           Packets        
----            ---             ----            -----           --------                --------------          --------------          -------------   -----          
00104.M2TS      4113 (0x1011)   0x02            MPEG-2                                  52,753                  7 737                   51 019 372      278 203        
00104.M2TS      4352 (0x1100)   0x81            AC3             eng (English)           52,753                  192                     1 267 968       8 255          
00104.M2TS      4608 (0x1200)   0x90            PGS             spa (Spanish)           52,753                  30                      200 110         1 183          
00104.M2TS      4609 (0x1201)   0x90            PGS             rus (Russian)           52,753                  0                       1 936           18             

[/code]
<---- END FORUMS PASTE ---->

QUICK SUMMARY:

Disc Title: S.W.A.T. (2003)
Disc Size: 24 131 018 143 bytes
Protection: AACS
BD-Java: No
Playlist: 00202.MPLS
Size: 55 572 480 bytes
Length: 0:00:52
Total Bitrate: 8,42 Mbps
Video: MPEG-2 Video / 7727 kbps / 480i / 29,970 fps / 4:3
Audio: English / Dolby Digital Audio / 2.0 / 48 kHz / 192 kbps / DN -4dB
Subtitle: Russian / 0,293 kbps
Subtitle: Spanish / 30,309 kbps


********************
PLAYLIST: 00209.MPLS
********************

<--- BEGIN FORUMS PASTE --->
[code]
                                                                                                                Total   Video                                            
Title                                                           Codec   Length  Movie Size      Disc Size       Bitrate Bitrate Main Audio Track                          Secondary Audio Track
-----                                                           ------  ------- --------------  --------------  ------- ------- ------------------                        ---------------------
00209.MPLS                                                      MPEG-2  0:00:45 46 811 136      24 131 018 143  8,15    7,47    DD AC3 2.0 192Kbps                       
[/code]

[code]

DISC INFO:

Disc Title:     S.W.A.T. (2003)
Disc Size:      24 131 018 143 bytes
Protection:     AACS
BD-Java:        No
BDInfo:         0.5.6

PLAYLIST REPORT:

Name:                   00209.MPLS
Length:                 0:00:45 (h:m:s)
Size:                   46 811 136 bytes
Total Bitrate:          8,15 Mbps

VIDEO:

Codec                   Bitrate             Description    
-----                   -------             -----------    
MPEG-2 Video            7473 kbps           480i / 29,970 fps / 4:3

AUDIO:

Codec                           Language        Bitrate         Description    
-----                           --------        -------         -----------    
Dolby Digital Audio             English         192 kbps        2.0 / 48 kHz / 192 kbps

SUBTITLES:

Codec                           Language        Bitrate         Description    
-----                           --------        -------         -----------    
Presentation Graphics           Russian         0,337 kbps                     
Presentation Graphics           Spanish         28,649 kbps                    

FILES:

Name            Time In         Length          Size            Total Bitrate  
----            -------         ------          ----            -------------  
00111.M2TS      0:00:00.000     0:00:45.945     46 811 136      8 151          

CHAPTERS:

Number          Time In         Length          Avg Video Rate  Max 1-Sec Rate  Max 1-Sec Time  Max 5-Sec Rate  Max 5-Sec Time  Max 10Sec Rate  Max 10Sec Time  Avg Frame Size  Max Frame Size  Max Frame Time 
------          -------         ------          --------------  --------------  --------------  --------------  --------------  --------------  --------------  --------------  --------------  -------------- 
1               0:00:00.000     0:00:45.945     7 473 kbps      10 338 kbps     00:00:42.942    9 276 kbps      00:00:26.826    8 924 kbps      00:00:26.826    31 169 bytes    88 228 bytes    00:00:33.767   

STREAM DIAGNOSTICS:

File            PID             Type            Codec           Language                Seconds                 Bitrate                 Bytes           Packets        
----            ---             ----            -----           --------                --------------          --------------          -------------   -----          
00111.M2TS      4113 (0x1011)   0x02            MPEG-2                                  45,846                  7 489                   42 920 046      234 040        
00111.M2TS      4352 (0x1100)   0x81            AC3             eng (English)           45,846                  192                     1 102 848       7 180          
00111.M2TS      4608 (0x1200)   0x90            PGS             spa (Spanish)           45,846                  29                      164 537         1 001          
00111.M2TS      4609 (0x1201)   0x90            PGS             rus (Russian)           45,846                  0                       1 936           18             

[/code]
<---- END FORUMS PASTE ---->

QUICK SUMMARY:

Disc Title: S.W.A.T. (2003)
Disc Size: 24 131 018 143 bytes
Protection: AACS
BD-Java: No
Playlist: 00209.MPLS
Size: 46 811 136 bytes
Length: 0:00:45
Total Bitrate: 8,15 Mbps
Video: MPEG-2 Video / 7473 kbps / 480i / 29,970 fps / 4:3
Audio: English / Dolby Digital Audio / 2.0 / 48 kHz / 192 kbps
Subtitle: Russian / 0,337 kbps
Subtitle: Spanish / 28,649 kbps


********************
PLAYLIST: 00208.MPLS
********************

<--- BEGIN FORUMS PASTE --->
[code]
                                                                                                                Total   Video                                            
Title                                                           Codec   Length  Movie Size      Disc Size       Bitrate Bitrate Main Audio Track                          Secondary Audio Track
-----                                                           ------  ------- --------------  --------------  ------- ------- ------------------                        ---------------------
00208.MPLS                                                      MPEG-2  0:00:31 33 269 760      24 131 018 143  8,58    7,90    DD AC3 2.0 192Kbps                       
[/code]

[code]

DISC INFO:

Disc Title:     S.W.A.T. (2003)
Disc Size:      24 131 018 143 bytes
Protection:     AACS
BD-Java:        No
BDInfo:         0.5.6

PLAYLIST REPORT:

Name:                   00208.MPLS
Length:                 0:00:31 (h:m:s)
Size:                   33 269 760 bytes
Total Bitrate:          8,58 Mbps

VIDEO:

Codec                   Bitrate             Description    
-----                   -------             -----------    
MPEG-2 Video            7901 kbps           480i / 29,970 fps / 4:3

AUDIO:

Codec                           Language        Bitrate         Description    
-----                           --------        -------         -----------    
Dolby Digital Audio             English         192 kbps        2.0 / 48 kHz / 192 kbps

SUBTITLES:

Codec                           Language        Bitrate         Description    
-----                           --------        -------         -----------    
Presentation Graphics           Russian         0,499 kbps                     
Presentation Graphics           Spanish         12,621 kbps                    

FILES:

Name            Time In         Length          Size            Total Bitrate  
----            -------         ------          ----            -------------  
00110.M2TS      0:00:00.000     0:00:31.030     33 269 760      8 577          

CHAPTERS:

Number          Time In         Length          Avg Video Rate  Max 1-Sec Rate  Max 1-Sec Time  Max 5-Sec Rate  Max 5-Sec Time  Max 10Sec Rate  Max 10Sec Time  Avg Frame Size  Max Frame Size  Max Frame Time 
------          -------         ------          --------------  --------------  --------------  --------------  --------------  --------------  --------------  --------------  --------------  -------------- 
1               0:00:00.000     0:00:31.030     7 901 kbps      11 096 kbps     00:00:06.005    10 785 kbps     00:00:03.636    10 477 kbps     00:00:02.936    32 955 bytes    76 862 bytes    00:00:11.945   

STREAM DIAGNOSTICS:

File            PID             Type            Codec           Language                Seconds                 Bitrate                 Bytes           Packets        
----            ---             ----            -----           --------                --------------          --------------          -------------   -----          
00110.M2TS      4113 (0x1011)   0x02            MPEG-2                                  30,931                  7 927                   30 647 900      167 074        
00110.M2TS      4352 (0x1100)   0x81            AC3             eng (English)           30,931                  193                     744 960         4 850          
00110.M2TS      4608 (0x1200)   0x90            PGS             spa (Spanish)           30,931                  13                      48 955          287            
00110.M2TS      4609 (0x1201)   0x90            PGS             rus (Russian)           30,931                  1                       1 936           18             

[/code]
<---- END FORUMS PASTE ---->

QUICK SUMMARY:

Disc Title: S.W.A.T. (2003)
Disc Size: 24 131 018 143 bytes
Protection: AACS
BD-Java: No
Playlist: 00208.MPLS
Size: 33 269 760 bytes
Length: 0:00:31
Total Bitrate: 8,58 Mbps
Video: MPEG-2 Video / 7901 kbps / 480i / 29,970 fps / 4:3
Audio: English / Dolby Digital Audio / 2.0 / 48 kHz / 192 kbps
Subtitle: Russian / 0,499 kbps
Subtitle: Spanish / 12,621 kbps


********************
PLAYLIST: 00203.MPLS
********************

<--- BEGIN FORUMS PASTE --->
[code]
                                                                                                                Total   Video                                            
Title                                                           Codec   Length  Movie Size      Disc Size       Bitrate Bitrate Main Audio Track                          Secondary Audio Track
-----                                                           ------  ------- --------------  --------------  ------- ------- ------------------                        ---------------------
00203.MPLS                                                      MPEG-2  0:00:26 22 548 480      24 131 018 143  6,68    6,05    DD AC3 2.0 192Kbps                       
[/code]

[code]

DISC INFO:

Disc Title:     S.W.A.T. (2003)
Disc Size:      24 131 018 143 bytes
Protection:     AACS
BD-Java:        No
BDInfo:         0.5.6

PLAYLIST REPORT:

Name:                   00203.MPLS
Length:                 0:00:26 (h:m:s)
Size:                   22 548 480 bytes
Total Bitrate:          6,68 Mbps

VIDEO:

Codec                   Bitrate             Description    
-----                   -------             -----------    
MPEG-2 Video            6046 kbps           480i / 29,970 fps / 4:3

AUDIO:

Codec                           Language        Bitrate         Description    
-----                           --------        -------         -----------    
Dolby Digital Audio             English         192 kbps        2.0 / 48 kHz / 192 kbps / DN -4dB

SUBTITLES:

Codec                           Language        Bitrate         Description    
-----                           --------        -------         -----------    
Presentation Graphics           Russian         0,574 kbps                     
Presentation Graphics           Spanish         46,970 kbps                    

FILES:

Name            Time In         Length          Size            Total Bitrate  
----            -------         ------          ----            -------------  
00105.M2TS      0:00:00.000     0:00:26.993     22 548 480      6 683          

CHAPTERS:

Number          Time In         Length          Avg Video Rate  Max 1-Sec Rate  Max 1-Sec Time  Max 5-Sec Rate  Max 5-Sec Time  Max 10Sec Rate  Max 10Sec Time  Avg Frame Size  Max Frame Size  Max Frame Time 
------          -------         ------          --------------  --------------  --------------  --------------  --------------  --------------  --------------  --------------  --------------  -------------- 
1               0:00:00.000     0:00:26.993     6 046 kbps      8 035 kbps      00:00:02.736    7 313 kbps      00:00:02.001    6 749 kbps      00:00:15.615    25 216 bytes    76 392 bytes    00:00:16.449   

STREAM DIAGNOSTICS:

File            PID             Type            Codec           Language                Seconds                 Bitrate                 Bytes           Packets        
----            ---             ----            -----           --------                --------------          --------------          -------------   -----          
00105.M2TS      4113 (0x1011)   0x02            MPEG-2                                  26,927                  6 061                   20 399 582      111 319        
00105.M2TS      4352 (0x1100)   0x81            AC3             eng (English)           26,927                  193                     648 192         4 220          
00105.M2TS      4608 (0x1200)   0x90            PGS             spa (Spanish)           26,927                  47                      158 488         941            
00105.M2TS      4609 (0x1201)   0x90            PGS             rus (Russian)           26,927                  1                       1 936           18             

[/code]
<---- END FORUMS PASTE ---->

QUICK SUMMARY:

Disc Title: S.W.A.T. (2003)
Disc Size: 24 131 018 143 bytes
Protection: AACS
BD-Java: No
Playlist: 00203.MPLS
Size: 22 548 480 bytes
Length: 0:00:26
Total Bitrate: 6,68 Mbps
Video: MPEG-2 Video / 6046 kbps / 480i / 29,970 fps / 4:3
Audio: English / Dolby Digital Audio / 2.0 / 48 kHz / 192 kbps / DN -4dB
Subtitle: Russian / 0,574 kbps
Subtitle: Spanish / 46,970 kbps


********************
PLAYLIST: 00211.MPLS
********************

<--- BEGIN FORUMS PASTE --->
[code]
                                                                                                                Total   Video                                            
Title                                                           Codec   Length  Movie Size      Disc Size       Bitrate Bitrate Main Audio Track                          Secondary Audio Track
-----                                                           ------  ------- --------------  --------------  ------- ------- ------------------                        ---------------------
00211.MPLS                                                      MPEG-2  0:02:31 354 084 864     24 131 018 143  18,66   17,12   DD AC3 5.1 640Kbps                       
[/code]

[code]

DISC INFO:

Disc Title:     S.W.A.T. (2003)
Disc Size:      24 131 018 143 bytes
Protection:     AACS
BD-Java:        No
BDInfo:         0.5.6

PLAYLIST REPORT:

Name:                   00211.MPLS
Length:                 0:02:31 (h:m:s)
Size:                   354 084 864 bytes
Total Bitrate:          18,66 Mbps

VIDEO:

Codec                   Bitrate             Description    
-----                   -------             -----------    
MPEG-2 Video            17121 kbps          1080p / 23,976 fps / 16:9

AUDIO:

Codec                           Language        Bitrate         Description    
-----                           --------        -------         -----------    
Dolby Digital Audio             English         640 kbps        5.1 / 48 kHz / 640 kbps / DN -4dB

FILES:

Name            Time In         Length          Size            Total Bitrate  
----            -------         ------          ----            -------------  
00112.M2TS      0:00:00.000     0:02:31.818     354 084 864     18 658         

CHAPTERS:

Number          Time In         Length          Avg Video Rate  Max 1-Sec Rate  Max 1-Sec Time  Max 5-Sec Rate  Max 5-Sec Time  Max 10Sec Rate  Max 10Sec Time  Avg Frame Size  Max Frame Size  Max Frame Time 
------          -------         ------          --------------  --------------  --------------  --------------  --------------  --------------  --------------  --------------  --------------  -------------- 
1               0:00:00.000     0:02:31.818     17 121 kbps     30 990 kbps     00:01:31.716    24 238 kbps     00:01:27.712    23 686 kbps     00:01:24.459    89 259 bytes    474 708 bytes   00:00:15.181   

STREAM DIAGNOSTICS:

File            PID             Type            Codec           Language                Seconds                 Bitrate                 Bytes           Packets        
----            ---             ----            -----           --------                --------------          --------------          -------------   -----          
00112.M2TS      4113 (0x1011)   0x02            MPEG-2                                  151,652                 17 139                  324 903 272     1 767 889      
00112.M2TS      4352 (0x1100)   0x81            AC3             eng (English)           151,652                 641                     12 147 200      71 175         

[/code]
<---- END FORUMS PASTE ---->

QUICK SUMMARY:

Disc Title: S.W.A.T. (2003)
Disc Size: 24 131 018 143 bytes
Protection: AACS
BD-Java: No
Playlist: 00211.MPLS
Size: 354 084 864 bytes
Length: 0:02:31
Total Bitrate: 18,66 Mbps
Video: MPEG-2 Video / 17121 kbps / 1080p / 23,976 fps / 16:9
Audio: English / Dolby Digital Audio / 5.1 / 48 kHz / 640 kbps / DN -4dB


********************
PLAYLIST: 00214.MPLS
********************

<--- BEGIN FORUMS PASTE --->
[code]
                                                                                                                Total   Video                                            
Title                                                           Codec   Length  Movie Size      Disc Size       Bitrate Bitrate Main Audio Track                          Secondary Audio Track
-----                                                           ------  ------- --------------  --------------  ------- ------- ------------------                        ---------------------
00214.MPLS                                                      MPEG-2  0:02:24 338 878 464     24 131 018 143  18,81   17,49   DD AC3 5.1 448Kbps                       
[/code]

[code]

DISC INFO:

Disc Title:     S.W.A.T. (2003)
Disc Size:      24 131 018 143 bytes
Protection:     AACS
BD-Java:        No
BDInfo:         0.5.6

PLAYLIST REPORT:

Name:                   00214.MPLS
Length:                 0:02:24 (h:m:s)
Size:                   338 878 464 bytes
Total Bitrate:          18,81 Mbps

VIDEO:

Codec                   Bitrate             Description    
-----                   -------             -----------    
MPEG-2 Video            17494 kbps          1080p / 23,976 fps / 16:9

AUDIO:

Codec                           Language        Bitrate         Description    
-----                           --------        -------         -----------    
Dolby Digital Audio             English         448 kbps        5.1 / 48 kHz / 448 kbps / DN -2dB

FILES:

Name            Time In         Length          Size            Total Bitrate  
----            -------         ------          ----            -------------  
00116.M2TS      0:00:00.000     0:02:24.144     338 878 464     18 808         

CHAPTERS:

Number          Time In         Length          Avg Video Rate  Max 1-Sec Rate  Max 1-Sec Time  Max 5-Sec Rate  Max 5-Sec Time  Max 10Sec Rate  Max 10Sec Time  Avg Frame Size  Max Frame Size  Max Frame Time 
------          -------         ------          --------------  --------------  --------------  --------------  --------------  --------------  --------------  --------------  --------------  -------------- 
1               0:00:00.000     0:02:24.144     17 494 kbps     34 331 kbps     00:01:48.358    25 559 kbps     00:01:44.938    22 752 kbps     00:01:44.938    91 204 bytes    671 169 bytes   00:00:02.919   

STREAM DIAGNOSTICS:

File            PID             Type            Codec           Language                Seconds                 Bitrate                 Bytes           Packets        
----            ---             ----            -----           --------                --------------          --------------          -------------   -----          
00116.M2TS      4113 (0x1011)   0x02            MPEG-2                                  144,019                 17 509                  315 200 771     1 715 070      
00116.M2TS      4352 (0x1100)   0x81            AC3             eng (English)           144,019                 448                     8 072 960       45 050         

[/code]
<---- END FORUMS PASTE ---->

QUICK SUMMARY:

Disc Title: S.W.A.T. (2003)
Disc Size: 24 131 018 143 bytes
Protection: AACS
BD-Java: No
Playlist: 00214.MPLS
Size: 338 878 464 bytes
Length: 0:02:24
Total Bitrate: 18,81 Mbps
Video: MPEG-2 Video / 17494 kbps / 1080p / 23,976 fps / 16:9
Audio: English / Dolby Digital Audio / 5.1 / 48 kHz / 448 kbps / DN -2dB


********************
PLAYLIST: 00212.MPLS
********************

<--- BEGIN FORUMS PASTE --->
[code]
                                                                                                                Total   Video                                            
Title                                                           Codec   Length  Movie Size      Disc Size       Bitrate Bitrate Main Audio Track                          Secondary Audio Track
-----                                                           ------  ------- --------------  --------------  ------- ------- ------------------                        ---------------------
00212.MPLS                                                      MPEG-2  0:02:21 330 934 272     24 131 018 143  18,74   17,19   DD AC3 5.1 640Kbps                       
[/code]

[code]

DISC INFO:

Disc Title:     S.W.A.T. (2003)
Disc Size:      24 131 018 143 bytes
Protection:     AACS
BD-Java:        No
BDInfo:         0.5.6

PLAYLIST REPORT:

Name:                   00212.MPLS
Length:                 0:02:21 (h:m:s)
Size:                   330 934 272 bytes
Total Bitrate:          18,74 Mbps

VIDEO:

Codec                   Bitrate             Description    
-----                   -------             -----------    
MPEG-2 Video            17195 kbps          1080p / 23,976 fps / 16:9

AUDIO:

Codec                           Language        Bitrate         Description    
-----                           --------        -------         -----------    
Dolby Digital Audio             English         640 kbps        5.1 / 48 kHz / 640 kbps / DN -8dB

FILES:

Name            Time In         Length          Size            Total Bitrate  
----            -------         ------          ----            -------------  
00113.M2TS      0:00:00.000     0:02:21.307     330 934 272     18 736         

CHAPTERS:

Number          Time In         Length          Avg Video Rate  Max 1-Sec Rate  Max 1-Sec Time  Max 5-Sec Rate  Max 5-Sec Time  Max 10Sec Rate  Max 10Sec Time  Avg Frame Size  Max Frame Size  Max Frame Time 
------          -------         ------          --------------  --------------  --------------  --------------  --------------  --------------  --------------  --------------  --------------  -------------- 
1               0:00:00.000     0:02:21.307     17 195 kbps     35 320 kbps     00:02:08.128    26 612 kbps     00:00:13.013    25 978 kbps     00:00:11.386    89 645 bytes    437 637 bytes   00:01:26.878   

STREAM DIAGNOSTICS:

File            PID             Type            Codec           Language                Seconds                 Bitrate                 Bytes           Packets        
----            ---             ----            -----           --------                --------------          --------------          -------------   -----          
00113.M2TS      4113 (0x1011)   0x02            MPEG-2                                  141,141                 17 215                  303 716 230     1 652 595      
00113.M2TS      4352 (0x1100)   0x81            AC3             eng (English)           141,141                 641                     11 304 960      66 240         

[/code]
<---- END FORUMS PASTE ---->

QUICK SUMMARY:

Disc Title: S.W.A.T. (2003)
Disc Size: 24 131 018 143 bytes
Protection: AACS
BD-Java: No
Playlist: 00212.MPLS
Size: 330 934 272 bytes
Length: 0:02:21
Total Bitrate: 18,74 Mbps
Video: MPEG-2 Video / 17195 kbps / 1080p / 23,976 fps / 16:9
Audio: English / Dolby Digital Audio / 5.1 / 48 kHz / 640 kbps / DN -8dB


********************
PLAYLIST: 00213.MPLS
********************

<--- BEGIN FORUMS PASTE --->
[code]
                                                                                                                Total   Video                                            
Title                                                           Codec   Length  Movie Size      Disc Size       Bitrate Bitrate Main Audio Track                          Secondary Audio Track
-----                                                           ------  ------- --------------  --------------  ------- ------- ------------------                        ---------------------
00213.MPLS                                                      MPEG-2  0:01:31 224 083 968     24 131 018 143  19,57   18,00   DD AC3 5.1 640Kbps                       
[/code]

[code]

DISC INFO:

Disc Title:     S.W.A.T. (2003)
Disc Size:      24 131 018 143 bytes
Protection:     AACS
BD-Java:        No
BDInfo:         0.5.6

PLAYLIST REPORT:

Name:                   00213.MPLS
Length:                 0:01:31 (h:m:s)
Size:                   224 083 968 bytes
Total Bitrate:          19,57 Mbps

VIDEO:

Codec                   Bitrate             Description    
-----                   -------             -----------    
MPEG-2 Video            17996 kbps          1080p / 23,976 fps / 16:9

AUDIO:

Codec                           Language        Bitrate         Description    
-----                           --------        -------         -----------    
Dolby Digital Audio             English         640 kbps        5.1 / 48 kHz / 640 kbps / DN -7dB

FILES:

Name            Time In         Length          Size            Total Bitrate  
----            -------         ------          ----            -------------  
00114.M2TS      0:00:00.000     0:01:31.591     224 083 968     19 572         

CHAPTERS:

Number          Time In         Length          Avg Video Rate  Max 1-Sec Rate  Max 1-Sec Time  Max 5-Sec Rate  Max 5-Sec Time  Max 10Sec Rate  Max 10Sec Time  Avg Frame Size  Max Frame Size  Max Frame Time 
------          -------         ------          --------------  --------------  --------------  --------------  --------------  --------------  --------------  --------------  --------------  -------------- 
1               0:00:00.000     0:01:31.591     17 996 kbps     31 880 kbps     00:01:24.417    25 353 kbps     00:01:03.813    24 123 kbps     00:01:01.269    93 823 bytes    427 228 bytes   00:00:57.724   

STREAM DIAGNOSTICS:

File            PID             Type            Codec           Language                Seconds                 Bitrate                 Bytes           Packets        
----            ---             ----            -----           --------                --------------          --------------          -------------   -----          
00114.M2TS      4113 (0x1011)   0x02            MPEG-2                                  91,466                  18 021                  206 034 497     1 121 038      
00114.M2TS      4352 (0x1100)   0x81            AC3             eng (English)           91,466                  641                     7 329 280       42 945         

[/code]
<---- END FORUMS PASTE ---->

QUICK SUMMARY:

Disc Title: S.W.A.T. (2003)
Disc Size: 24 131 018 143 bytes
Protection: AACS
BD-Java: No
Playlist: 00213.MPLS
Size: 224 083 968 bytes
Length: 0:01:31
Total Bitrate: 19,57 Mbps
Video: MPEG-2 Video / 17996 kbps / 1080p / 23,976 fps / 16:9
Audio: English / Dolby Digital Audio / 5.1 / 48 kHz / 640 kbps / DN -7dB


********************
PLAYLIST: 00186.MPLS
********************

<--- BEGIN FORUMS PASTE --->
[code]
                                                                                                                Total   Video                                            
Title                                                           Codec   Length  Movie Size      Disc Size       Bitrate Bitrate Main Audio Track                          Secondary Audio Track
-----                                                           ------  ------- --------------  --------------  ------- ------- ------------------                        ---------------------
00186.MPLS                                                      MPEG-2  0:00:30 1 710 144       24 131 018 143  0,45    0,19                                             
[/code]

[code]

DISC INFO:

Disc Title:     S.W.A.T. (2003)
Disc Size:      24 131 018 143 bytes
Protection:     AACS
BD-Java:        No
BDInfo:         0.5.6

PLAYLIST REPORT:

Name:                   00186.MPLS
Length:                 0:00:30 (h:m:s)
Size:                   1 710 144 bytes
Total Bitrate:          0,45 Mbps

VIDEO:

Codec                   Bitrate             Description    
-----                   -------             -----------    
MPEG-2 Video            193 kbps            1080p / 23,976 fps / 16:9

FILES:

Name            Time In         Length          Size            Total Bitrate  
----            -------         ------          ----            -------------  
00090.M2TS      0:00:00.000     0:00:06.005     256 704         172            
00090.M2TS      0:00:06.005     0:00:06.005     269 184         180            
00090.M2TS      0:00:12.011     0:00:06.006     229 248         153            
00090.M2TS      0:00:18.018     0:00:06.005     287 232         192            
00090.M2TS      0:00:24.024     0:00:06.005     475 200         318            
00090.M2TS      0:00:30.029     0:00:00.041     192 576         36 935         

CHAPTERS:

Number          Time In         Length          Avg Video Rate  Max 1-Sec Rate  Max 1-Sec Time  Max 5-Sec Rate  Max 5-Sec Time  Max 10Sec Rate  Max 10Sec Time  Avg Frame Size  Max Frame Size  Max Frame Time 
------          -------         ------          --------------  --------------  --------------  --------------  --------------  --------------  --------------  --------------  --------------  -------------- 
1               0:00:00.000     0:00:06.005     572 kbps        294 kbps        00:00:05.964    294 kbps        00:00:05.964    0 kbps          00:00:00.000    214 649 bytes   220 714 bytes   00:00:11.970   
2               0:00:06.005     0:00:06.005     243 kbps        243 kbps        00:00:11.970    243 kbps        00:00:11.970    0 kbps          00:00:00.000    182 481 bytes   182 481 bytes   00:00:17.976   
3               0:00:12.011     0:00:06.006     317 kbps        317 kbps        00:00:17.976    317 kbps        00:00:17.976    0 kbps          00:00:00.000    238 288 bytes   238 288 bytes   00:00:23.982   
4               0:00:18.018     0:00:06.005     311 kbps        311 kbps        00:00:23.982    311 kbps        00:00:23.982    0 kbps          00:00:00.000    233 513 bytes   233 513 bytes   00:00:29.988   
5               0:00:24.024     0:00:06.047     4 404 kbps      557 kbps        00:00:17.934    557 kbps        00:00:17.934    434 kbps        00:00:17.976    208 092 bytes   238 288 bytes   00:00:23.982   

STREAM DIAGNOSTICS:

File            PID             Type            Codec           Language                Seconds                 Bitrate                 Bytes           Packets        
----            ---             ----            -----           --------                --------------          --------------          -------------   -----          
00090.M2TS      4113 (0x1011)   0x02            MPEG-2                                  24,024                  422                     1 266 060       6 884          

[/code]
<---- END FORUMS PASTE ---->

QUICK SUMMARY:

Disc Title: S.W.A.T. (2003)
Disc Size: 24 131 018 143 bytes
Protection: AACS
BD-Java: No
Playlist: 00186.MPLS
Size: 1 710 144 bytes
Length: 0:00:30
Total Bitrate: 0,45 Mbps
Video: MPEG-2 Video / 193 kbps / 1080p / 23,976 fps / 16:9